osu file format v14

[General]
AudioFilename: audio.ogg
AudioLeadIn: 0
PreviewTime: 60521
Countdown: 0
SampleSet: Soft
StackLeniency: 0.7
Mode: 3
LetterboxInBreaks: 0
SpecialStyle: 0
WidescreenStoryboard: 1

[Editor]
Bookmarks: 762,12056,17703,23350,34644,45938,51585,60056,71350,82644,88644
DistanceSpacing: 1
BeatDivisor: 4
GridSize: 16
TimelineZoom: 1.9

[Metadata]
Title:Baby Sweet Berry Love (TV Size)
TitleUnicode:Baby Sweet Berry Love (TV Size)
Artist:Ogura Yui
ArtistUnicode:小倉唯
Creator:cai_ji_ccc
Version:Ysg's Normal
Source:変態王子と笑わない猫。
Tags:hidden is fun ml-ysg Hentai Ouji to Warawanai Neko ed anime jpop japanese j-pop
BeatmapID:4309697
BeatmapSetID:2060798

[Difficulty]
HPDrainRate:7
CircleSize:4
OverallDifficulty:7
ApproachRate:5
SliderMultiplier:1.4
SliderTickRate:1

[Events]
//Background and Video events
0,0,"neko.jpg",0,0
//Break Periods
//Storyboard Layer 0 (Background)
//Storyboard Layer 1 (Fail)
//Storyboard Layer 2 (Pass)
//Storyboard Layer 3 (Foreground)
//Storyboard Layer 4 (Overlay)
//Storyboard Sound Samples
Sample,9168,0,"kick.wav",40
Sample,11639,0,"kick.wav",40
Sample,34580,0,"kick.wav",40
Sample,35286,0,"kick.wav",40
Sample,47462,0,"kick.wav",40
Sample,47992,0,"kick.wav",40
Sample,50286,0,"kick.wav",40
Sample,50815,0,"kick.wav",40
Sample,66345,0,"kick.wav",40
Sample,70933,0,"kick.wav",40
Sample,77639,0,"kick.wav",40
Sample,81874,0,"kick.wav",40
Sample,82227,0,"kick.wav",40
Sample,85580,0,"kick.wav",40
Sample,87874,0,"snare.wav",30

[TimingPoints]
1757,352.941176470588,4,2,1,40,1,0
61051,-100,4,2,1,40,0,1
71992,-100,4,2,1,40,0,0
72345,-100,4,2,1,40,0,1
83639,-100,4,2,1,40,0,0

[HitObjects]
64,192,1227,1,0,0:0:0:0:
192,192,1404,1,0,0:0:0:0:
320,192,1580,1,0,0:0:0:0:
448,192,1757,128,0,1933:0:0:0:40:kick.wav
64,192,1933,1,0,0:0:0:40:kick.wav
192,192,2109,128,0,2286:0:0:0:0:
448,192,2462,128,0,2639:0:0:0:0:
320,192,2815,1,0,0:0:0:0:
64,192,2992,128,0,3345:0:0:0:0:
448,192,3168,1,0,0:0:0:40:kick.wav
192,192,3345,1,0,0:0:0:0:
320,192,3521,1,0,0:0:0:0:
192,192,3698,1,0,0:0:0:0:
448,192,3874,1,0,0:0:0:40:kick.wav
64,192,4139,1,0,0:0:0:40:kick.wav
320,192,4404,1,0,0:0:0:40:kick.wav
192,192,4580,1,0,0:0:0:40:kick.wav
448,192,4756,1,0,0:0:0:40:kick.wav
64,192,4933,1,0,0:0:0:0:
320,192,5109,1,0,0:0:0:0:
192,192,5286,128,0,5639:0:0:0:0:
448,192,5639,1,0,0:0:0:0:
64,192,5815,128,0,6521:0:0:0:0:
320,192,5992,1,0,0:0:0:40:kick.wav
192,192,6698,1,0,0:0:0:40:kick.wav
448,192,6962,1,0,0:0:0:40:kick.wav
64,192,7227,1,0,0:0:0:40:kick.wav
192,192,7404,1,0,0:0:0:35:crashL.wav
320,192,7404,128,0,8109:0:0:0:40:kick.wav
64,192,7756,1,0,0:0:0:35:crashS.wav
192,192,8109,128,0,8815:0:0:0:35:crashL.wav
448,192,8109,1,0,0:0:0:40:kick.wav
320,192,8462,1,0,0:0:0:35:crashS.wav
64,192,8639,1,0,0:0:0:0:
320,192,8815,1,0,0:0:0:35:crashS.wav
448,192,8815,128,0,9521:0:0:0:40:kick.wav
64,192,8992,1,0,0:0:0:0:
192,192,9168,1,0,0:0:0:35:crashS.wav
320,192,9345,1,0,0:0:0:0:
64,192,9521,128,0,9874:0:0:0:35:crashL.wav
192,192,9521,1,0,0:0:0:40:kick.wav
320,192,9874,1,0,0:0:0:0:
192,192,10051,1,0,0:0:0:0:
448,192,10227,1,0,0:0:0:40:kick.wav
64,192,10404,1,0,0:0:0:30:snare.wav
192,192,10404,1,0,0:0:0:0:
320,192,10580,1,0,0:0:0:35:crashS.wav
448,192,10580,1,0,0:0:0:30:snare.wav
64,192,10756,1,0,0:0:0:40:kick.wav
192,192,10933,1,0,0:0:0:40:kick.wav
320,192,11109,1,0,0:0:0:0:
64,192,11286,1,0,0:0:0:35:crashS.wav
448,192,11286,1,0,0:0:0:30:snare.wav
192,192,11462,1,0,0:0:0:40:tom3.wav
320,192,11639,1,0,0:0:0:35:crashS.wav
448,192,11639,1,0,0:0:0:30:snare.wav
192,192,11815,1,0,0:0:0:40:kick.wav
64,192,11992,1,0,0:0:0:35:crashS.wav
448,192,11992,1,0,0:0:0:30:snare.wav
320,192,12168,1,0,0:0:0:40:tom3.wav
64,192,12345,1,0,0:0:0:40:kick.wav
192,192,12521,1,0,0:0:0:40:tom3.wav
320,192,12698,1,0,0:0:0:35:crashS.wav
448,192,12698,1,0,0:0:0:30:snare.wav
64,192,12874,1,0,0:0:0:40:tom2.wav
192,192,12874,1,0,0:0:0:0:
320,192,13051,1,0,0:0:0:35:crashL.wav
448,192,13051,1,0,0:0:0:40:kick.wav
192,192,13227,1,0,0:0:0:0:
64,192,13404,1,0,0:0:0:30:snare.wav
320,192,13404,1,0,0:0:0:0:
448,192,13580,1,0,0:0:0:0:
64,192,13756,1,0,0:0:0:40:kick.wav
192,192,13933,1,0,0:0:0:0:
320,192,14109,1,0,0:0:0:30:snare.wav
448,192,14109,1,0,0:0:0:0:
192,192,14462,1,0,0:0:0:40:kick.wav
320,192,14639,1,0,0:0:0:0:
192,192,14815,1,0,0:0:0:30:snare.wav
448,192,14815,1,0,0:0:0:0:
64,192,14992,1,0,0:0:0:0:
448,192,15168,1,0,0:0:0:40:kick.wav
320,192,15345,1,0,0:0:0:0:
64,192,15521,1,0,0:0:0:30:snare.wav
192,192,15521,1,0,0:0:0:0:
448,192,15874,1,0,0:0:0:40:kick.wav
192,192,16051,1,0,0:0:0:0:
320,192,16227,1,0,0:0:0:30:snare.wav
448,192,16227,128,0,16404:0:0:0:0:
64,192,16580,1,0,0:0:0:40:kick.wav
320,192,16756,1,0,0:0:0:0:
64,192,16933,1,0,0:0:0:30:snare.wav
192,192,16933,128,0,17109:0:0:0:0:
320,192,17286,1,0,0:0:0:40:kick.wav
192,192,17462,1,0,0:0:0:0:
64,192,17639,1,0,0:0:0:35:crashS.wav
448,192,17639,1,0,0:0:0:30:snare.wav
192,192,17815,1,0,0:0:0:20:snare.wav
320,192,17815,1,0,0:0:0:0:
64,192,17992,1,0,0:0:0:40:tom3.wav
448,192,18168,1,0,0:0:0:0:
192,192,18345,1,0,0:0:0:35:crashS.wav
320,192,18345,1,0,0:0:0:30:snare.wav
64,192,18521,1,0,0:0:0:40:tom2.wav
320,192,18698,1,0,0:0:0:35:crashS.wav
448,192,18698,1,0,0:0:0:40:kick.wav
192,192,18874,1,0,0:0:0:0:
64,192,19051,1,0,0:0:0:30:snare.wav
448,192,19051,1,0,0:0:0:0:
192,192,19227,1,0,0:0:0:35:crashS.wav
320,192,19227,128,0,19580:0:0:0:40:kick.wav
64,192,19580,1,0,0:0:0:40:kick.wav
192,192,19756,128,0,20109:0:0:0:30:snare.wav
448,192,19756,1,0,0:0:0:0:
320,192,20109,1,0,0:0:0:35:crashS.wav
448,192,20109,1,0,0:0:0:40:kick.wav
64,192,20286,1,0,0:0:0:0:
192,192,20462,1,0,0:0:0:30:snare.wav
448,192,20462,1,0,0:0:0:0:
64,192,20639,128,0,20992:0:0:0:35:crashS.wav
320,192,20639,1,0,0:0:0:40:kick.wav
448,192,20992,1,0,0:0:0:40:kick.wav
192,192,21168,1,0,0:0:0:30:snare.wav
320,192,21168,1,0,0:0:0:0:
64,192,21345,1,0,0:0:0:35:crashS.wav
448,192,21345,128,0,21698:0:0:0:40:kick.wav
192,192,21698,1,0,0:0:0:40:kick.wav
64,192,21874,1,0,0:0:0:30:snare.wav
320,192,21874,1,0,0:0:0:0:
448,192,22051,1,0,0:0:0:0:
64,192,22227,1,0,0:0:0:35:crashS.wav
192,192,22227,1,0,0:0:0:40:kick.wav
320,192,22404,1,0,0:0:0:0:
64,192,22580,1,0,0:0:0:30:snare.wav
448,192,22580,1,0,0:0:0:0:
192,192,22756,1,0,0:0:0:30:snare.wav
320,192,22933,1,0,0:0:0:35:crashL.wav
448,192,22933,1,0,0:0:0:40:kick.wav
192,192,23109,1,0,0:0:0:30:snare.wav
64,192,23286,1,0,0:0:0:30:snare.wav
320,192,23286,1,0,0:0:0:40:kick.wav
448,192,23462,1,0,0:0:0:0:
192,192,23639,1,0,0:0:0:40:kick.wav
320,192,23815,1,0,0:0:0:30:snare.wav
448,192,23815,1,0,0:0:0:0:
192,192,23992,128,0,24168:0:0:0:30:snare.wav
320,192,24168,128,0,24345:0:0:0:30:snare.wav
64,192,24345,128,0,24698:0:0:0:35:crashL.wav
448,192,24345,1,0,0:0:0:40:kick.wav
320,192,24698,128,0,25051:0:0:0:0:
192,192,24874,1,0,0:0:0:40:kick.wav
64,192,25051,1,0,0:0:0:0:
448,192,25227,1,0,0:0:0:0:
192,192,25404,1,0,0:0:0:40:clap.wav
320,192,25580,1,0,0:0:0:0:
448,192,25756,128,0,26286:0:0:0:40:kick.wav
64,192,26021,1,0,0:0:0:40:kick.wav
192,192,26286,1,0,0:0:0:40:kick.wav
320,192,26462,128,0,26815:0:0:0:0:
64,192,26815,1,0,0:0:0:40:clap.wav
192,192,26992,1,0,0:0:0:40:kick.wav
448,192,27168,128,0,27521:0:0:0:40:kick.wav
64,192,27521,128,0,27874:0:0:0:0:
320,192,27698,1,0,0:0:0:40:kick.wav
192,192,27874,1,0,0:0:0:0:
448,192,28051,1,0,0:0:0:0:
64,192,28227,1,0,0:0:0:40:clap.wav
320,192,28404,1,0,0:0:0:40:kick.wav
192,192,28580,128,0,29109:0:0:0:40:kick.wav
448,192,28845,1,0,0:0:0:40:kick.wav
320,192,29109,1,0,0:0:0:40:kick.wav
64,192,29286,128,0,29639:0:0:0:0:
448,192,29639,1,0,0:0:0:40:clap.wav
192,192,29992,128,0,30345:0:0:0:40:kick.wav
320,192,30345,1,0,0:0:0:0:
64,192,30521,128,0,30874:0:0:0:40:kick.wav
448,192,30874,1,0,0:0:0:40:kick.wav
192,192,31051,1,0,0:0:0:40:clap.wav
320,192,31404,1,0,0:0:0:40:kick.wav
64,192,31580,1,0,0:0:0:0:
448,192,31756,1,0,0:0:0:0:
192,192,31933,128,0,32286:0:0:0:40:kick.wav
320,192,32286,1,0,0:0:0:40:kick.wav
64,192,32462,1,0,0:0:0:40:clap.wav
448,192,32815,128,0,33168:0:0:0:40:kick.wav
192,192,33168,128,0,33521:0:0:0:0:
320,192,33521,128,0,33874:0:0:0:40:kick.wav
448,192,33698,1,0,0:0:0:40:kick.wav
64,192,33874,128,0,34227:0:0:0:40:clap.wav
448,192,34227,128,0,35286:0:0:0:40:kick.wav
192,192,34580,1,0,0:0:0:40:clap.wav
64,192,34933,1,0,0:0:0:40:kick.wav
320,192,35286,1,0,0:0:0:40:clap.wav
64,192,35639,1,0,0:0:0:35:crashL.wav
192,192,35639,128,0,35992:0:0:0:40:kick.wav
320,192,35992,128,0,36345:0:0:0:30:snare.wav
448,192,35992,1,0,0:0:0:0:
64,192,36345,1,0,0:0:0:40:kick.wav
192,192,36521,1,0,0:0:0:40:kick.wav
320,192,36698,1,0,0:0:0:30:snare.wav
448,192,36698,1,0,0:0:0:0:
192,192,36874,1,0,0:0:0:0:
448,192,37051,128,0,37404:0:0:0:40:kick.wav
64,192,37404,1,0,0:0:0:30:snare.wav
192,192,37404,1,0,0:0:0:0:
320,192,37580,1,0,0:0:0:40:kick.wav
64,192,37756,128,0,38109:0:0:0:0:
448,192,37933,1,0,0:0:0:40:kick.wav
192,192,38109,1,0,0:0:0:30:snare.wav
320,192,38109,1,0,0:0:0:0:
448,192,38462,128,0,38815:0:0:0:40:kick.wav
64,192,38815,128,0,39168:0:0:0:30:snare.wav
192,192,38815,1,0,0:0:0:0:
320,192,39168,1,0,0:0:0:40:kick.wav
192,192,39345,1,0,0:0:0:40:kick.wav
64,192,39521,1,0,0:0:0:30:snare.wav
448,192,39521,1,0,0:0:0:0:
320,192,39698,1,0,0:0:0:0:
192,192,39874,128,0,40227:0:0:0:40:kick.wav
320,192,40227,1,0,0:0:0:30:snare.wav
448,192,40227,1,0,0:0:0:0:
64,192,40404,1,0,0:0:0:40:kick.wav
320,192,40580,128,0,40933:0:0:0:0:
192,192,40756,1,0,0:0:0:40:kick.wav
64,192,40933,1,0,0:0:0:30:snare.wav
448,192,40933,1,0,0:0:0:0:
192,192,41286,128,0,41639:0:0:0:35:crashS.wav
320,192,41286,1,0,0:0:0:40:kick.wav
64,192,41639,1,0,0:0:0:30:snare.wav
448,192,41639,1,0,0:0:0:0:
192,192,41815,1,0,0:0:0:35:crashS.wav
320,192,41815,128,0,42168:0:0:0:40:kick.wav
64,192,42168,1,0,0:0:0:40:kick.wav
192,192,42345,1,0,0:0:0:30:snare.wav
448,192,42345,1,0,0:0:0:0:
64,192,42698,1,0,0:0:0:35:crashS.wav
448,192,42698,1,0,0:0:0:40:kick.wav
320,192,42874,1,0,0:0:0:0:
64,192,43051,1,0,0:0:0:30:snare.wav
192,192,43051,1,0,0:0:0:0:
320,192,43227,1,0,0:0:0:35:crashS.wav
448,192,43227,128,0,43580:0:0:0:40:kick.wav
64,192,43580,1,0,0:0:0:40:kick.wav
192,192,43756,1,0,0:0:0:30:snare.wav
320,192,43756,1,0,0:0:0:0:
448,192,43933,1,0,0:0:0:30:snare.wav
64,192,44109,1,0,0:0:0:35:crashL.wav
192,192,44109,128,0,44462:0:0:0:40:kick.wav
320,192,44462,128,0,44815:0:0:0:30:snare.wav
448,192,44462,1,0,0:0:0:0:
64,192,44815,128,0,45168:0:0:0:40:kick.wav
192,192,44992,1,0,0:0:0:30:snare.wav
448,192,45168,128,0,45521:0:0:0:30:snare.wav
320,192,45345,1,0,0:0:0:40:kick.wav
64,192,45521,1,0,0:0:0:40:kick.wav
192,192,45698,1,0,0:0:0:40:kick.wav
320,192,45874,1,0,0:0:0:35:crashL.wav
448,192,45874,1,0,0:0:0:30:snare.wav
192,192,46051,1,0,0:0:0:40:tom2.wav
64,192,46227,1,0,0:0:0:35:crashL.wav
448,192,46227,1,0,0:0:0:40:kick.wav
320,192,46404,1,0,0:0:0:30:snare.wav
64,192,46580,1,0,0:0:0:30:snare.wav
192,192,46580,1,0,0:0:0:0:
320,192,46933,128,0,47286:0:0:0:35:crashS.wav
448,192,46933,1,0,0:0:0:40:kick.wav
64,192,47462,128,0,47815:0:0:0:35:crashS.wav
448,192,47992,128,0,48345:0:0:0:35:crashS.wav
64,192,48345,1,0,0:0:0:40:kick.wav
320,192,48521,1,0,0:0:0:40:kick.wav
192,192,48698,1,0,0:0:0:0:
320,192,48874,1,0,0:0:0:0:
64,192,49051,1,0,0:0:0:0:
448,192,49227,1,0,0:0:0:0:
192,192,49404,1,0,0:0:0:30:snare.wav
320,192,49404,1,0,0:0:0:0:
64,192,49580,1,0,0:0:0:40:tom3.wav
320,192,49756,1,0,0:0:0:35:crashS.wav
448,192,49756,128,0,50109:0:0:0:40:kick.wav
192,192,50286,128,0,50639:0:0:0:35:crashS.wav
320,192,50815,128,0,51168:0:0:0:35:crashS.wav
64,192,51168,1,0,0:0:0:40:kick.wav
192,192,51345,1,0,0:0:0:40:kick.wav
448,192,51521,1,0,0:0:0:0:
192,192,51698,1,0,0:0:0:0:
320,192,51874,1,0,0:0:0:0:
448,192,52051,1,0,0:0:0:40:tom3.wav
64,192,52227,1,0,0:0:0:40:tom2.wav
192,192,52227,1,0,0:0:0:35:snare.wav
320,192,52404,1,0,0:0:0:40:tom1.wav
64,192,52580,1,0,0:0:0:35:crashL.wav
448,192,52580,1,0,0:0:0:40:kick.wav
192,192,52756,1,0,0:0:0:0:
320,192,52933,1,0,0:0:0:30:snare.wav
448,192,52933,1,0,0:0:0:0:
64,192,53109,128,0,53462:0:0:0:40:kick.wav
320,192,53462,1,0,0:0:0:40:kick.wav
192,192,53639,1,0,0:0:0:30:snare.wav
448,192,53639,128,0,53992:0:0:0:0:
64,192,53992,1,0,0:0:0:35:crashL.wav
192,192,53992,1,0,0:0:0:40:kick.wav
320,192,54168,1,0,0:0:0:40:kick.wav
64,192,54345,1,0,0:0:0:30:snare.wav
448,192,54345,1,0,0:0:0:0:
192,192,54521,128,0,54874:0:0:0:40:kick.wav
448,192,54874,1,0,0:0:0:40:kick.wav
64,192,55051,1,0,0:0:0:30:snare.wav
320,192,55051,128,0,55404:0:0:0:0:
64,192,55404,1,0,0:0:0:35:crashL.wav
192,192,55404,1,0,0:0:0:30:snare.wav
448,192,55580,1,0,0:0:0:40:kick.wav
192,192,55756,1,0,0:0:0:30:snare.wav
320,192,55756,1,0,0:0:0:0:
64,192,55933,1,0,0:0:0:40:kick.wav
320,192,56109,1,0,0:0:0:30:snare.wav
448,192,56109,1,0,0:0:0:0:
192,192,56286,1,0,0:0:0:40:kick.wav
64,192,56462,1,0,0:0:0:30:snare.wav
448,192,56462,1,0,0:0:0:0:
320,192,56639,1,0,0:0:0:40:kick.wav
64,192,56815,1,0,0:0:0:35:crashS.wav
192,192,56815,1,0,0:0:0:30:snare.wav
320,192,56992,1,0,0:0:0:40:kick.wav
192,192,57168,1,0,0:0:0:35:crashS.wav
448,192,57168,1,0,0:0:0:30:snare.wav
64,192,57345,1,0,0:0:0:40:tom1.wav
320,192,57521,1,0,0:0:0:30:snare.wav
448,192,57521,1,0,0:0:0:0:
192,192,57698,1,0,0:0:0:40:tom2.wav
64,192,57874,1,0,0:0:0:30:snare.wav
448,192,57874,1,0,0:0:0:0:
320,192,58051,1,0,0:0:0:40:tom1.wav
64,192,58227,1,0,0:0:0:35:crashS.wav
192,192,58227,1,0,0:0:0:40:kick.wav
192,192,58404,1,0,0:0:0:40:kick.wav
320,192,58580,1,0,0:0:0:30:snare.wav
448,192,58580,1,0,0:0:0:0:
448,192,58933,1,0,0:0:0:40:kick.wav
448,192,59109,1,0,0:0:0:40:kick.wav
64,192,59286,1,0,0:0:0:30:snare.wav
192,192,59286,1,0,0:0:0:0:
320,192,59462,128,0,59815:0:0:0:35:crashS.wav
448,192,59462,1,0,0:0:0:40:kick.wav
64,192,59815,1,0,0:0:0:40:tom3.wav
192,192,59992,1,0,0:0:0:40:tom1.wav
320,192,60168,1,0,0:0:0:40:tom1.wav
64,192,60521,1,0,0:0:0:40:tom1.wav
192,192,60698,1,0,0:0:0:30:snare.wav
448,192,60698,1,0,0:0:0:0:
320,192,60874,1,0,0:0:0:0:
64,192,61051,1,0,0:0:0:35:crashL.wav
192,192,61051,128,0,61404:0:0:0:40:kick.wav
320,192,61404,128,0,61756:0:0:0:30:snare.wav
448,192,61404,1,0,0:0:0:0:
192,192,61756,128,0,62109:0:0:0:40:kick.wav
320,192,62109,1,0,0:0:0:30:snare.wav
448,192,62109,1,0,0:0:0:0:
64,192,62286,128,0,62639:0:0:0:0:
448,192,62462,1,0,0:0:0:40:kick.wav
320,192,62639,1,0,0:0:0:0:
64,192,62815,1,0,0:0:0:30:snare.wav
192,192,62815,1,0,0:0:0:0:
448,192,62992,128,0,63345:0:0:0:0:
64,192,63168,1,0,0:0:0:40:kick.wav
192,192,63521,1,0,0:0:0:30:snare.wav
320,192,63521,1,0,0:0:0:0:
448,192,63698,1,0,0:0:0:0:
64,192,63874,1,0,0:0:0:40:kick.wav
192,192,64051,1,0,0:0:0:0:
320,192,64227,1,0,0:0:0:30:snare.wav
448,192,64227,1,0,0:0:0:0:
64,192,64404,1,0,0:0:0:0:
320,192,64580,128,0,64933:0:0:0:40:kick.wav
192,192,64933,1,0,0:0:0:30:snare.wav
448,192,64933,1,0,0:0:0:0:
64,192,65109,128,0,65815:0:0:0:0:
320,192,65286,1,0,0:0:0:40:kick.wav
448,192,65639,1,0,0:0:0:30:snare.wav
192,192,65992,1,0,0:0:0:40:kick.wav
320,192,66168,1,0,0:0:0:0:
64,192,66345,1,0,0:0:0:35:crashS.wav
448,192,66345,1,0,0:0:0:30:snare.wav
192,192,66521,1,0,0:0:0:0:
320,192,66698,1,0,0:0:0:35:crashL.wav
448,192,66698,128,0,67051:0:0:0:40:kick.wav
64,192,67051,128,0,67404:0:0:0:30:snare.wav
192,192,67051,1,0,0:0:0:0:
448,192,67404,128,0,67756:0:0:0:40:kick.wav
64,192,67756,1,0,0:0:0:30:snare.wav
192,192,67756,1,0,0:0:0:0:
320,192,67933,128,0,68286:0:0:0:0:
64,192,68109,1,0,0:0:0:40:kick.wav
192,192,68286,1,0,0:0:0:0:
320,192,68462,1,0,0:0:0:30:snare.wav
448,192,68462,1,0,0:0:0:0:
64,192,68639,128,0,68992:0:0:0:0:
448,192,68815,1,0,0:0:0:40:kick.wav
192,192,69168,1,0,0:0:0:30:snare.wav
320,192,69168,1,0,0:0:0:0:
64,192,69345,1,0,0:0:0:0:
448,192,69521,1,0,0:0:0:40:kick.wav
64,192,69698,1,0,0:0:0:30:snare.wav
192,192,69698,1,0,0:0:0:0:
320,192,69874,1,0,0:0:0:35:crashS.wav
448,192,69874,1,0,0:0:0:30:snare.wav
192,192,70051,1,0,0:0:0:40:kick.wav
64,192,70227,128,0,70580:0:0:0:40:kick.wav
320,192,70580,1,0,0:0:0:35:crashS.wav
448,192,70580,1,0,0:0:0:30:snare.wav
192,192,70756,1,0,0:0:0:40:tom3.wav
64,192,70933,1,0,0:0:0:35:crashL.wav
448,192,70933,1,0,0:0:0:30:snare.wav
320,192,71109,1,0,0:0:0:40:kick.wav
64,192,71286,1,0,0:0:0:35:crashS.wav
192,192,71286,1,0,0:0:0:30:snare.wav
320,192,71462,128,0,71639:0:0:0:40:tom3.wav
192,192,71639,128,0,71815:0:0:0:40:kick.wav
64,192,71815,1,0,0:0:0:30:snare.wav
448,192,71815,1,0,0:0:0:0:
192,192,71992,1,0,0:0:0:35:crashS.wav
320,192,71992,1,0,0:0:0:30:snare.wav
64,192,72168,1,0,0:0:0:0:
320,192,72345,1,0,0:0:0:35:crashL.wav
448,192,72345,128,0,72698:0:0:0:40:kick.wav
64,192,72698,1,0,0:0:0:30:snare.wav
192,192,72698,128,0,73051:0:0:0:0:
448,192,73051,128,0,73404:0:0:0:40:kick.wav
192,192,73404,1,0,0:0:0:30:snare.wav
320,192,73404,1,0,0:0:0:0:
64,192,73580,128,0,73933:0:0:0:0:
448,192,73756,1,0,0:0:0:40:kick.wav
320,192,73933,1,0,0:0:0:0:
64,192,74109,1,0,0:0:0:30:snare.wav
192,192,74109,1,0,0:0:0:0:
320,192,74286,128,0,74639:0:0:0:0:
64,192,74462,1,0,0:0:0:40:kick.wav
192,192,74815,1,0,0:0:0:30:snare.wav
448,192,74815,1,0,0:0:0:0:
320,192,74992,1,0,0:0:0:0:
64,192,75168,1,0,0:0:0:40:kick.wav
192,192,75345,1,0,0:0:0:0:
320,192,75521,1,0,0:0:0:30:snare.wav
448,192,75521,1,0,0:0:0:0:
192,192,75698,1,0,0:0:0:0:
448,192,75874,128,0,76227:0:0:0:40:kick.wav
64,192,76227,1,0,0:0:0:30:snare.wav
192,192,76227,1,0,0:0:0:0:
320,192,76404,128,0,77109:0:0:0:0:
64,192,76580,1,0,0:0:0:40:kick.wav
192,192,76933,1,0,0:0:0:30:snare.wav
448,192,77286,1,0,0:0:0:40:kick.wav
320,192,77462,1,0,0:0:0:0:
64,192,77639,1,0,0:0:0:35:crashS.wav
192,192,77639,1,0,0:0:0:30:snare.wav
320,192,77815,1,0,0:0:0:0:
64,192,77992,128,0,78345:0:0:0:35:crashL.wav
448,192,77992,1,0,0:0:0:40:kick.wav
320,192,78345,128,0,78698:0:0:0:30:snare.wav
448,192,78345,1,0,0:0:0:0:
64,192,78698,128,0,79051:0:0:0:40:kick.wav
192,192,79051,1,0,0:0:0:30:snare.wav
320,192,79051,1,0,0:0:0:0:
448,192,79227,128,0,79580:0:0:0:0:
64,192,79404,1,0,0:0:0:40:kick.wav
192,192,79580,1,0,0:0:0:0:
320,192,79756,1,0,0:0:0:30:snare.wav
448,192,79756,1,0,0:0:0:0:
192,192,79933,128,0,80286:0:0:0:0:
448,192,80109,1,0,0:0:0:40:kick.wav
64,192,80462,1,0,0:0:0:30:snare.wav
320,192,80462,1,0,0:0:0:0:
192,192,80639,1,0,0:0:0:0:
320,192,80815,1,0,0:0:0:35:crashS.wav
448,192,80815,1,0,0:0:0:40:kick.wav
64,192,80992,1,0,0:0:0:0:
192,192,81168,1,0,0:0:0:35:crashS.wav
448,192,81168,1,0,0:0:0:40:kick.wav
320,192,81345,1,0,0:0:0:0:
64,192,81521,128,0,81874:0:0:0:30:snare.wav
192,192,81521,1,0,0:0:0:0:
448,192,81698,1,0,0:0:0:40:tom3.wav
192,192,81874,1,0,0:0:0:35:crashS.wav
320,192,81874,1,0,0:0:0:30:snare.wav
448,192,82051,1,0,0:0:0:40:tom2.wav
64,192,82227,1,0,0:0:0:35:crashS.wav
192,192,82227,1,0,0:0:0:30:snare.wav
320,192,82404,1,0,0:0:0:40:tom2.wav
64,192,82580,1,0,0:0:0:30:snare.wav
448,192,82580,1,0,0:0:0:40:kick.wav
192,192,82756,1,0,0:0:0:0:
320,192,82933,1,0,0:0:0:40:kick.wav
192,192,83109,1,0,0:0:0:40:tom2.wav
64,192,83286,1,0,0:0:0:30:snare.wav
448,192,83286,1,0,0:0:0:40:kick.wav
320,192,83462,1,0,0:0:0:40:tom1.wav
64,192,83639,1,0,0:0:0:30:snare.wav
192,192,83639,128,0,83992:0:0:0:40:kick.wav
448,192,83992,128,0,84345:0:0:0:0:
192,192,84345,128,0,84698:0:0:0:0:
320,192,84698,1,0,0:0:0:0:
64,192,84874,128,0,85227:0:0:0:35:crashS.wav
448,192,84874,1,0,0:0:0:40:kick.wav
320,192,85227,1,0,0:0:0:30:snare.wav
448,192,85227,1,0,0:0:0:0:
64,192,85404,1,0,0:0:0:30:snare.wav
192,192,85404,1,0,0:0:0:0:
320,192,85580,128,0,85933:0:0:0:35:crashS.wav
448,192,85580,1,0,0:0:0:30:snare.wav
64,192,85933,1,0,0:0:0:40:kick.wav
192,192,86109,1,0,0:0:0:30:snare.wav
448,192,86109,1,0,0:0:0:0:
320,192,86286,1,0,0:0:0:40:tom2.wav
64,192,86462,1,0,0:0:0:35:crashL.wav
192,192,86462,1,0,0:0:0:30:snare.wav
448,192,86639,1,0,0:0:0:40:kick.wav
64,192,86815,1,0,0:0:0:30:snare.wav
320,192,86815,1,0,0:0:0:0:
192,192,86992,1,0,0:0:0:40:kick.wav
320,192,87168,1,0,0:0:0:30:snare.wav
448,192,87168,1,0,0:0:0:0:
192,192,87345,1,0,0:0:0:40:kick.wav
64,192,87521,1,0,0:0:0:30:snare.wav
448,192,87521,1,0,0:0:0:0:
320,192,87698,1,0,0:0:0:40:kick.wav
64,192,87874,1,0,0:0:0:40:tom3.wav
192,192,87874,1,0,0:0:0:35:crashL.wav
448,192,88051,1,0,0:0:0:40:kick.wav
192,192,88227,1,0,0:0:0:30:snare.wav
320,192,88227,1,0,0:0:0:0:
64,192,88404,1,0,0:0:0:40:kick.wav
320,192,88580,1,0,0:0:0:30:snare.wav
448,192,88580,1,0,0:0:0:0:
192,192,88756,1,0,0:0:0:40:kick.wav
64,192,88933,1,0,0:0:0:35:crashL.wav
448,192,88933,128,0,89639:0:0:0:30:snare.wav
