osu file format v14

[General]
AudioFilename: audio.ogg
AudioLeadIn: 0
PreviewTime: 60521
Countdown: 0
SampleSet: Soft
StackLeniency: 0.7
Mode: 3
LetterboxInBreaks: 0
SpecialStyle: 0
WidescreenStoryboard: 0

[Editor]
Bookmarks: 762,12056,23350,34644,45938,60056,71350,82644,88644
DistanceSpacing: 1
BeatDivisor: 6
GridSize: 16
TimelineZoom: 1.9

[Metadata]
Title:Baby Sweet Berry Love (TV Size)
TitleUnicode:Baby Sweet Berry Love (TV Size)
Artist:Ogura Yui
ArtistUnicode:小倉唯
Creator:cai_ji_ccc
Version:HS
Source:変態王子と笑わない猫。
Tags:hidden is fun ml-ysg Hentai Ouji to Warawanai Neko ed anime jpop japanese j-pop
BeatmapID:4307872
BeatmapSetID:2060798

[Difficulty]
HPDrainRate:0
CircleSize:7
OverallDifficulty:0
ApproachRate:5
SliderMultiplier:1.4
SliderTickRate:1

[Events]
//Background and Video events
0,0,"neko.jpg",0,0
Video,0,"Baby Sweet Berry Love.mp4"
//Break Periods
//Storyboard Layer 0 (Background)
//Storyboard Layer 1 (Fail)
//Storyboard Layer 2 (Pass)
//Storyboard Layer 3 (Foreground)
//Storyboard Layer 4 (Overlay)
//Storyboard Sound Samples

[TimingPoints]
1757,352.941176470588,4,2,1,40,1,0
61051,-100,4,2,1,40,0,1
71992,-100,4,2,1,40,0,0
72345,-100,4,2,1,40,0,1
83639,-100,4,2,1,40,0,0

[HitObjects]
475,192,1757,5,0,0:0:0:40:kick.wav
475,192,1933,1,0,0:0:0:40:kick.wav
475,192,3168,1,0,0:0:0:40:kick.wav
475,192,3874,1,0,0:0:0:40:kick.wav
475,192,4139,1,0,0:0:0:40:kick.wav
475,192,4404,1,0,0:0:0:40:kick.wav
475,192,4580,1,0,0:0:0:40:kick.wav
475,192,4756,1,0,0:0:0:40:kick.wav
475,192,5992,1,0,0:0:0:40:kick.wav
475,192,6698,1,0,0:0:0:40:kick.wav
475,192,6962,1,0,0:0:0:40:kick.wav
475,192,7227,1,0,0:0:0:40:kick.wav
475,192,7404,1,0,0:0:0:40:kick.wav
256,192,7404,1,0,0:0:0:35:crashL.wav
256,192,7756,1,0,0:0:0:35:crashS.wav
475,192,8109,1,0,0:0:0:40:kick.wav
256,192,8109,1,0,0:0:0:35:crashL.wav
256,192,8462,1,0,0:0:0:35:crashS.wav
256,192,8815,1,0,0:0:0:35:crashS.wav
475,192,8815,1,0,0:0:0:40:kick.wav
256,192,9168,1,0,0:0:0:35:crashS.wav
475,192,9168,1,0,0:0:0:40:kick.wav
256,192,9521,1,0,0:0:0:35:crashL.wav
475,192,9521,1,0,0:0:0:40:kick.wav
475,192,10227,1,0,0:0:0:40:kick.wav
329,192,10404,1,0,0:0:0:30:snare.wav
329,192,10580,1,0,0:0:0:30:snare.wav
256,192,10580,1,0,0:0:0:35:crashS.wav
36,192,10668,1,0,0:0:0:40:tom1.wav
475,192,10756,1,0,0:0:0:40:kick.wav
475,192,10933,1,0,0:0:0:40:kick.wav
329,192,11021,1,0,0:0:0:30:snare.wav
329,192,11286,1,0,0:0:0:30:snare.wav
256,192,11286,1,0,0:0:0:35:crashS.wav
182,192,11462,1,0,0:0:0:40:tom3.wav
475,192,11639,1,0,0:0:0:40:kick.wav
329,192,11639,1,0,0:0:0:30:snare.wav
256,192,11639,1,0,0:0:0:35:crashS.wav
475,192,11815,1,0,0:0:0:40:kick.wav
109,192,11904,1,0,0:0:0:40:tom2.wav
329,192,11992,1,0,0:0:0:30:snare.wav
256,192,11992,1,0,0:0:0:35:crashS.wav
182,192,12168,1,0,0:0:0:40:tom3.wav
109,192,12227,1,0,0:0:0:40:tom2.wav
36,192,12286,1,0,0:0:0:40:tom1.wav
475,192,12345,1,0,0:0:0:40:kick.wav
182,192,12433,1,0,0:0:0:40:tom3.wav
182,192,12521,1,0,0:0:0:40:tom3.wav
256,192,12698,1,0,0:0:0:35:crashS.wav
329,192,12698,1,0,0:0:0:30:snare.wav
109,192,12874,1,0,0:0:0:40:tom2.wav
256,192,13051,1,0,0:0:0:35:crashL.wav
475,192,13051,1,0,0:0:0:40:kick.wav
329,192,13404,1,0,0:0:0:30:snare.wav
475,192,13756,1,0,0:0:0:40:kick.wav
329,192,14109,1,0,0:0:0:30:snare.wav
475,192,14462,1,0,0:0:0:40:kick.wav
329,192,14815,1,0,0:0:0:30:snare.wav
475,192,15168,1,0,0:0:0:40:kick.wav
329,192,15521,1,0,0:0:0:30:snare.wav
475,192,15874,1,0,0:0:0:40:kick.wav
329,192,16227,1,0,0:0:0:30:snare.wav
475,192,16580,1,0,0:0:0:40:kick.wav
329,192,16933,1,0,0:0:0:30:snare.wav
475,192,17286,1,0,0:0:0:40:kick.wav
329,192,17639,1,0,0:0:0:30:snare.wav
256,192,17639,1,0,0:0:0:35:crashS.wav
329,192,17815,1,0,0:0:0:20:snare.wav
182,192,17992,1,0,0:0:0:40:tom3.wav
329,192,18345,1,0,0:0:0:30:snare.wav
256,192,18345,1,0,0:0:0:35:crashS.wav
109,192,18521,1,0,0:0:0:40:tom2.wav
109,192,18609,1,0,0:0:0:40:tom2.wav
475,192,18698,1,0,0:0:0:40:kick.wav
256,192,18698,1,0,0:0:0:35:crashS.wav
329,192,19051,1,0,0:0:0:30:snare.wav
475,192,19227,1,0,0:0:0:40:kick.wav
256,192,19227,1,0,0:0:0:35:crashS.wav
475,192,19580,1,0,0:0:0:40:kick.wav
329,192,19756,1,0,0:0:0:30:snare.wav
475,192,20109,1,0,0:0:0:40:kick.wav
256,192,20109,1,0,0:0:0:35:crashS.wav
329,192,20462,1,0,0:0:0:30:snare.wav
475,192,20639,1,0,0:0:0:40:kick.wav
256,192,20639,1,0,0:0:0:35:crashS.wav
475,192,20992,1,0,0:0:0:40:kick.wav
329,192,21168,1,0,0:0:0:30:snare.wav
475,192,21345,1,0,0:0:0:40:kick.wav
256,192,21345,1,0,0:0:0:35:crashS.wav
475,192,21698,1,0,0:0:0:40:kick.wav
329,192,21874,1,0,0:0:0:30:snare.wav
475,192,22227,1,0,0:0:0:40:kick.wav
256,192,22227,1,0,0:0:0:35:crashS.wav
329,192,22580,1,0,0:0:0:30:snare.wav
329,192,22756,1,0,0:0:0:30:snare.wav
256,192,22933,1,0,0:0:0:35:crashL.wav
475,192,22933,1,0,0:0:0:40:kick.wav
329,192,23109,1,0,0:0:0:30:snare.wav
475,192,23286,1,0,0:0:0:40:kick.wav
329,192,23286,1,0,0:0:0:30:snare.wav
475,192,23639,1,0,0:0:0:40:kick.wav
329,192,23815,1,0,0:0:0:30:snare.wav
329,192,23992,1,0,0:0:0:30:snare.wav
182,192,24080,1,0,0:0:0:40:tom3.wav
329,192,24168,1,0,0:0:0:30:snare.wav
256,192,24345,1,0,0:0:0:35:crashL.wav
475,192,24345,1,0,0:0:0:40:kick.wav
475,192,24874,1,0,0:0:0:40:kick.wav
329,192,25404,1,0,0:0:0:40:clap.wav
475,192,25756,1,0,0:0:0:40:kick.wav
475,192,26021,1,0,0:0:0:40:kick.wav
475,192,26286,1,0,0:0:0:40:kick.wav
329,192,26815,1,0,0:0:0:40:clap.wav
475,192,26992,1,0,0:0:0:40:kick.wav
475,192,27080,1,0,0:0:0:40:kick.wav
475,192,27168,1,0,0:0:0:40:kick.wav
475,192,27698,1,0,0:0:0:40:kick.wav
329,192,28227,1,0,0:0:0:40:clap.wav
475,192,28404,1,0,0:0:0:40:kick.wav
475,192,28580,1,0,0:0:0:40:kick.wav
475,192,28845,1,0,0:0:0:40:kick.wav
475,192,29109,1,0,0:0:0:40:kick.wav
329,192,29639,1,0,0:0:0:40:clap.wav
475,192,29992,1,0,0:0:0:40:kick.wav
475,192,30521,1,0,0:0:0:40:kick.wav
475,192,30874,1,0,0:0:0:40:kick.wav
329,192,31051,1,0,0:0:0:40:clap.wav
475,192,31404,1,0,0:0:0:40:kick.wav
475,192,31933,1,0,0:0:0:40:kick.wav
475,192,32286,1,0,0:0:0:40:kick.wav
329,192,32462,1,0,0:0:0:40:clap.wav
475,192,32815,1,0,0:0:0:40:kick.wav
475,192,33521,1,0,0:0:0:40:kick.wav
475,192,33698,1,0,0:0:0:40:kick.wav
329,192,33874,1,0,0:0:0:40:clap.wav
475,192,34227,1,0,0:0:0:40:kick.wav
329,192,34580,1,0,0:0:0:40:clap.wav
475,192,34580,1,0,0:0:0:40:kick.wav
475,192,34933,1,0,0:0:0:40:kick.wav
475,192,35286,1,0,0:0:0:40:kick.wav
329,192,35286,1,0,0:0:0:40:clap.wav
475,192,35639,1,0,0:0:0:40:kick.wav
256,192,35639,1,0,0:0:0:35:crashL.wav
329,192,35992,1,0,0:0:0:30:snare.wav
475,192,36345,1,0,0:0:0:40:kick.wav
475,192,36521,1,0,0:0:0:40:kick.wav
329,192,36698,1,0,0:0:0:30:snare.wav
475,192,37051,1,0,0:0:0:40:kick.wav
329,192,37404,1,0,0:0:0:30:snare.wav
475,192,37580,1,0,0:0:0:40:kick.wav
475,192,37933,1,0,0:0:0:40:kick.wav
329,192,38109,1,0,0:0:0:30:snare.wav
475,192,38462,1,0,0:0:0:40:kick.wav
329,192,38815,1,0,0:0:0:30:snare.wav
475,192,39168,1,0,0:0:0:40:kick.wav
475,192,39345,1,0,0:0:0:40:kick.wav
329,192,39521,1,0,0:0:0:30:snare.wav
475,192,39874,1,0,0:0:0:40:kick.wav
329,192,40227,1,0,0:0:0:30:snare.wav
475,192,40404,1,0,0:0:0:40:kick.wav
475,192,40756,1,0,0:0:0:40:kick.wav
329,192,40933,1,0,0:0:0:30:snare.wav
475,192,41286,1,0,0:0:0:40:kick.wav
256,192,41286,1,0,0:0:0:35:crashS.wav
329,192,41639,1,0,0:0:0:30:snare.wav
475,192,41815,1,0,0:0:0:40:kick.wav
256,192,41815,1,0,0:0:0:35:crashS.wav
475,192,42168,1,0,0:0:0:40:kick.wav
329,192,42345,1,0,0:0:0:30:snare.wav
475,192,42698,1,0,0:0:0:40:kick.wav
256,192,42698,1,0,0:0:0:35:crashS.wav
329,192,43051,1,0,0:0:0:30:snare.wav
475,192,43227,1,0,0:0:0:40:kick.wav
256,192,43227,1,0,0:0:0:35:crashS.wav
475,192,43580,1,0,0:0:0:40:kick.wav
329,192,43756,1,0,0:0:0:30:snare.wav
329,192,43933,1,0,0:0:0:30:snare.wav
256,192,44109,1,0,0:0:0:35:crashL.wav
475,192,44109,1,0,0:0:0:40:kick.wav
329,192,44462,1,0,0:0:0:30:snare.wav
475,192,44815,1,0,0:0:0:40:kick.wav
329,192,44992,1,0,0:0:0:30:snare.wav
329,192,45168,1,0,0:0:0:30:snare.wav
475,192,45345,1,0,0:0:0:40:kick.wav
475,192,45521,1,0,0:0:0:40:kick.wav
475,192,45698,1,0,0:0:0:40:kick.wav
329,192,45874,1,0,0:0:0:30:snare.wav
256,192,45874,1,0,0:0:0:35:crashL.wav
109,192,46051,1,0,0:0:0:40:tom2.wav
475,192,46227,1,0,0:0:0:40:kick.wav
256,192,46227,1,0,0:0:0:35:crashL.wav
329,192,46404,1,0,0:0:0:30:snare.wav
329,192,46580,1,0,0:0:0:30:snare.wav
256,192,46933,1,0,0:0:0:35:crashS.wav
475,192,46933,1,0,0:0:0:40:kick.wav
475,192,47462,1,0,0:0:0:40:kick.wav
256,192,47462,1,0,0:0:0:35:crashS.wav
475,192,47992,1,0,0:0:0:40:kick.wav
256,192,47992,1,0,0:0:0:35:crashS.wav
475,192,48345,1,0,0:0:0:40:kick.wav
475,192,48521,1,0,0:0:0:40:kick.wav
329,192,49404,1,0,0:0:0:30:snare.wav
182,192,49580,1,0,0:0:0:40:tom3.wav
109,192,49668,1,0,0:0:0:40:tom2.wav
256,192,49756,1,0,0:0:0:35:crashS.wav
475,192,49756,1,0,0:0:0:40:kick.wav
475,192,50286,1,0,0:0:0:40:kick.wav
256,192,50286,1,0,0:0:0:35:crashS.wav
256,192,50815,1,0,0:0:0:35:crashS.wav
475,192,50815,1,0,0:0:0:40:kick.wav
475,192,51168,1,0,0:0:0:40:kick.wav
475,192,51345,1,0,0:0:0:40:kick.wav
182,192,52051,1,0,0:0:0:40:tom3.wav
109,192,52227,1,0,0:0:0:40:tom2.wav
329,192,52227,1,0,0:0:0:35:snare.wav
36,192,52404,1,0,0:0:0:40:tom1.wav
109,192,52492,1,0,0:0:0:40:tom2.wav
256,192,52580,1,0,0:0:0:35:crashL.wav
475,192,52580,1,0,0:0:0:40:kick.wav
329,192,52933,1,0,0:0:0:30:snare.wav
475,192,53109,1,0,0:0:0:40:kick.wav
475,192,53462,1,0,0:0:0:40:kick.wav
329,192,53639,1,0,0:0:0:30:snare.wav
475,192,53992,1,0,0:0:0:40:kick.wav
256,192,53992,1,0,0:0:0:35:crashL.wav
475,192,54168,1,0,0:0:0:40:kick.wav
329,192,54345,1,0,0:0:0:30:snare.wav
475,192,54521,1,0,0:0:0:40:kick.wav
475,192,54874,1,0,0:0:0:40:kick.wav
329,192,55051,1,0,0:0:0:30:snare.wav
329,192,55315,1,0,0:0:0:30:snare.wav
329,192,55404,1,0,0:0:0:30:snare.wav
256,192,55404,1,0,0:0:0:35:crashL.wav
475,192,55580,1,0,0:0:0:40:kick.wav
329,192,55756,1,0,0:0:0:30:snare.wav
475,192,55933,1,0,0:0:0:40:kick.wav
329,192,56109,1,0,0:0:0:30:snare.wav
475,192,56286,1,0,0:0:0:40:kick.wav
329,192,56462,1,0,0:0:0:30:snare.wav
475,192,56639,1,0,0:0:0:40:kick.wav
256,192,56815,1,0,0:0:0:35:crashS.wav
329,192,56815,1,0,0:0:0:30:snare.wav
475,192,56992,1,0,0:0:0:40:kick.wav
109,192,57080,1,0,0:0:0:40:tom2.wav
329,192,57168,1,0,0:0:0:30:snare.wav
256,192,57168,1,0,0:0:0:35:crashS.wav
36,192,57345,1,0,0:0:0:40:tom1.wav
109,192,57433,1,0,0:0:0:40:tom2.wav
329,192,57521,1,0,0:0:0:30:snare.wav
182,192,57609,1,0,0:0:0:40:tom3.wav
109,192,57698,1,0,0:0:0:40:tom2.wav
329,192,57874,1,0,0:0:0:30:snare.wav
109,192,57962,1,0,0:0:0:40:tom2.wav
36,192,58051,1,0,0:0:0:40:tom1.wav
256,192,58227,1,0,0:0:0:35:crashS.wav
475,192,58227,1,0,0:0:0:40:kick.wav
475,192,58404,1,0,0:0:0:40:kick.wav
329,192,58580,1,0,0:0:0:30:snare.wav
475,192,58933,1,0,0:0:0:40:kick.wav
475,192,59109,1,0,0:0:0:40:kick.wav
329,192,59286,1,0,0:0:0:30:snare.wav
475,192,59462,1,0,0:0:0:40:kick.wav
256,192,59462,1,0,0:0:0:35:crashS.wav
182,192,59815,1,0,0:0:0:40:tom3.wav
109,192,59904,1,0,0:0:0:40:tom2.wav
36,192,59992,1,0,0:0:0:40:tom1.wav
36,192,60168,1,0,0:0:0:40:tom1.wav
36,192,60521,1,0,0:0:0:40:tom1.wav
329,192,60676,1,0,0:0:0:30:snare.wav
329,192,60698,1,0,0:0:0:30:snare.wav
256,192,61051,1,0,0:0:0:35:crashL.wav
475,192,61051,1,0,0:0:0:40:kick.wav
329,192,61404,1,0,0:0:0:30:snare.wav
475,192,61756,1,0,0:0:0:40:kick.wav
329,192,62109,1,0,0:0:0:30:snare.wav
475,192,62462,1,0,0:0:0:40:kick.wav
329,192,62815,1,0,0:0:0:30:snare.wav
475,192,63168,1,0,0:0:0:40:kick.wav
329,192,63521,1,0,0:0:0:30:snare.wav
475,192,63874,1,0,0:0:0:40:kick.wav
329,192,64227,1,0,0:0:0:30:snare.wav
475,192,64580,1,0,0:0:0:40:kick.wav
329,192,64933,1,0,0:0:0:30:snare.wav
475,192,65286,1,0,0:0:0:40:kick.wav
329,192,65639,1,0,0:0:0:30:snare.wav
475,192,65992,1,0,0:0:0:40:kick.wav
329,192,66080,1,0,0:0:0:30:snare.wav
475,192,66345,1,0,0:0:0:40:kick.wav
256,192,66345,1,0,0:0:0:35:crashS.wav
329,192,66345,1,0,0:0:0:30:snare.wav
329,192,66609,1,0,0:0:0:30:snare.wav
475,192,66698,1,0,0:0:0:40:kick.wav
256,192,66698,1,0,0:0:0:35:crashL.wav
329,192,67051,1,0,0:0:0:30:snare.wav
475,192,67404,1,0,0:0:0:40:kick.wav
329,192,67756,1,0,0:0:0:30:snare.wav
475,192,68109,1,0,0:0:0:40:kick.wav
329,192,68462,1,0,0:0:0:30:snare.wav
475,192,68815,1,0,0:0:0:40:kick.wav
329,192,69168,1,0,0:0:0:30:snare.wav
475,192,69521,1,0,0:0:0:40:kick.wav
329,192,69698,1,0,0:0:0:30:snare.wav
329,192,69874,1,0,0:0:0:30:snare.wav
256,192,69874,1,0,0:0:0:35:crashS.wav
109,192,69962,1,0,0:0:0:40:tom2.wav
475,192,70051,1,0,0:0:0:40:kick.wav
475,192,70227,1,0,0:0:0:40:kick.wav
329,192,70580,1,0,0:0:0:30:snare.wav
256,192,70580,1,0,0:0:0:35:crashS.wav
182,192,70756,1,0,0:0:0:40:tom3.wav
256,192,70933,1,0,0:0:0:35:crashL.wav
475,192,70933,1,0,0:0:0:40:kick.wav
329,192,70933,1,0,0:0:0:30:snare.wav
475,192,71109,1,0,0:0:0:40:kick.wav
109,192,71198,1,0,0:0:0:40:tom2.wav
329,192,71286,1,0,0:0:0:30:snare.wav
256,192,71286,1,0,0:0:0:35:crashS.wav
182,192,71462,1,0,0:0:0:40:tom3.wav
109,192,71521,1,0,0:0:0:40:tom2.wav
36,192,71580,1,0,0:0:0:40:tom1.wav
475,192,71639,1,0,0:0:0:40:kick.wav
109,192,71727,1,0,0:0:0:40:tom2.wav
329,192,71815,1,0,0:0:0:30:snare.wav
329,192,71992,1,0,0:0:0:30:snare.wav
256,192,71992,1,0,0:0:0:35:crashS.wav
256,192,72345,1,0,0:0:0:35:crashL.wav
475,192,72345,1,0,0:0:0:40:kick.wav
329,192,72698,1,0,0:0:0:30:snare.wav
475,192,73051,1,0,0:0:0:40:kick.wav
329,192,73404,1,0,0:0:0:30:snare.wav
475,192,73756,1,0,0:0:0:40:kick.wav
329,192,74109,1,0,0:0:0:30:snare.wav
475,192,74462,1,0,0:0:0:40:kick.wav
329,192,74815,1,0,0:0:0:30:snare.wav
475,192,75168,1,0,0:0:0:40:kick.wav
329,192,75521,1,0,0:0:0:30:snare.wav
475,192,75874,1,0,0:0:0:40:kick.wav
329,192,76227,1,0,0:0:0:30:snare.wav
475,192,76580,1,0,0:0:0:40:kick.wav
329,192,76933,1,0,0:0:0:30:snare.wav
329,192,77198,1,0,0:0:0:30:snare.wav
475,192,77286,1,0,0:0:0:40:kick.wav
329,192,77374,1,0,0:0:0:30:snare.wav
256,192,77639,1,0,0:0:0:35:crashS.wav
475,192,77639,1,0,0:0:0:40:kick.wav
329,192,77639,1,0,0:0:0:30:snare.wav
256,192,77992,1,0,0:0:0:35:crashL.wav
475,192,77992,1,0,0:0:0:40:kick.wav
329,192,78345,1,0,0:0:0:30:snare.wav
475,192,78698,1,0,0:0:0:40:kick.wav
329,192,79051,1,0,0:0:0:30:snare.wav
475,192,79404,1,0,0:0:0:40:kick.wav
329,192,79756,1,0,0:0:0:30:snare.wav
475,192,80109,1,0,0:0:0:40:kick.wav
329,192,80462,1,0,0:0:0:30:snare.wav
329,192,80727,1,0,0:0:0:30:snare.wav
256,192,80815,1,0,0:0:0:35:crashS.wav
475,192,80815,1,0,0:0:0:40:kick.wav
256,192,81168,1,0,0:0:0:35:crashS.wav
475,192,81168,1,0,0:0:0:40:kick.wav
329,192,81521,1,0,0:0:0:30:snare.wav
182,192,81698,1,0,0:0:0:40:tom3.wav
256,192,81874,1,0,0:0:0:35:crashS.wav
475,192,81874,1,0,0:0:0:40:kick.wav
329,192,81874,1,0,0:0:0:30:snare.wav
109,192,82051,1,0,0:0:0:40:tom2.wav
256,192,82227,1,0,0:0:0:35:crashS.wav
475,192,82227,1,0,0:0:0:40:kick.wav
329,192,82227,1,0,0:0:0:30:snare.wav
182,192,82315,1,0,0:0:0:40:tom3.wav
109,192,82404,1,0,0:0:0:40:tom2.wav
475,192,82580,1,0,0:0:0:40:kick.wav
329,192,82580,1,0,0:0:0:30:snare.wav
475,192,82933,1,0,0:0:0:40:kick.wav
329,192,83021,1,0,0:0:0:30:snare.wav
109,192,83109,1,0,0:0:0:40:tom2.wav
475,192,83286,1,0,0:0:0:40:kick.wav
329,192,83286,1,0,0:0:0:30:snare.wav
36,192,83462,1,0,0:0:0:40:tom1.wav
475,192,83639,1,0,0:0:0:40:kick.wav
329,192,83639,1,0,0:0:0:30:snare.wav
475,192,84874,1,0,0:0:0:40:kick.wav
256,192,84874,1,0,0:0:0:35:crashS.wav
329,192,85227,1,0,0:0:0:30:snare.wav
329,192,85404,1,0,0:0:0:30:snare.wav
475,192,85580,1,0,0:0:0:40:kick.wav
256,192,85580,1,0,0:0:0:35:crashS.wav
329,192,85580,1,0,0:0:0:30:snare.wav
475,192,85933,1,0,0:0:0:40:kick.wav
329,192,86109,1,0,0:0:0:30:snare.wav
329,192,86198,1,0,0:0:0:30:snare.wav
109,192,86286,1,0,0:0:0:40:tom2.wav
256,192,86462,1,0,0:0:0:35:crashL.wav
329,192,86462,1,0,0:0:0:30:snare.wav
475,192,86639,1,0,0:0:0:40:kick.wav
329,192,86815,1,0,0:0:0:30:snare.wav
475,192,86992,1,0,0:0:0:40:kick.wav
329,192,87168,1,0,0:0:0:30:snare.wav
475,192,87345,1,0,0:0:0:40:kick.wav
329,192,87521,1,0,0:0:0:30:snare.wav
475,192,87698,1,0,0:0:0:40:kick.wav
256,192,87874,1,0,0:0:0:35:crashL.wav
329,192,87874,1,0,0:0:0:30:snare.wav
182,192,87874,1,0,0:0:0:40:tom3.wav
182,192,87962,1,0,0:0:0:40:tom3.wav
475,192,88051,1,0,0:0:0:40:kick.wav
329,192,88227,1,0,0:0:0:30:snare.wav
475,192,88404,1,0,0:0:0:40:kick.wav
329,192,88580,1,0,0:0:0:30:snare.wav
109,192,88668,1,0,0:0:0:40:tom2.wav
475,192,88756,1,0,0:0:0:40:kick.wav
475,192,88845,1,0,0:0:0:40:kick.wav
256,192,88933,1,0,0:0:0:35:crashL.wav
329,192,88933,1,0,0:0:0:30:snare.wav
