osu file format v14

[General]
AudioFilename: audio.mp3
AudioLeadIn: 0
PreviewTime: 60480
Countdown: 0
SampleSet: Soft
StackLeniency: 0.7
Mode: 0
LetterboxInBreaks: 0
WidescreenStoryboard: 0

[Editor]
Bookmarks: 182788,192019,242596,245865,265865
DistanceSpacing: 0.4
BeatDivisor: 6
GridSize: 16
TimelineZoom: 2.462803

[Metadata]
Title:Apple Girl
TitleUnicode:アップル・ガール
Artist:Ogura Yui
ArtistUnicode:小倉唯
Creator:Yuuma
Version:Precious
Source:
Tags:ホップ・ステップ Hop Step japanese pop
BeatmapID:2278754
BeatmapSetID:1089998

[Difficulty]
HPDrainRate:5
CircleSize:3.6
OverallDifficulty:8
ApproachRate:8.7
SliderMultiplier:1.8
SliderTickRate:1

[Events]
//Background and Video events
0,0,"72757412_p0.jpg",0,0
//Break Periods
//Storyboard Layer 0 (Background)
//Storyboard Layer 1 (Fail)
//Storyboard Layer 2 (Pass)
//Storyboard Layer 3 (Foreground)
//Storyboard Layer 4 (Overlay)
//Storyboard Sound Samples

[TimingPoints]
1250,384.615384615385,4,2,1,70,1,0
1250,-142.857142857143,4,2,1,50,0,0
6634,-111.111111111111,4,2,1,60,0,0
7403,-100,4,2,1,70,0,0
19711,-111.111111111111,4,2,1,70,0,0
25865,-125,4,2,1,60,0,0
32019,-111.111111111111,4,2,1,70,0,0
38173,-125,4,2,1,60,0,0
45865,-142.857142857143,4,2,1,50,0,0
50288,-125,4,2,1,60,0,0
52019,-111.111111111111,4,2,1,60,0,0
52596,-90.9090909090908,4,2,1,60,0,0
53173,-111.111111111111,4,2,1,60,0,0
54134,-90.9090909090908,4,2,1,60,0,0
54711,-111.111111111111,4,2,1,60,0,0
55673,-90.9090909090908,4,2,1,60,0,0
56250,-111.111111111111,4,2,1,60,0,0
60673,-83.3333333333334,4,2,1,70,0,0
60769,-83.3333333333334,4,2,1,5,0,0
60865,-83.3333333333334,4,2,1,70,0,0
60961,-83.3333333333334,4,2,1,5,0,0
61057,-83.3333333333334,4,2,1,70,0,0
61153,-83.3333333333334,4,2,1,5,0,0
61250,-100,4,2,1,80,0,0
72980,-83.3333333333333,4,2,1,70,0,0
73557,-100,4,2,1,80,0,0
82788,-133.333333333333,4,2,1,65,0,0
86634,-111.111111111111,4,2,1,65,0,0
87403,-100,4,2,1,80,0,0
92019,-100,4,2,1,70,0,0
104326,-111.111111111111,4,2,1,70,0,0
110480,-125,4,2,1,60,0,0
118173,-142.857142857143,4,2,1,50,0,0
122596,-125,4,2,1,60,0,0
124326,-111.111111111111,4,2,1,70,0,0
124903,-90.9090909090908,4,2,1,70,0,0
125480,-111.111111111111,4,2,1,70,0,0
126442,-90.9090909090908,4,2,1,70,0,0
127019,-111.111111111111,4,2,1,70,0,0
127980,-90.9090909090908,4,2,1,70,0,0
128557,-111.111111111111,4,2,1,70,0,0
132980,-83.3333333333333,4,2,1,70,0,0
133076,-83.3333333333333,4,2,1,5,0,0
133173,-83.3333333333333,4,2,1,70,0,0
133269,-83.3333333333333,4,2,1,5,0,0
133365,-83.3333333333333,4,2,1,70,0,0
133461,-83.3333333333333,4,2,1,5,0,0
133557,-100,4,2,1,80,0,0
145288,-83.3333333333333,4,2,1,70,0,0
145865,-100,4,2,1,80,0,0
155096,-133.333333333333,4,2,1,65,0,0
158942,-111.111111111111,4,2,1,65,0,0
159711,-100,4,2,1,80,0,0
164326,-100,4,2,1,70,0,0
176634,-90.9090909090909,4,2,1,70,0,0
177980,-83.3333333333333,4,2,1,70,0,0
179711,-76.9230769230769,4,2,1,70,0,0
181057,-153.846153846153,4,2,1,70,0,0
182788,-200,4,2,1,40,0,0
192019,-142.857142857143,4,2,1,40,0,0
193365,-142.857142857143,4,2,1,50,0,0
199519,-125,4,2,1,60,0,0
201250,-111.111111111111,4,2,1,60,0,0
201826,-90.9090909090908,4,2,1,60,0,0
202403,-111.111111111111,4,2,1,60,0,0
203365,-90.9090909090908,4,2,1,60,0,0
203942,-111.111111111111,4,2,1,60,0,0
204903,-90.9090909090908,4,2,1,60,0,0
205480,-111.111111111111,4,2,1,60,0,0
207403,-111.111111111111,4,2,1,70,0,0
211826,-142.857142857143,4,2,1,60,0,0
213557,-100,4,2,1,70,0,0
219711,-100,4,2,1,80,0,0
225288,-83.3333333333333,4,2,1,80,0,0
225865,-100,4,2,1,80,0,0
235096,-133.333333333333,4,2,1,65,0,0
238942,-111.111111111111,4,2,1,65,0,0
241250,-100,4,2,1,85,0,0
242596,-100,4,2,1,70,0,0
242692,-100,4,2,1,40,0,0
245096,-100,4,2,1,5,0,0
245865,-100,4,2,1,70,0,0
258173,-142.857142857143,4,2,1,50,0,0
264134,-100,4,2,1,70,0,0
265865,-100,4,2,1,30,0,0

[Colours]
Combo1 : 155,250,40
Combo2 : 255,66,66

[HitObjects]
137,146,1250,6,0,P|206:119|273:136,1,125.999996154785,2|0,0:0|0:0,0:0:0:0:
401,175,1826,1,2,0:0:0:0:
456,251,2211,1,2,0:0:0:0:
401,328,2596,1,2,0:0:0:0:
311,298,2980,1,2,0:0:0:0:
311,204,3365,1,2,0:0:0:0:
401,175,3557,1,2,0:0:0:0:
401,328,3942,1,2,0:0:0:0:
375,146,4326,6,0,P|306:119|239:136,1,125.999996154785,6|0,0:0|0:0,0:0:0:0:
111,175,4903,1,2,0:0:0:0:
56,251,5288,1,2,0:0:0:0:
111,328,5673,1,2,0:0:0:0:
201,298,6057,1,2,0:0:0:0:
201,204,6442,1,2,0:0:0:0:
111,175,6634,5,10,0:0:0:0:
111,175,6730,1,8,0:0:0:0:
111,175,6826,2,0,P|88:167|66:164,1,40.4999987640381,10|0,0:0|0:0,0:0:0:0:
174,58,7019,2,0,P|187:106|187:110,1,40.4999987640381,10|0,0:0|0:0,0:0:0:0:
264,195,7211,2,0,P|268:167|279:137,1,40.4999987640381,2|0,0:0|0:0,0:0:0:0:
369,84,7403,6,0,P|385:153|386:194,1,90,6|0,0:0|0:0,0:0:0:0:
365,325,7788,2,0,L|251:314,1,90,10|0,0:0|0:0,0:0:0:0:
174,207,8173,2,0,L|278:192,1,90,2|0,0:0|3:0,0:0:0:0:
369,84,8557,2,0,L|255:73,1,90,10|0,0:0|0:0,0:0:0:0:
115,38,8942,6,0,P|86:122|97:210,1,180,2|8,0:0|0:0,0:0:0:0:
239,110,9519,2,0,P|268:194|257:282,1,180,2|0,0:0|3:0,0:0:0:0:
209,379,10096,1,8,0:0:0:0:
124,203,10288,6,0,B|220:178|204:269|322:231,1,180,6|0,0:0|3:0,0:0:0:0:
420,221,10865,2,0,L|405:132,1,90,10|0,0:0|0:0,0:0:0:0:
274,48,11250,2,0,L|259:137,1,90,2|0,0:0|3:0,0:0:0:0:
124,203,11634,2,0,L|109:114,1,90,10|0,0:0|0:0,0:0:0:0:
237,260,12019,5,6,0:0:0:0:
408,178,12211,1,0,0:0:0:0:
341,334,12403,1,8,0:0:0:0:
301,166,12596,1,6,0:0:0:0:
301,166,12980,1,10,0:0:0:0:
301,166,13076,1,8,0:0:0:0:
301,166,13173,2,0,P|309:199|311:229,1,45,10|0,0:0|0:0,0:0:0:0:
440,245,13365,2,0,P|445:217|456:181,1,45,10|0,0:2|0:0,0:0:0:0:
387,79,13557,6,0,P|328:60|278:60,1,90,6|0,0:0|0:0,0:0:0:0:
126,139,13942,2,0,P|182:121|218:118,1,90,10|0,0:0|0:0,0:0:0:0:
349,168,14326,1,2,0:0:0:0:
194,224,14519,1,2,0:0:0:0:
245,120,14711,1,8,0:0:0:0:
301,278,14903,6,0,P|241:335|121:321,1,180,6|0,0:0|0:0,0:0:0:0:
32,269,15480,1,10,0:0:0:0:
194,224,15673,1,6,0:0:0:0:
194,224,16057,1,10,0:0:0:0:
194,224,16153,1,8,0:0:0:0:
194,224,16250,2,0,P|189:199|181:175,1,45,10|0,0:0|0:0,0:0:0:0:
62,116,16442,2,0,P|51:142|48:158,1,45,10|0,0:0|0:0,0:0:0:0:
32,269,16634,5,4,0:0:0:0:
148,81,16826,1,10,0:0:0:0:
148,81,16923,1,10,0:0:0:0:
148,81,17019,1,10,0:0:0:0:
194,224,17211,1,10,0:0:0:0:
325,55,17403,2,0,P|296:56|261:70,1,45,10|8,0:0|0:0,0:0:0:0:
320,163,17596,2,0,P|342:163|374:152,1,45,10|8,0:0|0:0,0:0:0:0:
453,93,17788,1,10,0:0:0:0:
414,313,17980,5,2,1:2:0:0:
414,313,18365,1,2,1:2:0:0:
414,313,18750,1,2,1:2:0:0:
320,163,18942,1,2,1:2:0:0:
248,233,19134,2,0,L|259:292,5,45,2|2|2|2|2|2,0:0|0:0|0:0|0:0|0:0|0:0,0:0:0:0:
266,321,19711,5,10,0:0:0:0:
359,133,19903,1,10,0:0:0:0:
359,133,21250,5,10,0:0:0:0:
266,321,21442,1,10,0:0:0:0:
266,321,22788,5,10,0:0:0:0:
150,147,22980,1,10,0:0:0:0:
176,142,24134,5,8,0:0:0:0:
176,142,24198,1,8,0:0:0:0:
176,142,24262,1,8,0:0:0:0:
176,142,24326,1,8,0:0:0:0:
326,102,24519,1,0,1:0:0:0:
175,46,24711,1,8,0:0:0:0:
277,197,24903,6,0,P|359:210|418:156,1,161.999995056153,4|8,1:2|0:0,0:0:0:0:
415,161,25384,1,8,0:0:0:0:
415,161,25480,1,8,0:0:0:0:
326,102,25673,1,8,0:3:0:0:
277,197,25865,6,0,L|297:359,1,144,4|8,0:0|0:0,0:0:0:0:
185,258,26442,2,0,P|131:250|106:254,2,72,2|2|2,0:0|0:0|0:0,0:0:0:0:
137,352,27019,1,8,0:0:0:0:
22,305,27211,6,0,P|6:237|48:165,1,144,6|2,0:0|0:0,0:0:0:0:
193,80,27788,1,10,0:0:0:0:
193,80,27980,2,0,P|224:142|208:211,1,144,6|0,0:0|0:0,0:0:0:0:
114,252,28557,1,10,0:0:0:0:
128,158,28750,1,2,0:0:0:0:
110,287,28942,6,0,B|190:271|165:336|276:313,1,144,2|10,0:0|0:0,0:0:0:0:
350,237,29519,2,0,P|314:223|265:220,1,72,2|0,0:0|0:0,0:0:0:0:
400,337,29903,1,2,0:0:0:0:
441,172,30096,1,8,0:0:0:0:
292,312,30288,6,0,P|281:242|261:158,1,144,6|10,0:0|0:0,0:0:0:0:
209,71,30865,1,10,0:0:0:0:
101,228,31057,1,6,0:0:0:0:
101,228,31442,1,10,0:0:0:0:
101,228,31538,1,10,0:0:0:0:
101,228,31634,1,10,0:0:0:0:
264,170,31826,1,2,0:0:0:0:
93,108,32019,5,10,0:0:0:0:
206,276,32211,1,10,0:0:0:0:
394,62,33557,5,10,0:0:0:0:
196,120,33750,1,10,0:0:0:0:
471,243,35096,5,10,0:0:0:0:
270,196,35288,1,10,0:0:0:0:
270,196,35865,1,4,0:0:0:0:
387,158,36057,1,8,0:0:0:0:
387,158,36153,1,8,0:0:0:0:
348,307,36346,1,8,0:0:0:0:
348,307,36442,1,8,0:0:0:0:
236,189,36634,5,6,0:0:0:0:
417,244,36826,1,2,0:0:0:0:
217,312,37019,1,10,0:0:0:0:
313,99,37211,2,0,P|351:154|318:257,1,161.999995056153,6|2,0:0|0:0,0:0:0:0:
157,203,37788,2,0,P|194:188|235:188,1,80.9999975280763,8|2,0:0|0:0,0:0:0:0:
217,312,38173,6,0,P|165:329|65:283,1,144,6|8,0:0|0:0,0:0:0:0:
15,214,38750,2,0,P|19:176|28:131,2,72,2|2|2,0:0|0:0|0:0,0:0:0:0:
82,302,39326,1,8,0:0:0:0:
157,203,39519,6,0,P|146:112|129:35,1,144,2|2,0:0|0:0,0:0:0:0:
274,151,40096,1,10,0:0:0:0:
274,151,40288,2,0,P|285:60|302:-17,1,144,2|0,0:0|0:0,0:0:0:0:
465,62,40865,1,10,0:0:0:0:
364,110,41057,1,2,0:0:0:0:
484,190,41250,6,0,P|397:203|354:271,1,144,6|10,0:0|0:0,0:0:0:0:
312,354,41826,2,0,P|377:335|414:332,1,72,2|0,0:0|0:0,0:0:0:0:
218,224,42211,1,2,0:0:0:0:
323,247,42403,1,8,0:0:0:0:
153,312,42596,6,0,P|117:253|130:168,1,144,6|0,0:0|0:0,0:0:0:0:
212,88,43173,1,10,0:0:0:0:
45,48,43365,1,4,0:0:0:0:
45,48,43750,1,10,0:0:0:0:
45,48,43846,1,10,0:0:0:0:
45,48,43942,1,10,0:0:0:0:
212,88,44134,6,0,P|248:147|235:232,1,144,6|10,0:0|0:0,0:0:0:0:
153,312,44711,1,10,0:0:0:0:
123,180,44903,1,6,0:0:0:0:
357,327,45288,2,0,L|372:232,1,72,6|8,0:0|0:0,0:0:0:0:
415,165,45673,1,2,0:0:0:0:
415,165,45769,1,2,0:0:0:0:
415,165,45865,6,0,P|385:156|348:157,1,62.9999980773926,4|2,0:0|0:0,0:0:0:0:
269,178,46250,1,2,0:0:0:0:
269,178,46442,2,0,P|239:187|202:186,2,62.9999980773926,2|2|2,0:0|0:0|0:0,0:0:0:0:
286,86,47019,1,8,0:0:0:0:
286,86,47211,2,0,P|224:79|160:108,1,125.999996154785,2|2,0:0|0:0,0:0:0:0:
92,155,47788,1,2,0:0:0:0:
92,155,47980,2,0,L|102:236,1,62.9999980773926,2|0,0:0|0:0,0:0:0:0:
155,284,48365,2,0,L|145:332,2,31.4999990386963,2|2|10,0:0|0:0|0:0,0:0:0:0:
241,186,48750,6,0,B|285:169|321:230|369:208,1,125.999996154785,2|2,0:0|0:0,0:0:0:0:
444,162,49326,1,2,0:0:0:0:
444,162,49519,2,0,L|455:79,2,62.9999980773926,2|2|2,0:0|0:0|0:0,0:0:0:0:
423,266,50096,1,8,0:0:0:0:
350,113,50288,6,0,P|271:84|184:100,1,144,6|2,0:0|0:0,0:0:0:0:
348,8,50865,1,10,0:0:0:0:
263,187,51057,2,0,P|207:211|146:207,1,108,6|8,0:0|0:0,0:0:0:0:
130,192,51442,1,10,0:2:0:0:
257,289,51634,2,0,P|277:300|301:304,2,36,10|8|10,0:0|0:0|0:0,0:0:0:0:
190,105,52019,5,6,0:0:0:0:
332,165,52211,1,2,0:0:0:0:
160,210,52403,1,10,0:0:0:0:
309,285,52596,2,0,P|374:292|448:183,1,198.000006042481,6|2,0:0|0:0,0:0:0:0:
347,85,53173,2,0,P|335:139|331:171,1,80.9999975280763,10|2,0:0|0:0,0:0:0:0:
309,285,53557,5,2,0:0:0:0:
212,153,53750,1,2,0:0:0:0:
171,316,53942,1,10,0:0:0:0:
307,199,54134,2,0,P|335:145|243:35,1,198.000006042481,6|2,0:0|0:0,0:0:0:0:
118,28,54711,2,0,L|132:137,1,80.9999975280763,10|2,0:0|0:0,0:0:0:0:
145,243,55096,5,2,0:0:0:0:
258,127,55288,1,2,0:0:0:0:
102,88,55480,1,10,0:0:0:0:
221,208,55673,2,0,P|389:175|422:177,1,198.000006042481,6|0,0:0|0:0,0:0:0:0:
512,201,56250,1,8,0:0:0:0:
512,201,56634,6,0,P|496:278|495:289,1,80.9999975280763,6|0,0:0|0:0,0:0:0:0:
379,161,57019,2,0,P|369:105|357:71,1,80.9999975280763,10|0,0:0|0:0,0:0:0:0:
298,268,57403,1,2,0:0:0:0:
196,156,57596,1,8,0:0:0:0:
196,156,57692,1,8,0:0:0:0:
196,156,57788,2,0,L|259:141,1,40.4999987640381,10|8,0:0|0:0,0:0:0:0:
197,269,57980,2,0,L|134:254,1,40.4999987640381,8|0,0:0|0:0,0:0:0:0:
76,176,58173,5,14,0:0:0:0:
286,131,58365,1,2,3:2:0:0:
113,87,58557,5,10,0:0:0:0:
313,217,58750,1,2,3:2:0:0:
69,275,58942,5,10,0:0:0:0:
211,66,59134,1,10,0:0:0:0:
158,327,59326,1,10,0:0:0:0:
96,132,59519,1,10,0:0:0:0:
96,132,59903,5,10,0:0:0:0:
270,308,60096,1,10,0:0:0:0:
383,92,60288,1,10,0:0:0:0:
383,92,60673,6,0,P|349:99|321:109,1,53.9999983520508,2|0,0:0|0:0,0:0:0:0:
216,164,60865,2,0,P|250:171|278:181,1,53.9999983520508,10|0,0:0|0:0,0:0:0:0:
408,201,61057,2,0,P|374:208|346:218,1,53.9999983520508,2|0,0:0|0:0,0:0:0:0:
221,268,61250,6,0,P|158:288|116:287,1,90,6|0,0:0|0:0,0:0:0:0:
31,225,61634,2,0,L|15:131,1,90,10|0,0:0|0:0,0:0:0:0:
161,71,62019,2,0,L|149:173,1,90,2|0,0:0|3:0,0:0:0:0:
17,253,62403,2,0,L|1:159,1,90,10|0,0:0|0:0,0:0:0:0:
175,99,62788,6,0,B|272:90|237:173|361:150,1,180,2|8,0:0|0:0,0:0:0:0:
465,45,63365,2,0,P|389:9|316:83,1,180,2|0,0:0|3:0,0:0:0:0:
469,142,63942,1,8,0:0:0:0:
322,218,64134,6,0,P|230:270|149:216,1,180,6|0,0:0|3:0,0:0:0:0:
219,74,64711,2,0,P|235:150|236:185,1,90,10|0,0:0|0:0,0:0:0:0:
69,233,65096,2,0,P|77:170|88:135,1,90,2|0,3:2|3:0,0:0:0:0:
235,48,65480,2,0,P|251:124|252:159,1,90,10|0,0:0|0:0,0:0:0:0:
168,243,65865,5,6,3:2:0:0:
98,125,66057,1,0,3:2:0:0:
163,281,66250,1,8,0:0:0:0:
251,136,66442,2,0,B|299:125|320:86|320:86|354:117|405:113,1,180,6|10,0:0|0:0,0:0:0:0:
426,113,66923,1,10,0:0:0:0:
426,113,67019,2,0,P|426:68|416:24,1,90,10|2,0:0|0:0,0:0:0:0:
336,179,67403,6,0,P|326:235|328:276,1,90,6|2,0:0|0:0,0:0:0:0:
408,361,67788,2,0,L|508:344,1,90,10|2,0:0|0:0,0:0:0:0:
425,167,68173,2,0,L|314:181,1,90,2|2,3:2|0:0,0:0:0:0:
473,254,68557,1,10,0:0:0:0:
295,365,68750,6,0,P|296:306|242:187,1,180,6|2,0:0|0:0,0:0:0:0:
196,304,69326,1,10,0:0:0:0:
342,163,69519,1,4,0:0:0:0:
342,163,69903,1,2,3:2:0:0:
196,304,70096,1,10,0:0:0:0:
147,108,70288,1,2,3:2:0:0:
227,198,70480,6,0,P|287:217|329:217,1,90,6|0,0:0|3:0,0:0:0:0:
386,78,70865,2,0,P|332:81|282:105,1,90,10|0,0:0|3:0,0:0:0:0:
448,193,71250,1,10,0:0:0:0:
448,193,71346,1,8,0:0:0:0:
448,193,71442,1,8,0:0:0:0:
291,113,71634,1,10,0:0:0:0:
375,304,71826,1,6,0:0:0:0:
375,304,72211,5,6,0:0:0:0:
291,113,72403,1,10,0:0:0:0:
168,282,72596,1,6,0:0:0:0:
168,282,72980,6,0,L|245:263,1,53.9999983520508,2|0,0:0|0:0,0:0:0:0:
332,210,73173,2,0,L|255:191,1,53.9999983520508,2|0,0:0|0:0,0:0:0:0:
168,138,73365,2,0,L|245:119,1,53.9999983520508,2|0,0:0|0:0,0:0:0:0:
302,33,73557,6,0,L|402:56,1,90,6|0,0:0|0:0,0:0:0:0:
491,155,73942,2,0,P|476:209|471:258,1,90,10|0,0:0|0:0,0:0:0:0:
346,174,74326,2,0,P|339:122|322:76,1,90,2|0,0:0|3:0,0:0:0:0:
505,174,74711,2,0,P|490:228|485:277,1,90,10|0,0:0|0:0,0:0:0:0:
331,192,75096,6,0,B|235:198|272:275|161:276,1,180,2|8,0:0|0:0,0:0:0:0:
317,307,75673,2,0,P|401:289|434:209,1,180,2|0,0:0|3:0,0:0:0:0:
289,140,76250,1,8,0:0:0:0:
178,275,76442,6,0,P|168:177|153:91,1,180,6|0,0:0|3:0,0:0:0:0:
52,204,77019,2,0,P|116:214|155:211,1,90,10|0,0:0|0:0,0:0:0:0:
265,103,77403,2,0,P|194:86|163:88,1,90,2|0,0:0|3:0,0:0:0:0:
327,244,77788,2,0,P|335:186|346:147,1,90,10|0,0:0|0:0,0:0:0:0:
472,44,78173,6,0,P|487:132|495:222,1,180,2|8,0:0|0:0,0:0:0:0:
414,342,78750,2,0,B|317:358|345:272|231:285,1,180,6|8,0:0|0:0,0:0:0:0:
232,296,79230,1,10,0:0:0:0:
232,296,79326,2,0,P|204:305|164:307,1,45,10|0,0:0|0:0,0:0:0:0:
320,162,79519,2,0,P|329:190|331:230,1,45,2|0,0:0|0:0,0:0:0:0:
166,192,79711,6,0,P|173:133|190:83,1,90,4|2,0:0|0:0,0:0:0:0:
285,22,80096,2,0,L|374:9,1,90,10|2,0:0|0:0,0:0:0:0:
383,129,80480,2,0,L|294:142,1,90,2|2,0:0|0:0,0:0:0:0:
372,30,80865,1,10,0:0:0:0:
478,31,81057,6,0,P|528:110|504:200,1,180,6|2,0:0|0:0,0:0:0:0:
438,305,81634,1,10,0:0:0:0:
320,162,81826,1,6,0:0:0:0:
320,162,82211,1,2,3:2:0:0:
339,266,82403,1,2,3:2:0:0:
256,335,82596,1,2,3:2:0:0:
175,252,82788,6,0,P|134:228|37:318,1,202.500007724762,6|2,0:0|3:0,0:0:0:0:
129,334,83557,2,0,L|151:180,1,135.000005149842,10|0,0:0|0:0,0:0:0:0:
166,100,84134,1,2,0:0:0:0:
309,183,84519,1,8,0:0:0:0:
432,73,84903,1,2,0:0:0:0:
432,73,85096,1,2,0:0:0:0:
484,156,85288,2,0,P|439:170|400:168,2,67.5000025749208,2|2|2,3:2|3:2|3:2,0:0:0:0:
432,73,85865,6,0,P|358:44|259:118,1,202.500007724762,6|2,0:0|3:2,0:0:0:0:
212,211,86634,1,8,0:0:0:0:
212,211,86730,1,8,0:0:0:0:
212,211,86826,2,0,P|203:170|199:156,1,40.4999987640381,2|2,0:0|0:0,0:0:0:0:
126,70,87019,1,10,0:0:0:0:
126,70,87403,6,0,P|105:145|101:185,1,90,14|0,0:0|3:0,0:0:0:0:
151,295,87788,2,0,L|263:278,1,90,10|0,0:0|3:0,0:0:0:0:
322,154,88173,2,0,L|226:138,1,90,10|0,0:0|3:0,0:0:0:0:
373,329,88557,2,0,P|385:279|386:229,1,90,10|0,0:0|0:0,0:0:0:0:
296,38,88942,5,14,0:0:0:0:
180,197,89134,1,10,0:0:0:0:
411,94,89326,5,10,0:0:0:0:
157,166,89519,1,10,0:0:0:0:
421,241,89711,5,10,0:0:0:0:
257,31,89903,1,10,0:0:0:0:
235,294,90096,1,10,0:0:0:0:
296,38,90288,5,10,0:0:0:0:
148,338,91442,5,0,3:0:0:0:
148,338,91538,1,0,3:0:0:0:
148,338,91634,2,0,P|140:267|175:222,1,90,8|0,0:0|0:0,0:0:0:0:
188,159,92019,6,0,L|309:144,1,90,6|0,0:0|0:0,0:0:0:0:
410,272,92403,2,0,L|293:247,1,90,10|0,0:0|0:0,0:0:0:0:
386,146,92788,2,0,L|475:164,1,90,2|0,0:0|3:0,0:0:0:0:
311,42,93173,2,0,L|222:55,1,90,10|0,0:0|0:0,0:0:0:0:
68,152,93557,6,0,B|166:136|139:220|254:198,1,180,2|8,0:0|0:0,0:0:0:0:
381,253,94134,2,0,B|283:237|310:321|195:299,1,180,2|0,0:0|3:0,0:0:0:0:
362,348,94711,1,8,0:0:0:0:
438,165,94903,6,0,P|482:225|444:336,1,180,6|0,0:0|3:0,0:0:0:0:
333,201,95480,2,0,P|336:153|347:101,1,90,10|0,0:0|0:0,0:0:0:0:
475,52,95865,2,0,P|487:98|489:140,1,90,2|0,0:0|3:0,0:0:0:0:
371,292,96250,2,0,P|305:293|264:275,1,90,10|0,0:0|0:0,0:0:0:0:
413,188,96634,5,2,0:0:0:0:
257,134,96826,1,0,3:0:0:0:
392,86,97019,1,8,0:0:0:0:
282,248,97211,1,6,0:0:0:0:
282,248,97596,1,10,0:0:0:0:
282,248,97692,1,8,0:0:0:0:
282,248,97788,2,0,P|277:219|270:197,1,45,10|0,0:0|0:0,0:0:0:0:
182,91,97980,2,0,P|170:122|168:135,1,45,10|8,0:0|0:0,0:0:0:0:
104,261,98173,6,0,L|199:246,1,90,6|0,0:0|0:0,0:0:0:0:
338,154,98557,2,0,L|243:139,1,90,10|0,0:0|0:0,0:0:0:0:
129,111,98942,1,2,3:2:0:0:
280,29,99134,1,2,3:2:0:0:
231,176,99326,1,8,0:0:0:0:
143,21,99519,6,0,P|56:46|33:131,1,180,6|2,0:0|3:2,0:0:0:0:
104,261,100096,1,10,0:0:0:0:
186,104,100288,1,6,0:0:0:0:
186,104,100673,1,10,0:0:0:0:
186,104,100769,1,8,0:0:0:0:
186,104,100865,2,0,L|242:118,1,45,10|0,0:0|0:0,0:0:0:0:
282,202,101057,2,0,L|334:193,1,45,10|0,0:0|0:0,0:0:0:0:
429,148,101250,5,6,0:0:0:0:
327,334,101442,1,10,0:0:0:0:
327,334,101538,1,10,0:0:0:0:
327,334,101634,1,10,0:0:0:0:
282,202,101826,1,10,0:0:0:0:
159,329,102019,2,0,P|189:339|209:340,1,45,10|8,0:0|0:0,0:0:0:0:
153,224,102211,2,0,P|130:227|109:235,1,45,10|8,0:0|0:0,0:0:0:0:
33,311,102403,1,10,0:0:0:0:
99,106,102596,5,2,1:2:0:0:
99,106,102980,1,6,1:2:0:0:
99,106,103365,1,2,1:2:0:0:
159,255,103557,1,2,1:2:0:0:
330,243,103750,1,2,0:0:0:0:
356,213,103846,1,2,0:0:0:0:
367,175,103942,1,2,0:0:0:0:
359,135,104038,1,2,0:0:0:0:
336,103,104134,1,2,0:0:0:0:
300,84,104230,1,2,0:0:0:0:
260,83,104326,5,10,0:0:0:0:
63,209,104519,1,10,0:0:0:0:
341,354,105865,5,10,0:0:0:0:
154,262,106057,1,10,0:0:0:0:
383,43,107403,5,10,0:0:0:0:
499,216,107596,1,10,0:0:0:0:
499,216,108173,1,4,0:0:0:0:
387,138,108365,1,8,0:0:0:0:
387,138,108461,1,8,0:0:0:0:
367,270,108653,1,8,0:0:0:0:
367,270,108750,1,8,0:0:0:0:
282,132,108942,5,6,0:0:0:0:
265,284,109134,1,2,0:0:0:0:
381,178,109326,1,8,0:0:0:0:
226,52,109519,2,0,P|184:103|215:207,1,161.999995056153,6|2,0:0|0:0,0:0:0:0:
265,284,110096,2,0,L|368:270,1,80.9999975280763,8|2,0:0|0:0,0:0:0:0:
199,192,110480,6,0,L|40:170,1,144,6|8,0:0|0:0,0:0:0:0:
110,270,111057,2,0,P|126:321|126:365,2,72,2|2|2,0:0|0:0|0:0,0:0:0:0:
56,172,111634,1,8,0:0:0:0:
147,59,111826,6,0,B|223:62|204:125|310:113,1,144,2|2,0:0|0:0,0:0:0:0:
410,149,112403,1,10,0:0:0:0:
410,149,112596,2,0,B|334:152|353:215|247:203,1,144,2|0,0:0|0:0,0:0:0:0:
410,241,113173,1,10,0:0:0:0:
501,213,113365,1,2,0:0:0:0:
460,337,113557,6,0,P|401:357|323:303,1,144,6|10,0:0|0:0,0:0:0:0:
209,222,114134,2,0,P|226:276|229:315,1,72,2|0,0:0|0:0,0:0:0:0:
322,140,114519,1,2,0:0:0:0:
309,233,114711,1,8,0:0:0:0:
229,92,114903,6,0,P|168:85|102:149,1,144,6|0,0:0|0:0,0:0:0:0:
43,253,115480,1,8,0:0:0:0:
218,194,115673,1,4,0:0:0:0:
218,194,116057,1,10,0:0:0:0:
218,194,116153,1,10,0:0:0:0:
218,194,116250,2,0,L|210:247,1,36,10|0,0:0|0:0,0:0:0:0:
43,253,116442,6,0,L|25:85,1,144,6|10,0:0|0:0,0:0:0:0:
87,14,117019,1,10,0:0:0:0:
135,135,117211,2,0,L|129:183,2,36,6|0|0,0:0|0:0|0:0,0:0:0:0:
237,65,117596,1,14,0:0:0:0:
234,47,117692,1,8,0:0:0:0:
232,29,117788,1,8,0:0:0:0:
298,138,117980,2,0,P|325:148|345:153,1,36,2|2,0:0|0:0,0:0:0:0:
406,108,118173,6,0,P|458:117|489:136,1,62.9999980773926,4|2,0:0|0:0,0:0:0:0:
418,205,118557,1,2,0:0:0:0:
418,205,118750,2,0,P|407:248|406:276,2,62.9999980773926,2|2|2,0:0|0:0|0:0,0:0:0:0:
478,325,119326,1,8,0:0:0:0:
478,325,119519,2,0,P|417:355|337:339,1,125.999996154785,2|2,0:0|0:0,0:0:0:0:
273,298,120096,1,2,0:0:0:0:
273,298,120288,2,0,P|233:288|200:293,1,62.9999980773926,2|0,0:0|0:0,0:0:0:0:
120,325,120673,2,0,L|125:367,2,31.4999990386963,2|2|10,0:0|0:0|0:0,0:0:0:0:
35,239,121057,6,0,L|50:99,1,125.999996154785,2|2,0:0|0:0,0:0:0:0:
146,79,121634,1,2,0:0:0:0:
146,79,121826,2,0,L|136:9,2,62.9999980773926,2|2|2,0:0|0:0|0:0,0:0:0:0:
167,193,122403,1,8,0:0:0:0:
256,59,122596,6,0,P|375:70|395:108,1,144,6|2,0:0|0:0,0:0:0:0:
268,167,123173,1,10,0:0:0:0:
459,228,123365,1,6,0:0:0:0:
398,108,123557,1,8,0:0:0:0:
398,108,123653,1,8,0:0:0:0:
398,108,123750,1,10,0:0:0:0:
354,235,123942,2,0,P|345:286|343:320,1,72,10|2,0:0|0:0,0:0:0:0:
174,189,124326,5,6,0:0:0:0:
316,128,124519,1,2,0:0:0:0:
251,263,124711,1,10,0:0:0:0:
213,92,124903,2,0,P|122:75|81:158,1,198.000006042481,6|2,0:0|0:0,0:0:0:0:
161,268,125480,2,0,P|171:199|175:182,1,80.9999975280763,10|2,0:0|0:0,0:0:0:0:
217,46,125865,5,2,0:0:0:0:
298,164,126057,1,2,0:0:0:0:
393,58,126250,1,10,0:0:0:0:
446,227,126442,2,0,B|345:213|368:300|256:281,1,198.000006042481,6|2,0:0|0:0,0:0:0:0:
220,185,127019,2,0,P|281:165|322:165,1,80.9999975280763,10|2,0:0|0:0,0:0:0:0:
184,294,127403,5,2,0:0:0:0:
91,156,127596,1,2,0:0:0:0:
220,185,127788,1,10,0:0:0:0:
65,315,127980,2,0,P|52:238|15:123,1,198.000006042481,6|0,0:0|0:0,0:0:0:0:
69,43,128557,1,8,0:0:0:0:
69,43,128942,6,0,P|109:46|174:61,1,80.9999975280763,6|0,0:0|0:0,0:0:0:0:
303,99,129326,2,0,P|251:107|207:121,1,80.9999975280763,10|0,0:0|0:0,0:0:0:0:
101,159,129711,1,2,0:0:0:0:
283,206,129903,1,8,0:0:0:0:
283,206,130000,1,8,0:0:0:0:
283,206,130096,2,0,P|291:230|296:261,1,40.4999987640381,10|8,0:0|0:0,0:0:0:0:
169,293,130288,2,0,P|172:270|180:244,1,40.4999987640381,8|0,0:0|0:0,0:0:0:0:
223,114,130480,5,14,0:0:0:0:
290,293,130673,1,10,0:0:0:0:
116,152,130865,5,10,0:0:0:0:
322,195,131057,1,10,0:0:0:0:
116,287,131250,5,10,0:0:0:0:
340,183,131442,1,10,0:0:0:0:
118,104,131634,1,10,0:0:0:0:
207,312,131826,1,10,0:0:0:0:
207,312,132211,5,10,0:0:0:0:
271,80,132403,1,10,0:0:0:0:
416,282,132596,1,10,0:0:0:0:
296,204,132788,1,10,0:0:0:0:
296,204,132884,1,8,0:0:0:0:
296,204,132980,6,0,P|271:197|243:191,1,53.9999983520508,2|0,0:0|0:0,0:0:0:0:
379,132,133173,2,0,P|389:156|395:183,1,53.9999983520508,10|0,0:0|0:0,0:0:0:0:
276,95,133365,2,0,P|282:68|292:43,1,53.9999983520508,2|0,0:0|0:0,0:0:0:0:
451,2,133557,6,0,P|477:65|481:115,1,90,6|0,0:0|0:0,0:0:0:0:
465,226,133942,2,0,L|370:202,1,90,10|0,0:0|0:0,0:0:0:0:
276,95,134326,2,0,L|372:75,1,90,2|0,0:0|3:0,0:0:0:0:
293,238,134711,2,0,L|191:215,1,90,10|0,0:0|0:0,0:0:0:0:
103,112,135096,6,0,P|133:68|145:147,1,180,2|8,0:0|0:0,0:0:0:0:
50,206,135673,2,0,P|11:116|32:29,1,180,2|0,0:0|3:0,0:0:0:0:
103,112,136250,1,8,0:0:0:0:
224,20,136442,6,0,B|321:5|292:93|406:80,1,180,6|0,0:0|3:0,0:0:0:0:
251,123,137019,2,0,P|183:173|171:202,1,90,10|0,0:0|0:0,0:0:0:0:
346,256,137403,2,0,P|336:172|317:147,1,90,2|0,0:0|3:0,0:0:0:0:
183,271,137788,2,0,P|260:304|291:300,1,90,10|0,0:0|0:0,0:0:0:0:
400,268,138173,5,2,0:0:0:0:
258,214,138365,1,0,3:0:0:0:
420,273,138557,1,8,0:0:0:0:
284,354,138750,2,0,P|235:362|142:279,1,180,6|10,0:0|0:0,0:0:0:0:
132,256,139230,1,10,0:0:0:0:
132,256,139326,2,0,L|145:165,1,90,10|2,0:0|0:0,0:0:0:0:
308,45,139711,6,0,L|321:142,1,90,6|2,0:0|0:0,0:0:0:0:
429,252,140096,2,0,L|441:162,1,90,10|2,0:0|0:0,0:0:0:0:
271,116,140480,2,0,L|284:213,1,90,2|2,0:0|0:0,0:0:0:0:
449,127,140865,1,10,0:0:0:0:
509,319,141057,6,0,P|442:338|334:296,1,180,6|2,0:0|0:0,0:0:0:0:
267,190,141634,1,10,0:0:0:0:
139,346,141826,1,6,0:0:0:0:
139,346,142211,1,2,0:0:0:0:
267,190,142403,1,10,0:0:0:0:
68,158,142596,1,2,0:0:0:0:
152,240,142788,6,0,L|170:139,1,90,4|0,0:0|0:0,0:0:0:0:
292,80,143173,2,0,L|307:168,1,90,10|0,0:0|0:0,0:0:0:0:
191,38,143557,1,10,0:0:0:0:
191,38,143653,1,8,0:0:0:0:
191,38,143750,1,8,0:0:0:0:
288,194,143942,1,10,0:0:0:0:
418,57,144134,1,6,0:0:0:0:
418,57,144519,5,6,0:0:0:0:
236,121,144711,1,10,0:0:0:0:
469,210,144903,1,6,0:0:0:0:
469,210,145288,6,0,P|449:212|411:227,1,53.9999983520508,2|0,0:0|0:0,0:0:0:0:
356,290,145480,2,0,P|329:303|295:305,1,53.9999983520508,2|0,0:0|0:0,0:0:0:0:
225,258,145673,2,0,L|218:197,1,53.9999983520508,2|0,0:0|0:0,0:0:0:0:
133,164,145865,6,0,L|146:69,1,90,6|0,0:0|0:0,0:0:0:0:
316,21,146250,2,0,P|253:19|223:32,1,90,10|0,0:0|0:0,0:0:0:0:
280,132,146634,2,0,P|332:137|374:119,1,90,2|0,0:0|3:0,0:0:0:0:
459,16,147019,2,0,L|474:130,1,90,10|0,0:0|0:0,0:0:0:0:
465,250,147403,6,0,B|369:234|396:323|265:291,1,180,2|8,0:0|0:0,0:0:0:0:
166,165,147980,2,0,P|252:142|308:236,1,180,2|0,0:0|3:0,0:0:0:0:
210,287,148557,1,8,0:0:0:0:
61,250,148750,6,0,B|28:185|28:185|70:66,1,180,6|0,0:0|3:0,0:0:0:0:
174,13,149326,2,0,L|189:129,1,90,10|0,0:0|0:0,0:0:0:0:
284,183,149711,2,0,L|301:89,1,90,2|0,0:0|3:0,0:0:0:0:
410,27,150096,2,0,L|428:131,1,90,10|0,0:0|0:0,0:0:0:0:
459,309,150480,6,0,P|375:269|276:274,1,180,2|8,0:0|0:0,0:0:0:0:
163,346,151057,2,0,B|147:295|147:295|172:215|172:215|160:156,1,180,6|10,0:0|0:0,0:0:0:0:
157,139,151538,1,10,0:0:0:0:
157,139,151634,2,0,L|89:150,1,45,10|0,0:0|0:0,0:0:0:0:
245,276,151826,2,0,L|296:269,1,45,2|0,0:0|0:0,0:0:0:0:
396,116,152019,6,0,L|295:128,1,90,6|2,0:0|0:0,0:0:0:0:
472,286,152403,2,0,P|475:241|481:196,1,90,10|2,0:0|0:0,0:0:0:0:
306,126,152788,2,0,P|311:170|314:215,1,90,2|2,0:0|0:0,0:0:0:0:
383,323,153173,1,10,0:0:0:0:
269,317,153365,6,0,B|175:334|192:241|78:263,1,180,6|2,0:0|0:0,0:0:0:0:
245,213,153942,1,10,0:0:0:0:
116,357,154134,1,6,0:0:0:0:
116,357,154519,1,2,3:2:0:0:
163,212,154711,1,2,3:2:0:0:
20,238,154903,1,2,3:2:0:0:
101,275,155096,6,0,P|160:303|287:219,1,202.500007724762,6|2,0:0|3:2,0:0:0:0:
386,239,155865,2,0,B|417:208|417:208|388:99,1,135.000005149842,10|0,0:0|0:0,0:0:0:0:
362,31,156442,1,2,0:0:0:0:
245,213,156826,1,8,0:0:0:0:
81,66,157211,1,2,0:0:0:0:
81,66,157403,1,2,0:0:0:0:
123,149,157596,2,0,P|87:160|49:158,2,67.5000025749208,2|2|2,3:2|3:2|3:2,0:0:0:0:
175,55,158173,6,0,P|228:107|186:242,1,202.500007724762,4|2,0:0|3:2,0:0:0:0:
142,315,158942,1,8,0:0:0:0:
142,315,159038,1,8,0:0:0:0:
142,315,159134,2,0,P|173:308|202:304,1,40.4999987640381,2|2,0:0|0:0,0:0:0:0:
320,322,159326,1,10,0:0:0:0:
320,322,159711,6,0,P|328:258|337:219,1,90,14|0,0:0|3:0,0:0:0:0:
471,142,160096,2,0,P|489:232|490:244,1,90,10|0,0:0|3:0,0:0:0:0:
279,146,160480,2,0,P|323:133|383:139,1,90,10|0,0:0|3:0,0:0:0:0:
340,305,160865,2,0,P|286:321|240:317,1,90,10|0,0:0|0:0,0:0:0:0:
125,186,161250,5,14,0:0:0:0:
333,219,161442,1,10,0:0:0:0:
108,283,161634,5,10,0:0:0:0:
351,181,161826,1,10,0:0:0:0:
127,111,162019,5,10,0:0:0:0:
238,290,162211,1,10,0:0:0:0:
288,58,162403,1,10,0:0:0:0:
252,319,162596,5,10,0:0:0:0:
458,46,163750,1,0,3:0:0:0:
458,46,163846,1,0,3:0:0:0:
458,46,163942,2,0,P|470:96|470:141,1,90,8|0,0:0|0:0,0:0:0:0:
432,238,164326,6,0,L|333:223,1,90,6|2,0:0|0:0,0:0:0:0:
215,205,164711,1,10,0:0:0:0:
312,337,164903,1,2,0:0:0:0:
312,337,165000,1,2,0:0:0:0:
312,337,165096,2,0,P|335:287|337:235,1,90,2|2,0:0|0:0,0:0:0:0:
325,101,165480,1,10,0:0:0:0:
215,205,165673,6,0,B|126:200|141:272|38:258,1,180,2|2,0:0|0:0,0:0:0:0:
206,303,166250,1,10,0:0:0:0:
206,303,166442,2,0,B|295:298|280:370|383:356,1,180,2|2,0:0|0:0,0:0:0:0:
344,231,167019,1,10,0:0:0:0:
461,330,167211,6,0,P|459:269|485:142,1,180,6|2,0:0|0:0,0:0:0:0:
481,152,167692,1,0,0:0:0:0:
481,152,167788,1,10,0:0:0:0:
408,45,167980,2,0,P|327:13|255:60,1,180,2|2,0:0|0:0,0:0:0:0:
255,60,168461,1,0,0:0:0:0:
254,60,168557,1,10,0:0:0:0:
129,109,168750,6,0,B|181:182|106:208|163:295,1,180,6|2,0:0|0:0,0:0:0:0:
54,172,169326,1,10,0:0:0:0:
240,223,169519,1,6,0:0:0:0:
240,223,169903,1,8,0:0:0:0:
270,237,170000,1,8,0:0:0:0:
303,241,170096,1,8,0:0:0:0:
336,234,170192,1,8,0:0:0:0:
364,216,170288,2,0,L|370:167,1,45,10|2,0:0|0:0,0:0:0:0:
404,61,170480,6,0,P|382:55|359:57,1,45,6|2,0:0|0:0,0:0:0:0:
279,102,170673,1,2,0:0:0:0:
279,102,170769,1,2,0:0:0:0:
279,102,170865,2,0,P|257:107|234:105,1,45,10|2,0:0|0:0,0:0:0:0:
126,77,171057,5,6,0:0:0:0:
126,77,171153,1,2,0:0:0:0:
126,77,171250,1,2,0:0:0:0:
126,77,171346,1,2,0:0:0:0:
126,77,171442,2,0,L|132:32,1,45,10|2,0:0|0:0,0:0:0:0:
10,11,171634,2,0,L|18:55,1,45,10|2,0:0|0:0,0:0:0:0:
49,161,171826,6,0,B|146:153|113:230|230:216,1,180,6|2,0:0|0:0,0:0:0:0:
70,250,172403,1,10,0:0:0:0:
199,128,172596,2,0,P|281:153|318:222,1,135,2|8,0:0|0:0,0:0:0:0:
326,219,172980,1,10,0:0:0:0:
364,72,173173,1,10,0:0:0:0:
364,72,173269,1,8,0:0:0:0:
364,72,173365,1,10,0:0:0:0:
213,217,173557,5,14,0:0:0:0:
411,154,173750,1,10,0:0:0:0:
211,75,173942,1,10,0:0:0:0:
311,286,174134,1,14,0:0:0:0:
311,286,174519,5,10,0:0:0:0:
120,167,174711,1,10,0:0:0:0:
364,72,174903,2,0,P|430:129|441:216,1,180,6|8,0:0|0:0,0:0:0:0:
458,240,175384,1,8,0:0:0:0:
458,240,175480,1,8,0:0:0:0:
321,184,175673,2,0,B|254:170|254:170|194:208,1,135,6|8,0:0|0:0,0:0:0:0:
172,229,176057,1,10,0:0:0:0:
342,314,176250,1,10,0:0:0:0:
342,314,176346,1,8,0:0:0:0:
342,314,176442,1,10,0:0:0:0:
364,72,176634,5,6,0:0:0:0:
197,205,176826,1,2,0:0:0:0:
424,139,177019,1,8,0:0:0:0:
183,59,177211,2,0,B|161:78|143:106|143:106|216:82|277:144,1,198.000006042481,6|2,0:0|0:0,0:0:0:0:
365,218,177788,1,10,0:0:0:0:
177,298,177980,6,0,P|127:226|227:226,1,215.999993408203,6|0,0:0|0:0,0:0:0:0:
331,338,178557,1,8,0:0:0:0:
411,155,178750,2,0,B|325:147|337:204|258:196,1,161.999995056153,2|2,0:0|0:0,0:0:0:0:
219,211,179134,1,2,0:0:0:0:
175,216,179230,1,2,0:0:0:0:
134,204,179326,1,10,0:0:0:0:
104,174,179422,1,2,0:0:0:0:
87,135,179518,1,2,0:0:0:0:
88,93,179614,1,2,0:0:0:0:
109,61,179711,5,14,0:0:0:0:
332,37,179903,1,8,0:0:0:0:
134,204,180096,1,8,0:0:0:0:
368,79,180288,5,14,0:0:0:0:
198,320,180480,1,8,0:0:0:0:
412,103,180673,5,10,0:0:0:0:
335,353,180865,1,10,0:0:0:0:
255,175,181057,2,0,P|200:157|129:171,2,116.999994644165,10|8|8,0:3|0:3|0:3,0:0:0:0:
211,62,182403,1,4,0:3:0:0:
143,166,182788,6,0,P|132:209|130:254,1,90,2|0,0:0|0:0,0:0:0:0:
230,295,183365,1,0,0:0:0:0:
230,295,183557,2,0,P|217:222|262:163,1,135,2|0,0:0|0:0,0:0:0:0:
308,117,184326,2,0,L|398:102,2,90,0|0|2,0:0|0:0|0:0,0:0:0:0:
370,203,185480,1,2,0:0:0:0:
302,119,185865,6,0,L|212:104,1,90,2|0,0:0|0:0,0:0:0:0:
153,29,186442,1,0,0:0:0:0:
153,29,186634,2,0,P|122:78|131:160,1,135,2|0,0:0|0:0,0:0:0:0:
173,227,187403,2,0,P|187:275|180:332,2,90,2|2|2,0:0|0:0|0:0,0:0:0:0:
173,227,188942,6,0,B|246:219|233:277|313:263,1,135,2|0,0:0|0:0,0:0:0:0:
378,227,189711,1,0,0:0:0:0:
378,227,190480,6,0,P|384:189|400:134,1,90,2|0,0:0|0:0,0:0:0:0:
285,157,191250,2,0,P|279:119|263:64,1,90,2|0,0:0|0:0,0:0:0:0:
191,5,191826,1,0,0:0:0:0:
126,76,192019,6,0,P|129:133|151:211,1,125.999996154785,4|0,0:0|0:0,0:0:0:0:
195,286,192596,1,2,0:3:0:0:
195,286,192788,2,0,L|273:275,2,62.9999980773926
146,199,193365,6,0,L|291:178,1,125.999996154785,6|0,0:0|0:0,0:0:0:0:
395,161,193942,1,2,0:0:0:0:
351,280,194326,1,2,0:0:0:0:
270,182,194711,1,2,0:0:0:0:
314,63,195096,6,0,P|392:43|481:116,1,188.999994232178,6|2,0:0|0:0,0:0:0:0:
369,153,195865,2,0,B|273:138|296:225|181:199,1,188.999994232178,2|0,0:0|0:0,0:0:0:0:
98,139,196634,2,0,L|90:22,2,94.499997116089,2|2|2,3:2|3:2|3:2,0:0:0:0:
206,107,197403,2,0,L|193:209,2,94.499997116089,10|8|8,0:0|0:0|0:0,0:0:0:0:
246,28,198173,6,0,B|304:38|304:38|365:16|365:16|429:30,1,188.999994232178,6|0,0:0|0:0,0:0:0:0:
493,148,198942,2,0,L|512:145,8,15.7499995193482,2|2|2|2|2|2|2|2|10,0:0|0:0|0:0|0:0|0:0|0:0|0:0|0:0|0:0,0:0:0:0:
381,101,199519,6,0,P|369:157|419:252,1,144,6|2,0:0|0:0,0:0:0:0:
493,148,200096,1,10,0:0:0:0:
454,331,200288,1,6,0:0:0:0:
326,256,200480,1,0,0:0:0:0:
326,256,200576,1,0,0:0:0:0:
326,256,200673,2,0,L|386:241,1,36,2|0,0:0|0:0,0:0:0:0:
422,157,200865,2,0,L|333:139,1,72,10|2,0:0|0:0,0:0:0:0:
165,40,201250,5,6,0:0:0:0:
200,189,201442,1,2,0:0:0:0:
314,69,201634,1,10,0:0:0:0:
295,265,201826,2,0,P|231:334|141:306,1,198.000006042481,6|2,0:0|0:0,0:0:0:0:
85,199,202403,2,0,P|138:179|193:186,1,80.9999975280763,10|2,0:0|0:0,0:0:0:0:
315,237,202788,5,2,0:0:0:0:
154,305,202980,1,2,0:0:0:0:
338,228,203173,1,10,0:0:0:0:
194,137,203365,2,0,P|152:224|187:314,1,198.000006042481,6|2,0:0|0:0,0:0:0:0:
315,343,203942,2,0,L|401:329,1,80.9999975280763,10|2,0:0|0:0,0:0:0:0:
451,128,204326,5,2,0:0:0:0:
341,216,204519,1,2,0:0:0:0:
473,268,204711,1,10,0:0:0:0:
450,127,204903,2,0,P|376:67|283:88,1,198.000006042481,6|0,0:0|0:0,0:0:0:0:
200,147,205480,1,8,0:0:0:0:
200,147,205673,1,0,0:0:0:0:
351,179,205865,6,0,P|331:237|328:279,1,80.9999975280763,6|0,0:0|0:0,0:0:0:0:
200,147,206250,2,0,P|215:184|222:224,1,80.9999975280763,10|0,0:0|0:0,0:0:0:0:
250,344,206634,1,10,0:0:0:0:
250,344,206730,1,8,0:0:0:0:
250,344,206826,2,0,L|206:336,1,40.4999987640381,10|8,0:0|0:0,0:0:0:0:
112,365,207019,1,10,0:0:0:0:
112,365,207115,1,8,0:0:0:0:
112,365,207211,2,0,L|72:357,1,40.4999987640381,10|8,0:0|0:0,0:0:0:0:
31,265,207403,5,6,0:0:0:0:
250,181,207596,1,10,0:0:0:0:
100,147,207788,1,10,0:0:0:0:
256,288,207980,1,6,0:0:0:0:
256,288,208365,5,2,0:0:0:0:
100,147,208557,1,10,0:0:0:0:
336,82,208750,1,6,0:0:0:0:
336,82,209134,5,10,0:0:0:0:
210,216,209326,1,10,0:0:0:0:
283,13,209519,1,6,0:0:0:0:
359,235,209711,1,10,0:0:0:0:
191,72,209903,1,10,0:0:0:0:
457,148,210096,1,10,0:0:0:0:
457,148,210192,1,8,0:0:0:0:
457,148,210288,1,10,0:0:0:0:
222,245,210480,6,0,P|233:180|256:136,1,80.9999975280763,6|0,0:0|0:0,0:0:0:0:
405,44,210865,2,0,P|425:119|424:136,1,80.9999975280763,8|0,0:0|0:0,0:0:0:0:
271,40,211250,5,10,0:0:0:0:
387,242,211442,1,10,0:0:0:0:
239,66,211634,1,10,0:0:0:0:
163,315,211826,6,0,P|74:346|58:224,1,251.999992309571,6|2,0:0|0:3,0:0:0:0:
58,223,212692,1,2,0:3:0:0:
58,223,212788,1,2,0:3:0:0:
152,151,212980,2,0,P|164:226|164:234,2,62.9999980773926
143,126,213461,1,0,3:0:0:0:
134,109,213557,5,10,0:0:0:0:
366,139,213750,1,10,0:0:0:0:
366,139,214903,1,0,3:0:0:0:
366,139,215000,1,0,3:0:0:0:
366,139,215096,5,6,0:0:0:0:
199,206,215288,1,2,0:0:0:0:
393,150,215480,1,8,0:0:0:0:
229,75,215673,2,0,P|245:164|259:268,1,180,6|0,0:0|0:0,0:0:0:0:
276,352,216250,1,8,0:0:0:0:
137,261,216442,6,0,P|83:272|149:287,1,180,2|2,0:0|0:0,0:0:0:0:
180,178,216923,1,0,3:0:0:0:
180,178,217019,2,0,P|118:160|76:169,1,90,10|0,0:0|0:0,0:0:0:0:
272,238,217403,2,0,P|293:244|315:244,1,45,2|2,0:0|0:0,0:0:0:0:
401,225,217596,1,2,0:0:0:0:
424,207,217692,1,2,0:0:0:0:
440,183,217788,1,2,0:0:0:0:
446,155,217884,1,2,0:0:0:0:
442,126,217980,1,2,0:0:0:0:
428,100,218076,1,2,0:0:0:0:
406,82,218173,5,6,0:0:0:0:
315,244,218365,1,0,0:0:0:0:
280,55,218557,1,8,0:0:0:0:
446,155,218750,2,0,P|475:235|409:320,1,180,6|0,0:0|0:0,0:0:0:0:
391,338,219230,1,0,0:0:0:0:
391,338,219326,2,0,L|296:328,1,90,8|2,1:0|0:0,0:0:0:0:
124,264,219711,6,0,L|227:247,1,90,6|2,0:0|0:0,0:0:0:0:
234,129,220096,2,0,L|124:143,1,90,10|2,0:0|0:0,0:0:0:0:
323,211,220480,2,0,L|436:198,1,90,2|2,0:0|0:0,0:0:0:0:
301,328,220865,1,10,0:0:0:0:
212,249,221057,6,0,B|117:240|137:324|19:310,1,180,6|2,0:0|0:0,0:0:0:0:
187,355,221634,1,10,0:0:0:0:
59,204,221826,1,6,0:0:0:0:
59,204,222211,1,2,0:0:0:0:
187,355,222403,1,10,0:0:0:0:
253,168,222596,1,2,0:0:0:0:
168,257,222788,6,0,P|156:217|153:168,1,90,6|0,0:0|0:0,0:0:0:0:
341,99,223173,2,0,P|357:167|357:198,1,90,10|0,0:0|0:0,0:0:0:0:
221,78,223557,1,10,0:0:0:0:
221,78,223653,1,8,0:0:0:0:
221,78,223750,1,8,0:0:0:0:
352,219,223942,1,10,0:0:0:0:
166,275,224134,1,6,0:0:0:0:
166,275,224519,5,6,0:0:0:0:
306,122,224711,1,10,0:0:0:0:
286,347,224903,1,6,0:0:0:0:
286,347,225288,6,0,L|280:283,1,53.9999983520508,2|0,0:0|0:0,0:0:0:0:
151,257,225480,2,0,L|156:203,1,53.9999983520508,2|0,0:0|0:0,0:0:0:0:
284,156,225673,2,0,L|278:92,1,53.9999983520508,2|0,0:0|0:0,0:0:0:0:
173,32,225865,6,0,P|111:43|58:77,1,90,6|0,0:0|0:0,0:0:0:0:
155,203,226250,2,0,P|196:220|240:225,1,90,10|0,0:0|0:0,0:0:0:0:
146,10,226634,2,0,P|84:21|31:55,1,90,2|0,0:0|3:0,0:0:0:0:
127,224,227019,2,0,P|168:241|213:247,1,90,10|0,0:0|0:0,0:0:0:0:
380,62,227403,6,0,P|411:129|406:261,1,180,2|8,0:0|0:0,0:0:0:0:
279,114,227980,2,0,B|179:91|209:180|84:150,1,180,2|0,0:0|3:0,0:0:0:0:
246,202,228557,1,8,0:0:0:0:
132,58,228750,6,0,P|87:52|23:173,1,180,6|0,0:0|3:0,0:0:0:0:
35,288,229326,2,0,L|138:271,1,90,10|0,0:0|0:0,0:0:0:0:
246,202,229711,2,0,L|135:182,1,90,2|0,0:0|3:0,0:0:0:0:
222,326,230096,2,0,L|325:309,1,90,10|0,0:0|0:0,0:0:0:0:
414,177,230480,6,0,B|373:156|330:174|330:174|297:216|223:197,1,180,2|8,0:0|0:0,0:0:0:0:
92,111,231057,2,0,P|132:63|247:94,1,180,6|10,0:0|0:0,0:0:0:0:
258,103,231538,1,10,0:0:0:0:
258,103,231634,2,0,L|252:153,1,45,10|0,0:0|0:0,0:0:0:0:
160,245,231826,2,0,L|148:194,1,45,2|0,0:0|0:0,0:0:0:0:
237,81,232019,6,0,P|294:71|346:75,1,90,6|2,0:0|0:0,0:0:0:0:
440,100,232403,2,0,P|450:146|453:197,1,90,10|2,0:0|0:0,0:0:0:0:
223,169,232788,2,0,P|226:124|236:80,1,90,2|2,0:0|0:0,0:0:0:0:
383,0,233173,1,10,0:0:0:0:
351,159,233365,6,0,P|333:248|329:337,1,180,6|2,0:0|0:0,0:0:0:0:
249,190,233942,1,10,0:0:0:0:
426,264,234134,1,4,0:0:0:0:
426,264,234519,1,2,3:2:0:0:
313,272,234711,1,2,3:2:0:0:
273,380,234903,1,2,3:2:0:0:
426,264,235096,6,0,B|443:225|439:179|439:179|416:151|416:151|409:113|436:65,1,202.500007724762,6|2,0:0|3:2,0:0:0:0:
346,42,235865,2,0,P|327:78|227:100,1,135.000005149842,10|0,0:0|0:0,0:0:0:0:
256,5,236442,1,2,0:0:0:0:
383,216,236826,1,8,0:0:0:0:
136,220,237211,1,2,0:0:0:0:
136,220,237403,1,2,0:0:0:0:
215,176,237596,2,0,P|226:223|218:265,2,67.5000025749208,2|2|2,3:2|3:2|3:2,0:0:0:0:
115,131,238173,6,0,P|194:71|292:105,1,202.500007724762,6|2,0:0|3:2,0:0:0:0:
379,170,238942,1,8,0:0:0:0:
379,170,239038,1,8,0:0:0:0:
379,170,239134,2,0,L|368:241,1,40.4999987640381,2|2,0:0|0:0,0:0:0:0:
347,317,239326,1,10,0:0:0:0:
347,317,239711,6,0,L|255:299,1,80.9999975280763,14|0,0:0|3:0,0:0:0:0:
147,257,240096,2,0,L|52:277,1,80.9999975280763,10|0,0:0|3:0,0:0:0:0:
201,90,240480,2,0,P|221:157|221:192,1,80.9999975280763,10|0,0:0|3:0,0:0:0:0:
306,322,240865,2,0,P|311:271|327:232,1,80.9999975280763,10|0,0:0|0:0,0:0:0:0:
370,142,241250,5,14,0:0:0:0:
166,182,241442,1,10,0:0:0:0:
394,136,241634,5,10,0:0:0:0:
112,95,241826,1,10,0:0:0:0:
417,132,242019,5,10,0:0:0:0:
98,254,242211,1,10,0:0:0:0:
441,126,242403,5,10,0:0:0:0:
41,170,242596,1,10,0:0:0:0:
256,192,242692,12,0,245096,0:0:0:0:
397,62,245865,6,0,P|408:127|409:183,1,90,6|0,0:0|0:0,0:0:0:0:
384,278,246250,2,0,L|292:259,1,90,10|0,0:0|0:0,0:0:0:0:
219,135,246634,2,0,L|330:118,1,90,2|0,0:0|3:0,0:0:0:0:
186,232,247019,2,0,P|136:224|86:205,1,90,10|0,0:0|0:0,0:0:0:0:
184,42,247403,6,0,B|280:42|252:124|359:117,1,180,2|8,0:0|0:0,0:0:0:0:
468,41,247980,2,0,P|447:151|442:238,1,180,2|0,0:0|3:0,0:0:0:0:
474,330,248557,1,8,0:0:0:0:
343,217,248750,6,0,B|247:217|275:299|168:292,1,180,6|0,0:0|3:0,0:0:0:0:
335,310,249326,2,0,P|399:290|453:289,1,90,10|0,0:0|0:0,0:0:0:0:
194,194,249711,2,0,P|136:179|83:179,1,90,2|0,0:0|3:0,0:0:0:0:
326,88,250096,2,0,P|348:165|346:195,1,90,10|0,0:0|0:0,0:0:0:0:
219,87,250480,5,6,0:0:0:0:
343,217,250673,1,0,0:0:0:0:
162,178,250865,1,8,0:0:0:0:
369,67,251057,1,6,0:0:0:0:
369,67,251442,1,10,0:0:0:0:
369,67,251538,1,8,0:0:0:0:
369,67,251634,2,0,P|405:61|431:51,1,45,10|0,0:0|0:0,0:0:0:0:
304,164,251826,2,0,P|335:169|362:182,1,45,2|0,0:0|0:0,0:0:0:0:
252,56,252019,6,0,P|179:69|147:88,1,90,6|0,0:0|0:0,0:0:0:0:
69,191,252403,2,0,P|120:217|189:215,1,90,10|0,0:0|0:0,0:0:0:0:
289,172,252788,1,2,0:0:0:0:
146,106,252980,1,2,0:0:0:0:
305,198,253173,1,8,0:0:0:0:
160,310,253365,6,0,P|117:251|165:132,1,180,6|2,0:0|0:0,0:0:0:0:
233,47,253942,1,10,0:0:0:0:
210,220,254134,1,6,0:0:0:0:
210,220,254519,1,10,0:0:0:0:
210,220,254615,1,8,0:0:0:0:
210,220,254711,2,0,L|201:158,1,45,10|0,0:0|0:0,0:0:0:0:
342,99,254903,2,0,L|332:168,1,45,2|0,0:0|0:0,0:0:0:0:
314,254,255096,5,6,0:0:0:0:
233,47,255288,1,10,0:0:0:0:
233,47,255384,1,10,0:0:0:0:
233,47,255480,1,10,0:0:0:0:
378,148,255673,1,2,0:0:0:0:
210,220,255865,2,0,L|156:205,1,45,10|8,0:0|0:0,0:0:0:0:
92,129,256057,2,0,L|150:116,1,45,10|8,0:0|0:0,0:0:0:0:
61,230,256250,1,10,0:0:0:0:
94,11,256442,5,2,1:2:0:0:
94,11,256826,1,2,1:2:0:0:
94,11,257211,1,2,1:2:0:0:
170,81,257403,2,0,P|213:88|256:74,2,90,2|8|8,0:0|0:3|0:3,0:0:0:0:
170,81,258173,6,0,P|200:155|176:210,1,125.999996154785,6|0,0:0|0:0,0:0:0:0:
48,265,258750,1,2,0:0:0:0:
91,180,259134,1,2,0:0:0:0:
185,196,259519,1,2,0:0:0:0:
198,289,259903,1,2,0:0:0:0:
114,332,260288,1,2,0:0:0:0:
48,265,260480,1,2,0:0:0:0:
185,196,260865,1,2,0:0:0:0:
305,327,261250,6,0,P|276:261|298:197,1,125.999996154785,6|0,0:0|0:0,0:0:0:0:
426,142,261826,1,2,0:0:0:0:
383,227,262211,1,2,0:0:0:0:
290,211,262596,1,2,0:0:0:0:
276,119,262980,1,2,0:0:0:0:
360,75,263365,1,2,0:0:0:0:
383,227,263557,1,8,0:0:0:0:
383,227,263653,1,8,0:0:0:0:
383,227,263750,2,0,L|390:268,1,31.4999990386963,8|0,0:0|0:0,0:0:0:0:
276,119,263942,5,6,0:0:0:0:
297,346,264134,1,14,0:0:0:0:
256,192,264230,12,0,265865,0:0:0:0:
