osu file format v14

[General]
AudioFilename: audio.mp3
AudioLeadIn: 0
PreviewTime: 67432
Countdown: 0
SampleSet: None
StackLeniency: 0.7
Mode: 1
LetterboxInBreaks: 0
WidescreenStoryboard: 0

[Editor]
Bookmarks: 9366,67491
DistanceSpacing: 1.1
BeatDivisor: 8
GridSize: 32
TimelineZoom: 2.799999

[Metadata]
Title:LOVE LOVE WARS
TitleUnicode:LOVE LOVE WARS
Artist:Ogura Yui & Tamiyasu Tomoe
ArtistUnicode:小倉 結衣&民安 ともえ
Creator:chaica
Version:Taiko Oni
Source:おとなり恋戦争!
Tags:eroge short ver otonari koi senou Sugar House Team-OZ itou mitsuya
BeatmapID:1779739
BeatmapSetID:851368

[Difficulty]
HPDrainRate:6
CircleSize:6
OverallDifficulty:6
ApproachRate:9
SliderMultiplier:1.40000000596047
SliderTickRate:1

[Events]
//Background and Video events
0,0,"c4c0f602.jpg",0,80
//Break Periods
//Storyboard Layer 0 (Background)
//Storyboard Layer 1 (Fail)
//Storyboard Layer 2 (Pass)
//Storyboard Layer 3 (Foreground)
//Storyboard Sound Samples

[TimingPoints]
1866,468.75,4,1,0,60,1,0
1866,-66.6666666666667,4,1,0,60,0,0
7491,-58.8235294117647,4,1,0,80,0,0
7842,-52.6315789473684,4,1,0,80,0,0
8194,-52.6315789473684,4,1,0,80,0,0
8545,-47.6190476190476,4,1,0,80,0,0
8780,-40,4,1,0,80,0,0
8897,-33.3333333333333,4,1,0,80,0,0
9366,-50,4,1,0,100,0,1
24014,-52.6315789473684,4,1,0,100,0,1
24073,-54.054054054054,4,1,0,100,0,1
24131,-55.5555555555556,4,1,0,100,0,1
24248,-58.8235294117647,4,1,0,90,0,1
24366,-62.5,4,1,0,80,0,0
30928,-58.8235294117647,4,1,0,80,0,0
31045,-55.5555555555556,4,1,0,80,0,0
31280,-52.6315789473684,4,1,0,80,0,0
31397,-50,4,1,0,80,0,0
31631,-52.6315789473684,4,1,0,80,0,0
31866,-55.5555555555556,4,1,0,70,0,0
37491,-55.5555555555556,4,1,0,90,0,0
39014,-55.5555555555556,4,1,0,60,0,0
39366,-55.5555555555556,4,1,0,80,0,0
46866,-55.5555555555556,4,1,0,90,0,0
59873,-54.054054054054,4,1,0,90,0,0
59991,-52.6315789473684,4,1,0,100,0,0
60225,-50,4,1,0,100,0,0
60459,-47.6190476190476,4,1,0,100,0,0
60694,-45.4545454545455,4,1,0,100,0,0
60928,-43.4782608695652,4,1,0,100,0,0
61045,-42.5531914893617,4,1,0,100,0,0
61162,-41.6666666666667,4,1,0,100,0,0
61280,-40.8163265306122,4,1,0,100,0,0
61397,-40,4,1,0,100,0,0
61455,-40.4858299595142,4,1,0,100,0,0
61514,-40.8163265306122,4,1,0,100,0,0
61631,-41.6666666666667,4,1,0,100,0,0
61748,-43.4782608695652,4,1,0,100,0,0
61866,-45.4545454545455,4,1,0,40,0,0
62100,-52.6315789473684,4,1,0,60,0,0
62334,-62.5,4,1,0,40,0,0
62803,-76.9230769230769,4,1,0,80,0,0
63155,-100,4,1,0,50,0,0
63741,-66.6666666666667,4,1,0,60,0,0
63858,-62.5,4,1,0,60,0,0
63975,-58.8235294117647,4,1,0,60,0,0
64092,-55.5555555555556,4,1,0,60,0,0
64209,-52.6315789473684,4,1,0,60,0,0
64326,-50,4,1,0,60,0,0
64561,-50,4,1,0,80,0,0
65303,-47.6190476190476,4,1,0,90,0,0
65459,-45.4545454545455,4,1,0,90,0,0
65616,-43.4782608695652,4,1,0,90,0,0
66084,-40,4,1,0,90,0,0
66553,-37.037037037037,4,1,0,100,0,0
66787,-40,4,1,0,90,0,0
66905,-41.6666666666667,4,1,0,90,0,0
67022,-43.4782608695652,4,1,0,90,0,0
67139,-45.4545454545455,4,1,0,90,0,0
67256,-47.6190476190476,4,1,0,90,0,0
67315,-48.5436893203883,4,1,0,90,0,0
67373,-49.2610837438424,4,1,0,90,0,0
67491,-50,4,1,0,100,0,1
82022,-49.5049504950495,4,1,0,100,0,1
82080,-49.0196078431373,4,1,0,100,0,1
82139,-48.5436893203883,4,1,0,100,0,1
82198,-48.0769230769231,4,1,0,100,0,1
82256,-47.6190476190476,4,1,0,100,0,1
82373,-45.4545454545455,4,1,0,100,0,1
82491,-43.4782608695652,4,1,0,100,0,1
93741,-50,4,1,0,100,0,0
93975,-58.8235294117647,4,1,0,80,0,0
94209,-71.4285714285714,4,1,0,80,0,0
97491,-90.9090909090909,4,1,0,100,0,0
97725,-125,4,1,0,80,0,0
97959,-200,4,1,0,100,0,0
99307,-200,4,1,0,30,0,0

[HitObjects]
256,192,1866,5,8,0:0:0:0:
256,192,1924,1,0,0:0:0:0:
256,192,1983,1,0,0:0:0:0:
256,192,2100,1,8,0:0:0:0:
256,192,2217,1,0,0:0:0:0:
256,192,2276,1,0,0:0:0:0:
256,192,2334,1,8,0:0:0:0:
256,192,2451,1,0,0:0:0:0:
256,192,2569,1,8,0:0:0:0:
256,192,2803,1,8,0:0:0:0:
256,192,2920,1,0,0:0:0:0:
256,192,2979,1,0,0:0:0:0:
256,192,3037,1,8,0:0:0:0:
256,192,3155,1,0,0:0:0:0:
256,192,3272,1,8,0:0:0:0:
256,192,3330,1,8,0:0:0:0:
256,192,3389,1,8,0:0:0:0:
256,192,3506,1,8,0:0:0:0:
256,192,3623,1,0,0:0:0:0:
256,192,3741,1,8,0:0:0:0:
256,192,3799,1,0,0:0:0:0:
256,192,3858,1,0,0:0:0:0:
256,192,3975,1,8,0:0:0:0:
256,192,4092,1,0,0:0:0:0:
256,192,4151,1,0,0:0:0:0:
256,192,4209,1,8,0:0:0:0:
256,192,4326,1,0,0:0:0:0:
256,192,4444,1,8,0:0:0:0:
256,192,4678,1,8,0:0:0:0:
256,192,4795,1,0,0:0:0:0:
256,192,4854,1,0,0:0:0:0:
256,192,4912,1,8,0:0:0:0:
256,192,5030,1,0,0:0:0:0:
256,192,5147,1,8,0:0:0:0:
256,192,5205,1,0,0:0:0:0:
256,192,5264,1,8,0:0:0:0:
258,193,5323,1,0,0:0:0:0:
256,192,5381,1,8,0:0:0:0:
256,192,5498,1,8,0:0:0:0:
256,192,5616,1,8,0:0:0:0:
256,192,5674,1,0,0:0:0:0:
256,192,5733,1,0,0:0:0:0:
256,192,5850,1,8,0:0:0:0:
256,192,5967,1,0,0:0:0:0:
256,192,6026,1,0,0:0:0:0:
256,192,6084,1,8,0:0:0:0:
256,192,6201,1,0,0:0:0:0:
256,192,6319,1,8,0:0:0:0:
256,192,6553,1,8,0:0:0:0:
256,192,6670,1,0,0:0:0:0:
256,192,6729,1,0,0:0:0:0:
256,192,6787,1,8,0:0:0:0:
256,192,6905,1,0,0:0:0:0:
256,192,7022,1,8,0:0:0:0:
256,192,7080,1,0,0:0:0:0:
256,192,7139,1,0,0:0:0:0:
256,192,7256,1,8,0:0:0:0:
256,192,7373,1,0,0:0:0:0:
256,192,7491,1,8,0:0:0:0:
256,192,7549,1,8,0:0:0:0:
256,192,7608,1,0,0:0:0:0:
256,192,7725,1,8,0:0:0:0:
256,192,7842,1,8,0:0:0:0:
256,192,7901,1,8,0:0:0:0:
256,192,7959,1,0,0:0:0:0:
256,192,8076,1,8,0:0:0:0:
256,192,8194,1,8,0:0:0:0:
256,192,8252,1,8,0:0:0:0:
256,192,8311,1,0,0:0:0:0:
256,192,8428,1,0,0:0:0:0:
256,192,8545,1,8,0:0:0:0:
256,192,8780,1,8,0:0:0:0:
256,192,8897,1,4,0:0:0:0:
256,192,9366,1,12,0:0:0:0:
256,192,9483,1,0,0:0:0:0:
256,192,9541,1,0,0:0:0:0:
256,192,9600,1,8,0:0:0:0:
256,192,9717,1,0,0:0:0:0:
256,192,9834,1,8,0:0:0:0:
256,192,10069,1,8,0:0:0:0:
256,192,10186,1,0,0:0:0:0:
256,192,10244,1,0,0:0:0:0:
256,192,10303,1,8,0:0:0:0:
256,192,10420,1,0,0:0:0:0:
256,192,10537,1,8,0:0:0:0:
256,192,10655,1,0,0:0:0:0:
256,192,10772,1,8,0:0:0:0:
256,192,10830,1,8,0:0:0:0:
256,192,10889,1,0,0:0:0:0:
256,192,10948,1,0,0:0:0:0:
256,192,11006,1,8,0:0:0:0:
256,192,11123,1,0,0:0:0:0:
256,192,11241,1,12,0:0:0:0:
256,192,11358,1,0,0:0:0:0:
256,192,11416,1,0,0:0:0:0:
256,192,11475,1,8,0:0:0:0:
256,192,11592,1,0,0:0:0:0:
256,192,11709,1,8,0:0:0:0:
256,192,11944,1,0,0:0:0:0:
256,192,12002,1,0,0:0:0:0:
256,192,12061,1,8,0:0:0:0:
256,192,12178,1,0,0:0:0:0:
256,192,12295,1,8,0:0:0:0:
256,192,12412,1,8,0:0:0:0:
256,192,12530,1,0,0:0:0:0:
256,192,12647,1,8,0:0:0:0:
256,192,12705,1,8,0:0:0:0:
256,192,12764,1,0,0:0:0:0:
256,192,12881,1,8,0:0:0:0:
256,192,12998,1,0,0:0:0:0:
256,192,13116,1,4,0:0:0:0:
256,192,13350,1,8,0:0:0:0:
256,192,13467,1,0,0:0:0:0:
256,192,13526,1,0,0:0:0:0:
256,192,13584,1,8,0:0:0:0:
256,192,13701,1,0,0:0:0:0:
256,192,13819,1,8,0:0:0:0:
256,192,13877,1,0,0:0:0:0:
256,192,13936,1,0,0:0:0:0:
256,192,14053,1,8,0:0:0:0:
256,192,14170,1,0,0:0:0:0:
256,192,14229,1,0,0:0:0:0:
256,192,14287,1,8,0:0:0:0:
256,192,14405,1,0,0:0:0:0:
256,192,14522,1,8,0:0:0:0:
256,192,14580,1,0,0:0:0:0:
256,192,14639,1,0,0:0:0:0:
256,192,14756,1,8,0:0:0:0:
256,192,14815,1,8,0:0:0:0:
256,192,14873,1,0,0:0:0:0:
256,192,14991,1,12,0:0:0:0:
256,192,15108,1,0,0:0:0:0:
256,192,15225,1,8,0:0:0:0:
256,192,15303,1,8,0:0:0:0:
256,192,15381,1,0,0:0:0:0:
256,192,15459,1,12,0:0:0:0:
256,192,15576,1,0,0:0:0:0:
256,192,15694,1,8,0:0:0:0:
256,192,15772,1,0,0:0:0:0:
256,192,15850,1,0,0:0:0:0:
256,192,15928,1,12,0:0:0:0:
256,192,16045,1,0,0:0:0:0:
256,192,16162,1,8,0:0:0:0:
256,192,16241,1,0,0:0:0:0:
256,192,16319,1,8,0:0:0:0:
256,192,16397,1,12,0:0:0:0:
256,192,16514,1,0,0:0:0:0:
256,192,16573,1,0,0:0:0:0:
256,192,16631,1,0,0:0:0:0:
256,192,16748,1,0,0:0:0:0:
256,192,16866,1,12,0:0:0:0:
256,192,16983,1,0,0:0:0:0:
256,192,17041,1,0,0:0:0:0:
256,192,17100,1,8,0:0:0:0:
256,192,17217,1,0,0:0:0:0:
256,192,17334,1,8,0:0:0:0:
256,192,17569,1,8,0:0:0:0:
256,192,17686,1,0,0:0:0:0:
256,192,17744,1,0,0:0:0:0:
256,192,17803,1,8,0:0:0:0:
256,192,17920,1,8,0:0:0:0:
256,192,17979,1,0,0:0:0:0:
256,192,18037,1,8,0:0:0:0:
256,192,18155,1,0,0:0:0:0:
256,192,18272,1,8,0:0:0:0:
256,192,18330,1,8,0:0:0:0:
256,192,18389,1,0,0:0:0:0:
256,192,18448,1,0,0:0:0:0:
256,192,18506,1,8,0:0:0:0:
256,192,18623,1,0,0:0:0:0:
256,192,18741,1,12,0:0:0:0:
256,192,18858,1,0,0:0:0:0:
256,192,18916,1,0,0:0:0:0:
256,192,18975,1,8,0:0:0:0:
256,192,19092,1,0,0:0:0:0:
256,192,19209,1,8,0:0:0:0:
256,192,19444,1,0,0:0:0:0:
256,192,19502,1,0,0:0:0:0:
256,192,19561,1,8,0:0:0:0:
256,192,19678,1,8,0:0:0:0:
256,192,19795,1,8,0:0:0:0:
256,192,19854,1,8,0:0:0:0:
256,192,19912,1,8,0:0:0:0:
256,192,20030,1,0,0:0:0:0:
256,192,20147,1,8,0:0:0:0:
256,192,20205,1,0,0:0:0:0:
256,192,20264,1,0,0:0:0:0:
256,192,20322,1,8,0:0:0:0:
256,192,20381,1,8,0:0:0:0:
256,192,20498,1,0,0:0:0:0:
256,192,20616,1,4,0:0:0:0:
256,192,20733,1,0,0:0:0:0:
256,192,20791,1,0,0:0:0:0:
256,192,20850,1,8,0:0:0:0:
256,192,20967,1,0,0:0:0:0:
256,192,21084,1,8,0:0:0:0:
256,192,21143,1,8,0:0:0:0:
256,192,21201,1,0,0:0:0:0:
256,192,21260,1,0,0:0:0:0:
256,192,21319,1,8,0:0:0:0:
256,192,21436,1,0,0:0:0:0:
256,192,21553,1,8,0:0:0:0:
256,192,21670,1,0,0:0:0:0:
256,192,21729,1,0,0:0:0:0:
256,192,21787,1,8,0:0:0:0:
256,192,21905,1,0,0:0:0:0:
256,192,22022,1,8,0:0:0:0:
256,192,22080,1,0,0:0:0:0:
256,192,22139,1,0,0:0:0:0:
256,192,22198,1,0,0:0:0:0:
256,192,22256,1,8,0:0:0:0:
256,192,22315,1,8,0:0:0:0:
256,192,22373,1,0,0:0:0:0:
256,192,22491,1,12,0:0:0:0:
256,192,22608,1,0,0:0:0:0:
256,192,22666,1,0,0:0:0:0:
256,192,22725,1,8,0:0:0:0:
256,192,22842,1,0,0:0:0:0:
256,192,22959,1,8,0:0:0:0:
256,192,23018,1,8,0:0:0:0:
256,192,23076,1,0,0:0:0:0:
256,192,23194,1,8,0:0:0:0:
256,192,23252,1,0,0:0:0:0:
256,192,23311,1,0,0:0:0:0:
256,192,23428,1,0,0:0:0:0:
256,192,23487,1,0,0:0:0:0:
256,192,23545,1,8,0:0:0:0:
256,192,23604,1,0,0:0:0:0:
256,192,23662,1,8,0:0:0:0:
256,192,23721,1,8,0:0:0:0:
256,192,23780,1,0,0:0:0:0:
256,192,23897,1,8,0:0:0:0:
256,192,24014,1,0,0:0:0:0:
256,192,24073,1,0,0:0:0:0:
256,192,24131,1,8,0:0:0:0:
256,192,24248,1,0,0:0:0:0:
256,192,24366,1,12,0:0:0:0:
256,192,24600,1,0,0:0:0:0:
256,192,24717,1,8,0:0:0:0:
256,192,24834,1,0,0:0:0:0:
256,192,25069,1,8,0:0:0:0:
256,192,25186,1,0,0:0:0:0:
256,192,25303,1,8,0:0:0:0:
256,192,25420,1,8,0:0:0:0:
256,192,25537,1,0,0:0:0:0:
256,192,25655,1,0,0:0:0:0:
256,192,25772,1,8,0:0:0:0:
256,192,25830,1,8,0:0:0:0:
256,192,25889,1,0,0:0:0:0:
256,192,26006,1,8,0:0:0:0:
256,192,26123,1,0,0:0:0:0:
256,192,26241,1,8,0:0:0:0:
256,192,26475,1,0,0:0:0:0:
256,192,26592,1,8,0:0:0:0:
256,192,26709,1,0,0:0:0:0:
256,192,26944,1,8,0:0:0:0:
256,192,27061,1,0,0:0:0:0:
256,192,27178,1,8,0:0:0:0:
256,192,27295,1,0,0:0:0:0:
256,192,27354,1,0,0:0:0:0:
256,192,27412,1,8,0:0:0:0:
256,192,27530,1,0,0:0:0:0:
256,192,27647,1,8,0:0:0:0:
256,192,27764,1,8,0:0:0:0:
256,192,27823,1,8,0:0:0:0:
256,192,27881,1,8,0:0:0:0:
256,192,27998,1,8,0:0:0:0:
256,192,28116,1,4,0:0:0:0:
256,192,28350,1,0,0:0:0:0:
256,192,28467,1,8,0:0:0:0:
256,192,28584,1,0,0:0:0:0:
256,192,28819,1,8,0:0:0:0:
256,192,28936,1,0,0:0:0:0:
256,192,29053,1,8,0:0:0:0:
256,192,29170,1,8,0:0:0:0:
256,192,29229,1,0,0:0:0:0:
256,192,29287,1,0,0:0:0:0:
256,192,29405,1,0,0:0:0:0:
256,192,29522,1,8,0:0:0:0:
256,192,29580,1,8,0:0:0:0:
256,192,29639,1,0,0:0:0:0:
256,192,29756,1,8,0:0:0:0:
256,192,29873,1,0,0:0:0:0:
256,192,29991,1,8,0:0:0:0:
256,192,30049,1,0,0:0:0:0:
256,192,30108,1,0,0:0:0:0:
256,192,30166,1,0,0:0:0:0:
256,192,30225,1,8,0:0:0:0:
256,192,30342,1,0,0:0:0:0:
256,192,30459,1,0,0:0:0:0:
256,192,30518,1,8,0:0:0:0:
256,192,30576,1,8,0:0:0:0:
256,192,30635,1,8,0:0:0:0:
256,192,30694,1,0,0:0:0:0:
256,192,30811,1,8,0:0:0:0:
256,192,30928,1,4,0:0:0:0:
256,192,31045,1,12,0:0:0:0:
256,192,31280,1,12,0:0:0:0:
256,192,31397,1,12,0:0:0:0:
256,192,31631,1,0,0:0:0:0:
256,192,31866,1,4,0:0:0:0:
256,192,32100,1,0,0:0:0:0:
256,192,32217,1,0,0:0:0:0:
256,192,32334,1,8,0:0:0:0:
256,192,32569,1,0,0:0:0:0:
256,192,32803,1,8,0:0:0:0:
256,192,32920,1,0,0:0:0:0:
256,192,33155,1,0,0:0:0:0:
256,192,33272,1,8,0:0:0:0:
256,192,33506,1,0,0:0:0:0:
256,192,33741,1,8,0:0:0:0:
256,192,33975,1,0,0:0:0:0:
256,192,34092,1,0,0:0:0:0:
256,192,34209,1,8,0:0:0:0:
256,192,34444,1,0,0:0:0:0:
256,192,34678,1,8,0:0:0:0:
256,192,34912,1,0,0:0:0:0:
256,192,35030,1,8,0:0:0:0:
256,192,35147,1,0,0:0:0:0:
256,192,35381,1,0,0:0:0:0:
256,192,35616,1,12,0:0:0:0:
256,192,35850,1,0,0:0:0:0:
256,192,35967,1,0,0:0:0:0:
256,192,36084,1,8,0:0:0:0:
256,192,36319,1,0,0:0:0:0:
256,192,36553,1,8,0:0:0:0:
256,192,36670,1,8,0:0:0:0:
256,192,36787,1,0,0:0:0:0:
256,192,36905,1,8,0:0:0:0:
256,192,37139,1,8,0:0:0:0:
256,192,37256,1,0,0:0:0:0:
256,192,37491,1,12,0:0:0:0:
256,192,37725,1,0,0:0:0:0:
256,192,37842,1,0,0:0:0:0:
256,192,37959,1,8,0:0:0:0:
256,192,38194,1,0,0:0:0:0:
256,192,38428,1,8,0:0:0:0:
256,192,38545,1,8,0:0:0:0:
256,192,38662,1,0,0:0:0:0:
256,192,38780,1,8,0:0:0:0:
256,192,39014,1,8,0:0:0:0:
256,192,39131,1,8,0:0:0:0:
256,192,39248,1,8,0:0:0:0:
256,192,39366,1,4,0:0:0:0:
256,192,39599,1,0,0:0:0:0:
256,192,39717,1,0,0:0:0:0:
256,192,39834,1,8,0:0:0:0:
256,192,40069,1,0,0:0:0:0:
256,192,40303,1,8,0:0:0:0:
256,192,40420,1,8,0:0:0:0:
256,192,40537,1,0,0:0:0:0:
256,192,40655,1,0,0:0:0:0:
256,192,40772,1,8,0:0:0:0:
256,192,41006,1,0,0:0:0:0:
256,192,41241,1,8,0:0:0:0:
256,192,41475,1,0,0:0:0:0:
256,192,41592,1,0,0:0:0:0:
256,192,41709,1,8,0:0:0:0:
256,192,41944,1,0,0:0:0:0:
256,192,42178,1,8,0:0:0:0:
256,192,42295,1,8,0:0:0:0:
256,192,42412,1,0,0:0:0:0:
256,192,42530,1,8,0:0:0:0:
256,192,42647,1,0,0:0:0:0:
256,192,42881,1,0,0:0:0:0:
256,192,43116,1,12,0:0:0:0:
256,192,43350,1,8,0:0:0:0:
256,192,43584,1,4,0:0:0:0:
256,192,43819,1,8,0:0:0:0:
256,192,44053,1,0,0:0:0:0:
256,192,44112,1,0,0:0:0:0:
256,192,44170,1,8,0:0:0:0:
256,192,44287,1,8,0:0:0:0:
256,192,44405,1,8,0:0:0:0:
256,192,44522,1,0,0:0:0:0:
256,192,44756,1,0,0:0:0:0:
256,192,44991,1,12,0:0:0:0:
256,192,45108,1,8,0:0:0:0:
256,192,45225,1,0,0:0:0:0:
256,192,45342,1,8,0:0:0:0:
256,192,45459,1,0,0:0:0:0:
256,192,45576,1,8,0:0:0:0:
256,192,45811,1,8,0:0:0:0:
256,192,45928,1,0,0:0:0:0:
256,192,45987,1,0,0:0:0:0:
256,192,46045,1,0,0:0:0:0:
256,192,46162,1,8,0:0:0:0:
256,192,46280,1,0,0:0:0:0:
256,192,46397,1,8,0:0:0:0:
256,192,46553,1,8,0:0:0:0:
256,192,46709,1,8,0:0:0:0:
256,192,46866,1,4,0:0:0:0:
256,192,47100,1,0,0:0:0:0:
256,192,47217,1,0,0:0:0:0:
256,192,47334,1,8,0:0:0:0:
256,192,47569,1,0,0:0:0:0:
256,192,47803,1,8,0:0:0:0:
256,192,48037,1,0,0:0:0:0:
256,192,48155,1,8,0:0:0:0:
256,192,48272,1,8,0:0:0:0:
256,192,48506,1,0,0:0:0:0:
256,192,48741,1,8,0:0:0:0:
256,192,48975,1,8,0:0:0:0:
256,192,49092,1,8,0:0:0:0:
256,192,49209,1,8,0:0:0:0:
256,192,49444,1,0,0:0:0:0:
256,192,49678,1,8,0:0:0:0:
256,192,49912,1,8,0:0:0:0:
256,192,50030,1,0,0:0:0:0:
256,192,50147,1,8,0:0:0:0:
256,192,50616,1,0,0:0:0:0:
256,192,50850,1,0,0:0:0:0:
256,192,50967,1,0,0:0:0:0:
256,192,51084,1,8,0:0:0:0:
256,192,51319,1,0,0:0:0:0:
256,192,51553,1,8,0:0:0:0:
256,192,51670,1,0,0:0:0:0:
256,192,51787,1,8,0:0:0:0:
256,192,51905,1,0,0:0:0:0:
256,192,52022,1,8,0:0:0:0:
256,192,52080,1,0,0:0:0:0:
256,192,52139,1,0,0:0:0:0:
256,192,52256,1,8,0:0:0:0:
256,192,52373,1,8,0:0:0:0:
256,192,52491,1,0,0:0:0:0:
256,192,52725,1,0,0:0:0:0:
256,192,52842,1,0,0:0:0:0:
256,192,52959,1,8,0:0:0:0:
256,192,53194,1,0,0:0:0:0:
256,192,53428,1,8,0:0:0:0:
256,192,53545,1,0,0:0:0:0:
256,192,53662,1,0,0:0:0:0:
256,192,53780,1,0,0:0:0:0:
256,192,53897,1,8,0:0:0:0:
256,192,53955,1,8,0:0:0:0:
256,192,54014,1,8,0:0:0:0:
256,192,54131,1,8,0:0:0:0:
256,192,54248,1,8,0:0:0:0:
256,192,54366,1,4,0:0:0:0:
256,192,54600,1,0,0:0:0:0:
256,192,54717,1,0,0:0:0:0:
256,192,54834,1,8,0:0:0:0:
256,192,55069,1,8,0:0:0:0:
256,192,55186,1,0,0:0:0:0:
256,192,55303,1,0,0:0:0:0:
256,192,55537,1,0,0:0:0:0:
256,192,55655,1,0,0:0:0:0:
256,192,55772,1,8,0:0:0:0:
256,192,56006,1,8,0:0:0:0:
256,192,56123,1,8,0:0:0:0:
256,192,56241,1,0,0:0:0:0:
256,192,56475,1,8,0:0:0:0:
256,192,56592,1,0,0:0:0:0:
256,192,56709,1,8,0:0:0:0:
256,192,56944,1,0,0:0:0:0:
256,192,57061,1,8,0:0:0:0:
256,192,57178,1,0,0:0:0:0:
256,192,57412,1,8,0:0:0:0:
256,192,57530,1,8,0:0:0:0:
256,192,57647,1,0,0:0:0:0:
256,192,57881,1,0,0:0:0:0:
256,192,57998,1,8,0:0:0:0:
256,192,58116,1,8,0:0:0:0:
256,192,58350,1,0,0:0:0:0:
256,192,58584,1,8,0:0:0:0:
256,192,58701,1,0,0:0:0:0:
256,192,58819,1,8,0:0:0:0:
256,192,58936,1,0,0:0:0:0:
256,192,59053,1,8,0:0:0:0:
256,192,59112,1,8,0:0:0:0:
256,192,59170,1,8,0:0:0:0:
256,192,59287,1,8,0:0:0:0:
256,192,59404,1,8,0:0:0:0:
256,192,59522,1,0,0:0:0:0:
256,192,59580,1,0,0:0:0:0:
256,192,59639,1,0,0:0:0:0:
256,192,59756,1,0,0:0:0:0:
256,192,59873,1,0,0:0:0:0:
256,192,59991,1,12,0:0:0:0:
256,192,60225,1,0,0:0:0:0:
256,192,60459,1,12,0:0:0:0:
256,192,60694,1,0,0:0:0:0:
256,192,60928,1,4,0:0:0:0:
256,192,61045,1,0,0:0:0:0:
256,192,61162,1,8,0:0:0:0:
256,192,61280,1,0,0:0:0:0:
256,192,61397,1,8,0:0:0:0:
256,192,61455,1,8,0:0:0:0:
256,192,61514,1,8,0:0:0:0:
256,192,61631,1,8,0:0:0:0:
256,192,61748,1,8,0:0:0:0:
256,192,61866,1,4,0:0:0:0:
256,192,62100,1,8,0:0:0:0:
256,192,62334,1,0,0:0:0:0:
256,192,62803,1,4,0:0:0:0:
256,192,63155,1,8,0:0:0:0:
256,192,63741,1,0,0:0:0:0:
256,192,63858,1,0,0:0:0:0:
256,192,63975,1,8,0:0:0:0:
256,192,64092,1,8,0:0:0:0:
256,192,64209,1,0,0:0:0:0:
256,192,64326,1,8,0:0:0:0:
256,192,64561,1,4,0:0:0:0:
256,192,64795,1,0,0:0:0:0:
256,192,64912,1,8,0:0:0:0:
256,192,65030,1,0,0:0:0:0:
256,192,65147,1,0,0:0:0:0:
256,192,65205,1,0,0:0:0:0:
256,192,65303,1,0,0:0:0:0:
256,192,65459,1,0,0:0:0:0:
256,192,65616,1,12,0:0:0:0:
256,192,66084,1,12,0:0:0:0:
256,192,66553,1,12,0:0:0:0:
256,192,66787,1,4,0:0:0:0:
256,192,66905,1,0,0:0:0:0:
256,192,67022,1,12,0:0:0:0:
256,192,67139,1,0,0:0:0:0:
256,192,67256,1,0,0:0:0:0:
256,192,67315,1,0,0:0:0:0:
256,192,67373,1,0,0:0:0:0:
256,192,67491,1,12,0:0:0:0:
256,192,67608,1,0,0:0:0:0:
256,192,67666,1,0,0:0:0:0:
256,192,67725,1,8,0:0:0:0:
256,192,67842,1,0,0:0:0:0:
256,192,67959,1,8,0:0:0:0:
256,192,68018,1,8,0:0:0:0:
256,192,68076,1,0,0:0:0:0:
256,192,68194,1,8,0:0:0:0:
256,192,68311,1,0,0:0:0:0:
256,192,68369,1,0,0:0:0:0:
256,192,68428,1,8,0:0:0:0:
256,192,68545,1,0,0:0:0:0:
256,192,68662,1,8,0:0:0:0:
256,192,68780,1,0,0:0:0:0:
256,192,68897,1,8,0:0:0:0:
256,192,68955,1,8,0:0:0:0:
256,192,69014,1,0,0:0:0:0:
256,192,69073,1,0,0:0:0:0:
256,192,69131,1,8,0:0:0:0:
256,192,69190,1,8,0:0:0:0:
256,192,69248,1,0,0:0:0:0:
256,192,69366,1,12,0:0:0:0:
256,192,69483,1,0,0:0:0:0:
256,192,69541,1,0,0:0:0:0:
256,192,69600,1,8,0:0:0:0:
256,192,69717,1,0,0:0:0:0:
256,192,69834,1,8,0:0:0:0:
256,192,70069,1,0,0:0:0:0:
256,192,70127,1,0,0:0:0:0:
256,192,70186,1,8,0:0:0:0:
256,192,70303,1,0,0:0:0:0:
256,192,70420,1,8,0:0:0:0:
256,192,70479,1,0,0:0:0:0:
256,192,70537,1,8,0:0:0:0:
256,192,70655,1,0,0:0:0:0:
256,192,70772,1,8,0:0:0:0:
256,192,70830,1,8,0:0:0:0:
256,192,70889,1,0,0:0:0:0:
256,192,71006,1,8,0:0:0:0:
256,192,71123,1,0,0:0:0:0:
256,192,71241,1,4,0:0:0:0:
256,192,71358,1,0,0:0:0:0:
256,192,71416,1,0,0:0:0:0:
256,192,71475,1,8,0:0:0:0:
256,192,71592,1,8,0:0:0:0:
256,192,71651,1,0,0:0:0:0:
256,192,71709,1,8,0:0:0:0:
256,192,71826,1,0,0:0:0:0:
256,192,71944,1,8,0:0:0:0:
256,192,72002,1,8,0:0:0:0:
256,192,72061,1,0,0:0:0:0:
256,192,72178,1,8,0:0:0:0:
256,192,72295,1,0,0:0:0:0:
256,192,72354,1,0,0:0:0:0:
256,192,72412,1,8,0:0:0:0:
256,192,72530,1,0,0:0:0:0:
256,192,72647,1,8,0:0:0:0:
256,192,72705,1,0,0:0:0:0:
256,192,72764,1,0,0:0:0:0:
256,192,72823,1,8,0:0:0:0:
256,192,72881,1,8,0:0:0:0:
256,192,72940,1,0,0:0:0:0:
256,192,72998,1,8,0:0:0:0:
256,192,73116,1,12,0:0:0:0:
256,192,73233,1,0,0:0:0:0:
256,192,73291,1,0,0:0:0:0:
256,192,73350,1,8,0:0:0:0:
256,192,73428,1,8,0:0:0:0:
256,192,73506,1,0,0:0:0:0:
256,192,73584,1,12,0:0:0:0:
256,192,73701,1,0,0:0:0:0:
256,192,73760,1,0,0:0:0:0:
256,192,73819,1,8,0:0:0:0:
256,192,73897,1,0,0:0:0:0:
256,192,73975,1,0,0:0:0:0:
256,192,74053,1,12,0:0:0:0:
256,192,74170,1,0,0:0:0:0:
256,192,74229,1,0,0:0:0:0:
256,192,74287,1,8,0:0:0:0:
256,192,74366,1,8,0:0:0:0:
256,192,74444,1,0,0:0:0:0:
256,192,74522,1,8,0:0:0:0:
256,192,74580,1,8,0:0:0:0:
256,192,74639,1,0,0:0:0:0:
256,192,74698,1,0,0:0:0:0:
256,192,74756,1,0,0:0:0:0:
256,192,74873,1,0,0:0:0:0:
256,192,74991,1,12,0:0:0:0:
256,192,75108,1,0,0:0:0:0:
256,192,75166,1,0,0:0:0:0:
256,192,75225,1,8,0:0:0:0:
256,192,75342,1,0,0:0:0:0:
256,192,75459,1,8,0:0:0:0:
256,192,75694,1,8,0:0:0:0:
256,192,75811,1,0,0:0:0:0:
256,192,75869,1,0,0:0:0:0:
256,192,75928,1,8,0:0:0:0:
256,192,76045,1,8,0:0:0:0:
256,192,76104,1,0,0:0:0:0:
256,192,76162,1,0,0:0:0:0:
256,192,76280,1,8,0:0:0:0:
256,192,76397,1,0,0:0:0:0:
256,192,76455,1,0,0:0:0:0:
256,192,76514,1,8,0:0:0:0:
256,192,76573,1,0,0:0:0:0:
256,192,76631,1,8,0:0:0:0:
256,192,76690,1,8,0:0:0:0:
256,192,76748,1,0,0:0:0:0:
256,192,76866,1,12,0:0:0:0:
256,192,76983,1,0,0:0:0:0:
256,192,77041,1,0,0:0:0:0:
256,192,77100,1,8,0:0:0:0:
256,192,77217,1,0,0:0:0:0:
256,192,77334,1,8,0:0:0:0:
256,192,77569,1,0,0:0:0:0:
256,192,77627,1,0,0:0:0:0:
256,192,77686,1,8,0:0:0:0:
256,192,77803,1,8,0:0:0:0:
256,192,77920,1,8,0:0:0:0:
256,192,77979,1,0,0:0:0:0:
256,192,78037,1,8,0:0:0:0:
256,192,78155,1,0,0:0:0:0:
256,192,78272,1,8,0:0:0:0:
256,192,78330,1,8,0:0:0:0:
256,192,78389,1,0,0:0:0:0:
256,192,78447,1,0,0:0:0:0:
256,192,78506,1,8,0:0:0:0:
256,192,78623,1,0,0:0:0:0:
256,192,78741,1,4,0:0:0:0:
256,192,78858,1,0,0:0:0:0:
256,192,78916,1,0,0:0:0:0:
256,192,78975,1,8,0:0:0:0:
256,192,79092,1,0,0:0:0:0:
256,192,79209,1,8,0:0:0:0:
256,192,79268,1,8,0:0:0:0:
256,192,79326,1,0,0:0:0:0:
256,192,79444,1,8,0:0:0:0:
256,192,79561,1,0,0:0:0:0:
256,192,79678,1,8,0:0:0:0:
256,192,79737,1,0,0:0:0:0:
256,192,79795,1,0,0:0:0:0:
256,192,79854,1,8,0:0:0:0:
256,192,79912,1,8,0:0:0:0:
256,192,80030,1,0,0:0:0:0:
256,192,80147,1,8,0:0:0:0:
256,192,80205,1,8,0:0:0:0:
256,192,80264,1,0,0:0:0:0:
256,192,80323,1,0,0:0:0:0:
256,192,80381,1,8,0:0:0:0:
256,192,80498,1,0,0:0:0:0:
256,192,80616,1,12,0:0:0:0:
256,192,80733,1,0,0:0:0:0:
256,192,80791,1,0,0:0:0:0:
256,192,80850,1,8,0:0:0:0:
256,192,80967,1,0,0:0:0:0:
256,192,81084,1,8,0:0:0:0:
256,192,81143,1,0,0:0:0:0:
256,192,81201,1,0,0:0:0:0:
256,192,81260,1,8,0:0:0:0:
256,192,81319,1,8,0:0:0:0:
256,192,81377,1,0,0:0:0:0:
256,192,81436,1,0,0:0:0:0:
256,192,81494,1,0,0:0:0:0:
256,192,81553,1,8,0:0:0:0:
256,192,81670,1,8,0:0:0:0:
256,192,81729,1,0,0:0:0:0:
256,192,81787,1,8,0:0:0:0:
256,192,81846,1,8,0:0:0:0:
256,192,81905,1,8,0:0:0:0:
256,192,81963,1,0,0:0:0:0:
256,192,82022,1,8,0:0:0:0:
256,192,82080,1,0,0:0:0:0:
256,192,82139,1,0,0:0:0:0:
256,192,82198,1,0,0:0:0:0:
256,192,82256,1,8,0:0:0:0:
256,192,82373,1,0,0:0:0:0:
256,192,82491,1,12,0:0:0:0:
256,192,82608,1,0,0:0:0:0:
256,192,82666,1,0,0:0:0:0:
256,192,82725,1,8,0:0:0:0:
256,192,82842,1,0,0:0:0:0:
256,192,82959,1,8,0:0:0:0:
256,192,83018,1,8,0:0:0:0:
256,192,83076,1,0,0:0:0:0:
256,192,83194,1,8,0:0:0:0:
256,192,83311,1,0,0:0:0:0:
256,192,83369,1,0,0:0:0:0:
256,192,83428,1,8,0:0:0:0:
256,192,83545,1,0,0:0:0:0:
256,192,83662,1,8,0:0:0:0:
256,192,83780,1,0,0:0:0:0:
256,192,83897,1,8,0:0:0:0:
256,192,83955,1,8,0:0:0:0:
256,192,84014,1,0,0:0:0:0:
256,192,84073,1,0,0:0:0:0:
256,192,84131,1,8,0:0:0:0:
256,192,84190,1,8,0:0:0:0:
256,192,84248,1,0,0:0:0:0:
256,192,84366,1,12,0:0:0:0:
256,192,84483,1,0,0:0:0:0:
256,192,84541,1,0,0:0:0:0:
256,192,84600,1,8,0:0:0:0:
256,192,84717,1,0,0:0:0:0:
256,192,84834,1,8,0:0:0:0:
256,192,84893,1,8,0:0:0:0:
256,192,84951,1,0,0:0:0:0:
256,192,85069,1,0,0:0:0:0:
256,192,85127,1,0,0:0:0:0:
256,192,85186,1,8,0:0:0:0:
256,192,85303,1,0,0:0:0:0:
256,192,85420,1,8,0:0:0:0:
256,192,85479,1,0,0:0:0:0:
256,192,85537,1,8,0:0:0:0:
256,192,85655,1,0,0:0:0:0:
256,192,85772,1,8,0:0:0:0:
256,192,85830,1,8,0:0:0:0:
256,192,85889,1,0,0:0:0:0:
256,192,85948,1,0,0:0:0:0:
256,192,86006,1,8,0:0:0:0:
256,192,86123,1,0,0:0:0:0:
256,192,86241,1,4,0:0:0:0:
256,192,86358,1,0,0:0:0:0:
256,192,86416,1,0,0:0:0:0:
256,192,86475,1,8,0:0:0:0:
256,192,86592,1,8,0:0:0:0:
256,192,86651,1,0,0:0:0:0:
256,192,86709,1,8,0:0:0:0:
256,192,86826,1,0,0:0:0:0:
256,192,86944,1,8,0:0:0:0:
256,192,87002,1,8,0:0:0:0:
256,192,87061,1,0,0:0:0:0:
256,192,87178,1,8,0:0:0:0:
256,192,87295,1,0,0:0:0:0:
256,192,87354,1,0,0:0:0:0:
256,192,87412,1,8,0:0:0:0:
256,192,87530,1,0,0:0:0:0:
256,192,87647,1,8,0:0:0:0:
256,192,87705,1,0,0:0:0:0:
256,192,87764,1,0,0:0:0:0:
256,192,87823,1,8,0:0:0:0:
256,192,87881,1,8,0:0:0:0:
256,192,87940,1,0,0:0:0:0:
256,192,87998,1,8,0:0:0:0:
256,192,88116,1,12,0:0:0:0:
256,192,88233,1,0,0:0:0:0:
256,192,88291,1,0,0:0:0:0:
256,192,88350,1,8,0:0:0:0:
256,192,88428,1,8,0:0:0:0:
256,192,88506,1,0,0:0:0:0:
256,192,88584,1,12,0:0:0:0:
256,192,88701,1,0,0:0:0:0:
256,192,88760,1,0,0:0:0:0:
256,192,88819,1,8,0:0:0:0:
256,192,88897,1,8,0:0:0:0:
256,192,88975,1,0,0:0:0:0:
256,192,89053,1,8,0:0:0:0:
256,192,89112,1,8,0:0:0:0:
256,192,89170,1,0,0:0:0:0:
256,192,89229,1,0,0:0:0:0:
256,192,89287,1,8,0:0:0:0:
256,192,89366,1,8,0:0:0:0:
256,192,89444,1,0,0:0:0:0:
256,192,89522,1,8,0:0:0:0:
256,192,89580,1,8,0:0:0:0:
256,192,89639,1,8,0:0:0:0:
256,192,89698,1,0,0:0:0:0:
256,192,89756,1,0,0:0:0:0:
256,192,89873,1,0,0:0:0:0:
256,192,89991,1,12,0:0:0:0:
256,192,90108,1,0,0:0:0:0:
256,192,90166,1,0,0:0:0:0:
256,192,90225,1,8,0:0:0:0:
256,192,90342,1,0,0:0:0:0:
256,192,90459,1,8,0:0:0:0:
256,192,90518,1,8,0:0:0:0:
256,192,90576,1,0,0:0:0:0:
256,192,90694,1,8,0:0:0:0:
256,192,90811,1,0,0:0:0:0:
256,192,90869,1,8,0:0:0:0:
256,192,90928,1,8,0:0:0:0:
256,192,90987,1,0,0:0:0:0:
256,192,91045,1,8,0:0:0:0:
256,192,91104,1,8,0:0:0:0:
256,192,91162,1,0,0:0:0:0:
256,192,91280,1,8,0:0:0:0:
256,192,91397,1,0,0:0:0:0:
256,192,91455,1,0,0:0:0:0:
256,192,91514,1,8,0:0:0:0:
256,192,91573,1,0,0:0:0:0:
256,192,91631,1,8,0:0:0:0:
256,192,91690,1,8,0:0:0:0:
256,192,91748,1,0,0:0:0:0:
256,192,91866,1,12,0:0:0:0:
256,192,91983,1,0,0:0:0:0:
256,192,92041,1,0,0:0:0:0:
256,192,92100,1,8,0:0:0:0:
256,192,92217,1,0,0:0:0:0:
256,192,92334,1,8,0:0:0:0:
256,192,92393,1,8,0:0:0:0:
256,192,92451,1,0,0:0:0:0:
256,192,92569,1,0,0:0:0:0:
256,192,92627,1,0,0:0:0:0:
256,192,92686,1,8,0:0:0:0:
256,192,92744,1,0,0:0:0:0:
256,192,92803,1,8,0:0:0:0:
256,192,92920,1,0,0:0:0:0:
256,192,93037,1,8,0:0:0:0:
256,192,93096,1,8,0:0:0:0:
256,192,93155,1,0,0:0:0:0:
256,192,93213,1,0,0:0:0:0:
256,192,93272,1,8,0:0:0:0:
256,192,93330,1,8,0:0:0:0:
256,192,93389,1,0,0:0:0:0:
256,192,93447,1,0,0:0:0:0:
256,192,93506,1,8,0:0:0:0:
256,192,93565,1,8,0:0:0:0:
256,192,93623,1,8,0:0:0:0:
256,192,93741,1,4,0:0:0:0:
256,192,93975,1,8,0:0:0:0:
256,192,94209,1,0,0:0:0:0:
256,192,94678,1,4,0:0:0:0:
256,192,94795,1,4,0:0:0:0:
256,192,94912,1,4,0:0:0:0:
256,192,95030,1,12,0:0:0:0:
256,192,95616,1,4,0:0:0:0:
256,192,95733,1,0,0:0:0:0:
256,192,95791,1,0,0:0:0:0:
256,192,95850,1,8,0:0:0:0:
256,192,95967,1,0,0:0:0:0:
256,192,96084,1,8,0:0:0:0:
256,192,96201,1,0,0:0:0:0:
256,192,96260,1,8,0:0:0:0:
256,192,96319,1,0,0:0:0:0:
256,192,96436,1,8,0:0:0:0:
256,192,96553,1,0,0:0:0:0:
256,192,96670,1,8,0:0:0:0:
256,192,96729,1,0,0:0:0:0:
256,192,96787,1,8,0:0:0:0:
256,192,96905,1,0,0:0:0:0:
256,192,97022,1,8,0:0:0:0:
256,192,97139,1,8,0:0:0:0:
256,192,97198,1,8,0:0:0:0:
256,192,97256,1,8,0:0:0:0:
256,192,97315,1,8,0:0:0:0:
256,192,97373,1,8,0:0:0:0:
256,192,97491,1,4,0:0:0:0:
256,192,97725,1,8,0:0:0:0:
256,192,97959,1,0,0:0:0:0:
256,192,98428,1,4,0:0:0:0:
256,192,98545,1,4,0:0:0:0:
256,192,98662,1,4,0:0:0:0:
256,192,98780,1,12,0:0:0:0:
256,192,99365,1,0,0:0:0:0:
256,192,99600,1,0,0:0:0:0:
256,192,99834,1,8,0:0:0:0:
256,192,100069,1,8,0:0:0:0:
256,192,100186,1,8,0:0:0:0:
