osu file format v14

[General]
AudioFilename: audio_1.2.mp3
AudioLeadIn: 0
PreviewTime: 24175
Countdown: 0
SampleSet: Normal
StackLeniency: 0.7
Mode: 3
LetterboxInBreaks: 0
SpecialStyle: 0
WidescreenStoryboard: 0

[Editor]
DistanceSpacing: 0.8
BeatDivisor: 12
GridSize: 32
TimelineZoom: 2.4

[Metadata]
Title:WHITE ALBUM
TitleUnicode:WHITE ALBUM
Artist:Ogiso Setsuna (CV:Madoka Yonezawa)
ArtistUnicode:小木曽雪菜 (CV:米澤円 )
Creator:PORTTAYER
Version:Jack winter x1.2
Source:WHITE ALBUM2
Tags:japanese j-pop jacks mix longjack chordjack
BeatmapID:3949060
BeatmapSetID:1914237

[Difficulty]
HPDrainRate:8.5
CircleSize:4
OverallDifficulty:8.5
ApproachRate:5
SliderMultiplier:1.4
SliderTickRate:1

[Events]
//Background and Video events
0,0,"[][98TY}WI7N7(FEM[Z_WSI.png",0,0
//Break Periods
//Storyboard Layer 0 (Background)
//Storyboard Layer 1 (Fail)
//Storyboard Layer 2 (Pass)
//Storyboard Layer 3 (Foreground)
//Storyboard Layer 4 (Overlay)
//Storyboard Sound Samples

[TimingPoints]
426,500,4,1,0,50,1,0

[HitObjects]
64,192,425,5,0,0:0:0:0:
448,192,425,1,0,0:0:0:0:
320,192,675,1,0,0:0:0:0:
192,192,925,1,0,0:0:0:0:
448,192,1175,1,0,0:0:0:0:
320,192,1925,1,0,0:0:0:0:
448,192,2425,1,0,0:0:0:0:
192,192,2425,1,0,0:0:0:0:
320,192,3175,1,0,0:0:0:0:
64,192,3175,1,0,0:0:0:0:
192,192,4175,1,0,0:0:0:0:
64,192,4425,1,0,0:0:0:0:
320,192,4675,1,0,0:0:0:0:
192,192,4925,1,0,0:0:0:0:
448,192,5175,1,0,0:0:0:0:
320,192,5675,1,0,0:0:0:0:
192,192,6175,1,0,0:0:0:0:
64,192,6425,1,0,0:0:0:0:
448,192,6425,1,0,0:0:0:0:
192,192,6800,1,0,0:0:0:0:
320,192,6800,1,0,0:0:0:0:
192,192,7175,1,0,0:0:0:0:
448,192,7175,1,0,0:0:0:0:
64,192,7425,1,0,0:0:0:0:
192,192,7467,1,0,0:0:0:0:
320,192,7509,1,0,0:0:0:0:
448,192,7550,1,0,0:0:0:0:
192,192,7592,1,0,0:0:0:0:
64,192,7634,1,0,0:0:0:0:
448,192,7675,1,0,0:0:0:0:
320,192,7717,1,0,0:0:0:0:
64,192,7759,1,0,0:0:0:0:
192,192,7800,1,0,0:0:0:0:
448,192,7842,1,0,0:0:0:0:
320,192,7884,1,0,0:0:0:0:
192,192,7925,1,0,0:0:0:0:
64,192,7967,1,0,0:0:0:0:
320,192,8009,1,0,0:0:0:0:
192,192,8050,1,0,0:0:0:0:
448,192,8092,1,0,0:0:0:0:
320,192,8134,1,0,0:0:0:0:
192,192,8175,1,0,0:0:0:0:
64,192,8175,1,0,0:0:0:0:
320,192,8300,1,0,0:0:0:0:
192,192,8300,1,0,0:0:0:0:
64,192,8425,1,0,0:0:0:0:
192,192,8425,1,0,0:0:0:0:
448,192,8425,1,0,0:0:0:0:
320,192,8550,1,0,0:0:0:0:
64,192,8550,1,0,0:0:0:0:
192,192,8675,1,0,0:0:0:0:
320,192,8675,1,0,0:0:0:0:
448,192,8675,1,0,0:0:0:0:
192,192,8800,1,0,0:0:0:0:
448,192,8800,1,0,0:0:0:0:
320,192,8925,1,0,0:0:0:0:
192,192,8925,1,0,0:0:0:0:
64,192,8925,1,0,0:0:0:0:
448,192,8925,1,0,0:0:0:0:
64,192,9050,1,0,0:0:0:0:
192,192,9050,1,0,0:0:0:0:
64,192,9175,1,0,0:0:0:0:
448,192,9175,1,0,0:0:0:0:
320,192,9175,1,0,0:0:0:0:
320,192,9300,1,0,0:0:0:0:
448,192,9300,1,0,0:0:0:0:
320,192,9425,1,0,0:0:0:0:
192,192,9425,1,0,0:0:0:0:
192,192,9550,1,0,0:0:0:0:
64,192,9550,1,0,0:0:0:0:
448,192,9675,1,0,0:0:0:0:
192,192,9675,1,0,0:0:0:0:
64,192,9675,1,0,0:0:0:0:
320,192,9800,1,0,0:0:0:0:
448,192,9800,1,0,0:0:0:0:
64,192,9925,1,0,0:0:0:0:
192,192,9925,1,0,0:0:0:0:
320,192,9925,1,0,0:0:0:0:
448,192,9925,1,0,0:0:0:0:
320,192,10050,1,0,0:0:0:0:
64,192,10050,1,0,0:0:0:0:
192,192,10175,1,0,0:0:0:0:
448,192,10175,1,0,0:0:0:0:
320,192,10175,1,0,0:0:0:0:
192,192,10300,1,0,0:0:0:0:
64,192,10300,1,0,0:0:0:0:
64,192,10425,1,0,0:0:0:0:
320,192,10425,1,0,0:0:0:0:
448,192,10425,1,0,0:0:0:0:
192,192,10550,1,0,0:0:0:0:
320,192,10550,1,0,0:0:0:0:
64,192,10675,1,0,0:0:0:0:
448,192,10675,1,0,0:0:0:0:
64,192,10800,1,0,0:0:0:0:
192,192,10800,1,0,0:0:0:0:
320,192,10800,1,0,0:0:0:0:
64,192,10925,1,0,0:0:0:0:
192,192,10925,1,0,0:0:0:0:
320,192,10925,1,0,0:0:0:0:
448,192,10925,1,0,0:0:0:0:
192,192,11050,1,0,0:0:0:0:
448,192,11050,1,0,0:0:0:0:
320,192,11175,1,0,0:0:0:0:
448,192,11175,1,0,0:0:0:0:
64,192,11175,1,0,0:0:0:0:
320,192,11300,1,0,0:0:0:0:
192,192,11300,1,0,0:0:0:0:
64,192,11425,1,0,0:0:0:0:
192,192,11425,1,0,0:0:0:0:
64,192,11550,1,0,0:0:0:0:
320,192,11550,1,0,0:0:0:0:
320,192,11675,1,0,0:0:0:0:
448,192,11675,1,0,0:0:0:0:
64,192,11800,1,0,0:0:0:0:
448,192,11800,1,0,0:0:0:0:
64,192,11925,1,0,0:0:0:0:
192,192,11925,1,0,0:0:0:0:
320,192,11925,1,0,0:0:0:0:
448,192,11925,1,0,0:0:0:0:
192,192,12050,1,0,0:0:0:0:
320,192,12050,1,0,0:0:0:0:
192,192,12175,1,0,0:0:0:0:
64,192,12175,1,0,0:0:0:0:
448,192,12175,1,0,0:0:0:0:
64,192,12300,1,0,0:0:0:0:
320,192,12300,1,0,0:0:0:0:
192,192,12425,1,0,0:0:0:0:
448,192,12425,1,0,0:0:0:0:
320,192,12425,1,0,0:0:0:0:
192,192,12550,1,0,0:0:0:0:
448,192,12550,1,0,0:0:0:0:
320,192,12675,1,0,0:0:0:0:
64,192,12675,1,0,0:0:0:0:
448,192,12675,1,0,0:0:0:0:
192,192,12800,1,0,0:0:0:0:
64,192,12800,1,0,0:0:0:0:
64,192,12925,1,0,0:0:0:0:
192,192,12925,1,0,0:0:0:0:
320,192,12925,1,0,0:0:0:0:
448,192,12925,1,0,0:0:0:0:
448,192,13050,1,0,0:0:0:0:
320,192,13050,1,0,0:0:0:0:
64,192,13175,1,0,0:0:0:0:
320,192,13175,1,0,0:0:0:0:
192,192,13175,1,0,0:0:0:0:
192,192,13300,1,0,0:0:0:0:
448,192,13300,1,0,0:0:0:0:
192,192,13425,1,0,0:0:0:0:
64,192,13425,1,0,0:0:0:0:
320,192,13550,1,0,0:0:0:0:
448,192,13550,1,0,0:0:0:0:
64,192,13675,1,0,0:0:0:0:
192,192,13675,1,0,0:0:0:0:
448,192,13675,1,0,0:0:0:0:
320,192,13800,1,0,0:0:0:0:
448,192,13800,1,0,0:0:0:0:
448,192,13925,1,0,0:0:0:0:
320,192,13925,1,0,0:0:0:0:
192,192,13925,1,0,0:0:0:0:
64,192,13925,1,0,0:0:0:0:
320,192,14050,1,0,0:0:0:0:
192,192,14050,1,0,0:0:0:0:
64,192,14175,1,0,0:0:0:0:
448,192,14175,1,0,0:0:0:0:
192,192,14175,1,0,0:0:0:0:
64,192,14300,1,0,0:0:0:0:
448,192,14300,1,0,0:0:0:0:
64,192,14425,1,0,0:0:0:0:
192,192,14425,1,0,0:0:0:0:
320,192,14425,1,0,0:0:0:0:
192,192,14550,1,0,0:0:0:0:
320,192,14550,1,0,0:0:0:0:
64,192,14675,1,0,0:0:0:0:
448,192,14675,1,0,0:0:0:0:
192,192,14800,1,0,0:0:0:0:
320,192,14800,1,0,0:0:0:0:
448,192,14800,1,0,0:0:0:0:
64,192,14925,1,0,0:0:0:0:
320,192,14925,1,0,0:0:0:0:
192,192,14925,1,0,0:0:0:0:
448,192,14925,1,0,0:0:0:0:
192,192,15050,1,0,0:0:0:0:
64,192,15050,1,0,0:0:0:0:
64,192,15175,1,0,0:0:0:0:
448,192,15175,1,0,0:0:0:0:
320,192,15175,1,0,0:0:0:0:
192,192,15300,1,0,0:0:0:0:
448,192,15300,1,0,0:0:0:0:
320,192,15425,1,0,0:0:0:0:
192,192,15425,1,0,0:0:0:0:
64,192,15550,1,0,0:0:0:0:
448,192,15550,1,0,0:0:0:0:
64,192,15675,1,0,0:0:0:0:
320,192,15675,1,0,0:0:0:0:
192,192,15800,1,0,0:0:0:0:
320,192,15800,1,0,0:0:0:0:
64,192,15925,1,0,0:0:0:0:
192,192,15925,1,0,0:0:0:0:
448,192,15925,1,0,0:0:0:0:
320,192,15925,1,0,0:0:0:0:
448,192,16050,1,0,0:0:0:0:
192,192,16050,1,0,0:0:0:0:
64,192,16175,1,0,0:0:0:0:
320,192,16175,1,0,0:0:0:0:
192,192,16175,1,0,0:0:0:0:
64,192,16300,1,0,0:0:0:0:
320,192,16300,1,0,0:0:0:0:
64,192,16425,1,0,0:0:0:0:
192,192,16425,1,0,0:0:0:0:
320,192,16425,1,0,0:0:0:0:
448,192,16425,1,0,0:0:0:0:
320,192,16550,1,0,0:0:0:0:
448,192,16550,1,0,0:0:0:0:
64,192,16675,1,0,0:0:0:0:
192,192,16675,1,0,0:0:0:0:
448,192,16675,1,0,0:0:0:0:
64,192,16800,1,0,0:0:0:0:
320,192,16800,1,0,0:0:0:0:
192,192,16925,1,0,0:0:0:0:
320,192,16925,1,0,0:0:0:0:
448,192,16925,1,0,0:0:0:0:
64,192,16925,1,0,0:0:0:0:
192,192,17050,1,0,0:0:0:0:
448,192,17050,1,0,0:0:0:0:
64,192,17175,1,0,0:0:0:0:
320,192,17175,1,0,0:0:0:0:
448,192,17175,1,0,0:0:0:0:
320,192,17300,1,0,0:0:0:0:
192,192,17300,1,0,0:0:0:0:
192,192,17425,1,0,0:0:0:0:
64,192,17425,1,0,0:0:0:0:
64,192,17550,1,0,0:0:0:0:
448,192,17550,1,0,0:0:0:0:
320,192,17675,1,0,0:0:0:0:
448,192,17675,1,0,0:0:0:0:
192,192,17675,1,0,0:0:0:0:
192,192,17800,1,0,0:0:0:0:
320,192,17800,1,0,0:0:0:0:
64,192,17925,1,0,0:0:0:0:
192,192,17925,1,0,0:0:0:0:
320,192,17925,1,0,0:0:0:0:
448,192,17925,1,0,0:0:0:0:
64,192,18050,1,0,0:0:0:0:
448,192,18050,1,0,0:0:0:0:
64,192,18175,1,0,0:0:0:0:
192,192,18175,1,0,0:0:0:0:
448,192,18175,1,0,0:0:0:0:
320,192,18300,1,0,0:0:0:0:
192,192,18300,1,0,0:0:0:0:
320,192,18425,1,0,0:0:0:0:
192,192,18425,1,0,0:0:0:0:
64,192,18425,1,0,0:0:0:0:
320,192,18550,1,0,0:0:0:0:
448,192,18550,1,0,0:0:0:0:
192,192,18675,1,0,0:0:0:0:
64,192,18675,1,0,0:0:0:0:
64,192,18800,1,0,0:0:0:0:
320,192,18800,1,0,0:0:0:0:
448,192,18800,1,0,0:0:0:0:
192,192,18925,1,0,0:0:0:0:
448,192,18925,1,0,0:0:0:0:
320,192,18925,1,0,0:0:0:0:
64,192,18925,1,0,0:0:0:0:
320,192,19050,1,0,0:0:0:0:
192,192,19050,1,0,0:0:0:0:
192,192,19175,1,0,0:0:0:0:
64,192,19175,1,0,0:0:0:0:
448,192,19175,1,0,0:0:0:0:
320,192,19300,1,0,0:0:0:0:
448,192,19300,1,0,0:0:0:0:
320,192,19425,1,0,0:0:0:0:
192,192,19425,1,0,0:0:0:0:
64,192,19550,1,0,0:0:0:0:
448,192,19550,1,0,0:0:0:0:
64,192,19675,1,0,0:0:0:0:
320,192,19675,1,0,0:0:0:0:
192,192,19800,1,0,0:0:0:0:
448,192,19800,1,0,0:0:0:0:
64,192,19925,1,0,0:0:0:0:
192,192,19925,1,0,0:0:0:0:
320,192,19925,1,0,0:0:0:0:
448,192,19925,1,0,0:0:0:0:
320,192,20050,1,0,0:0:0:0:
64,192,20050,1,0,0:0:0:0:
192,192,20175,1,0,0:0:0:0:
320,192,20175,1,0,0:0:0:0:
448,192,20175,1,0,0:0:0:0:
64,192,20300,1,0,0:0:0:0:
448,192,20300,1,0,0:0:0:0:
192,192,20425,1,0,0:0:0:0:
320,192,20425,1,0,0:0:0:0:
64,192,20425,1,0,0:0:0:0:
320,192,20550,1,0,0:0:0:0:
448,192,20550,1,0,0:0:0:0:
448,192,20675,1,0,0:0:0:0:
64,192,20675,1,0,0:0:0:0:
192,192,20800,1,0,0:0:0:0:
64,192,20800,1,0,0:0:0:0:
192,192,20925,1,0,0:0:0:0:
320,192,20925,1,0,0:0:0:0:
448,192,20925,1,0,0:0:0:0:
64,192,20925,1,0,0:0:0:0:
320,192,21050,1,0,0:0:0:0:
448,192,21050,1,0,0:0:0:0:
448,192,21175,1,0,0:0:0:0:
192,192,21175,1,0,0:0:0:0:
64,192,21175,1,0,0:0:0:0:
64,192,21300,1,0,0:0:0:0:
320,192,21300,1,0,0:0:0:0:
192,192,21425,1,0,0:0:0:0:
320,192,21425,1,0,0:0:0:0:
192,192,21550,1,0,0:0:0:0:
448,192,21550,1,0,0:0:0:0:
64,192,21675,1,0,0:0:0:0:
448,192,21675,1,0,0:0:0:0:
192,192,21800,1,0,0:0:0:0:
320,192,21800,1,0,0:0:0:0:
192,192,21925,1,0,0:0:0:0:
64,192,21925,1,0,0:0:0:0:
320,192,21925,1,0,0:0:0:0:
448,192,21925,1,0,0:0:0:0:
320,192,22050,1,0,0:0:0:0:
448,192,22050,1,0,0:0:0:0:
448,192,22175,1,0,0:0:0:0:
192,192,22175,1,0,0:0:0:0:
64,192,22175,1,0,0:0:0:0:
320,192,22300,1,0,0:0:0:0:
64,192,22300,1,0,0:0:0:0:
192,192,22300,1,0,0:0:0:0:
64,192,22425,1,0,0:0:0:0:
320,192,22425,1,0,0:0:0:0:
192,192,22425,1,0,0:0:0:0:
448,192,22425,128,0,23425:0:0:0:0:
64,192,22675,1,0,0:0:0:0:
192,192,22925,1,0,0:0:0:0:
320,192,22925,1,0,0:0:0:0:
64,192,23050,1,0,0:0:0:0:
64,192,23425,128,0,24425:0:0:0:0:
192,192,23425,1,0,0:0:0:0:
320,192,23425,1,0,0:0:0:0:
448,192,23675,1,0,0:0:0:0:
320,192,23800,1,0,0:0:0:0:
192,192,23925,1,0,0:0:0:0:
448,192,23925,1,0,0:0:0:0:
320,192,24175,128,0,24425:0:0:0:0:
448,192,24425,1,0,0:0:0:0:
192,192,24425,128,0,24800:0:0:0:0:
320,192,24925,128,0,25175:0:0:0:0:
64,192,25175,128,0,25300:0:0:0:0:
192,192,25300,128,0,25675:0:0:0:0:
448,192,25425,1,0,0:0:0:0:
320,192,26175,128,0,26425:0:0:0:0:
64,192,26175,1,0,0:0:0:0:
448,192,26425,128,0,26800:0:0:0:0:
64,192,26425,1,0,0:0:0:0:
192,192,26425,1,0,0:0:0:0:
192,192,26925,128,0,27175:0:0:0:0:
320,192,27175,128,0,27300:0:0:0:0:
64,192,27300,128,0,27675:0:0:0:0:
448,192,27425,1,0,0:0:0:0:
192,192,27925,128,0,28175:0:0:0:0:
320,192,28175,128,0,28425:0:0:0:0:
448,192,28175,1,0,0:0:0:0:
448,192,28425,128,0,28675:0:0:0:0:
192,192,28425,1,0,0:0:0:0:
64,192,28425,1,0,0:0:0:0:
192,192,28675,128,0,28800:0:0:0:0:
64,192,28800,128,0,29050:0:0:0:0:
320,192,29175,128,0,29425:0:0:0:0:
448,192,29425,128,0,29925:0:0:0:0:
64,192,29425,1,0,0:0:0:0:
192,192,29925,128,0,30175:0:0:0:0:
320,192,30175,128,0,30425:0:0:0:0:
448,192,30175,1,0,0:0:0:0:
64,192,30425,128,0,30800:0:0:0:0:
448,192,30425,1,0,0:0:0:0:
192,192,30425,1,0,0:0:0:0:
320,192,30675,1,0,0:0:0:0:
192,192,30675,1,0,0:0:0:0:
320,192,30925,1,0,0:0:0:0:
448,192,30925,1,0,0:0:0:0:
192,192,31175,1,0,0:0:0:0:
64,192,31175,1,0,0:0:0:0:
192,192,31675,1,0,0:0:0:0:
64,192,31925,1,0,0:0:0:0:
448,192,31925,1,0,0:0:0:0:
192,192,32175,128,0,32425:0:0:0:0:
320,192,32175,1,0,0:0:0:0:
448,192,32425,128,0,32800:0:0:0:0:
64,192,32425,1,0,0:0:0:0:
320,192,32425,1,0,0:0:0:0:
320,192,32925,128,0,33175:0:0:0:0:
192,192,33175,128,0,33300:0:0:0:0:
64,192,33300,128,0,33675:0:0:0:0:
448,192,33425,1,0,0:0:0:0:
320,192,33925,128,0,34175:0:0:0:0:
192,192,34175,128,0,34425:0:0:0:0:
64,192,34175,1,0,0:0:0:0:
448,192,34425,128,0,34675:0:0:0:0:
64,192,34425,1,0,0:0:0:0:
320,192,34425,1,0,0:0:0:0:
320,192,34675,128,0,34925:0:0:0:0:
192,192,34800,1,0,0:0:0:0:
64,192,34925,128,0,35175:0:0:0:0:
320,192,35175,128,0,35300:0:0:0:0:
448,192,35175,1,0,0:0:0:0:
192,192,35300,128,0,35675:0:0:0:0:
64,192,35675,1,0,0:0:0:0:
320,192,35925,1,0,0:0:0:0:
64,192,36175,128,0,36425:0:0:0:0:
192,192,36175,1,0,0:0:0:0:
448,192,36425,128,0,37175:0:0:0:0:
192,192,36425,1,0,0:0:0:0:
320,192,36425,1,0,0:0:0:0:
320,192,37175,128,0,37425:0:0:0:0:
64,192,37425,128,0,37925:0:0:0:0:
192,192,37425,1,0,0:0:0:0:
192,192,37925,128,0,38425:0:0:0:0:
448,192,38175,1,0,0:0:0:0:
320,192,38425,128,0,39675:0:0:0:0:
448,192,38425,1,0,0:0:0:0:
64,192,38425,1,0,0:0:0:0:
192,192,38675,1,0,0:0:0:0:
64,192,38675,1,0,0:0:0:0:
192,192,38925,1,0,0:0:0:0:
448,192,38925,1,0,0:0:0:0:
64,192,39175,1,0,0:0:0:0:
448,192,39175,1,0,0:0:0:0:
192,192,39675,1,0,0:0:0:0:
64,192,39675,1,0,0:0:0:0:
448,192,39925,1,0,0:0:0:0:
320,192,39925,1,0,0:0:0:0:
64,192,40113,1,0,0:0:0:0:
448,192,40113,1,0,0:0:0:0:
192,192,40175,1,0,0:0:0:0:
320,192,40175,1,0,0:0:0:0:
448,192,40425,1,0,0:0:0:0:
320,192,40425,1,0,0:0:0:0:
192,192,40425,1,0,0:0:0:0:
64,192,40425,1,0,0:0:0:0:
448,192,40550,1,0,0:0:0:0:
64,192,40550,1,0,0:0:0:0:
320,192,40675,1,0,0:0:0:0:
192,192,40675,1,0,0:0:0:0:
192,192,40800,1,0,0:0:0:0:
448,192,40800,1,0,0:0:0:0:
448,192,40925,1,0,0:0:0:0:
64,192,40925,1,0,0:0:0:0:
320,192,40925,1,0,0:0:0:0:
64,192,41050,1,0,0:0:0:0:
192,192,41050,1,0,0:0:0:0:
320,192,41175,1,0,0:0:0:0:
448,192,41175,1,0,0:0:0:0:
320,192,41300,1,0,0:0:0:0:
64,192,41300,1,0,0:0:0:0:
448,192,41425,1,0,0:0:0:0:
192,192,41425,1,0,0:0:0:0:
64,192,41425,1,0,0:0:0:0:
320,192,41425,1,0,0:0:0:0:
192,192,41550,1,0,0:0:0:0:
448,192,41550,1,0,0:0:0:0:
320,192,41675,1,0,0:0:0:0:
64,192,41675,1,0,0:0:0:0:
64,192,41800,1,0,0:0:0:0:
192,192,41800,1,0,0:0:0:0:
192,192,41925,1,0,0:0:0:0:
448,192,41925,1,0,0:0:0:0:
320,192,41925,1,0,0:0:0:0:
448,192,42050,1,0,0:0:0:0:
64,192,42050,1,0,0:0:0:0:
192,192,42175,1,0,0:0:0:0:
64,192,42175,1,0,0:0:0:0:
192,192,42300,1,0,0:0:0:0:
448,192,42300,1,0,0:0:0:0:
448,192,42425,1,0,0:0:0:0:
320,192,42425,1,0,0:0:0:0:
192,192,42425,1,0,0:0:0:0:
64,192,42425,1,0,0:0:0:0:
320,192,42550,1,0,0:0:0:0:
448,192,42550,1,0,0:0:0:0:
448,192,42675,1,0,0:0:0:0:
64,192,42675,1,0,0:0:0:0:
192,192,42675,1,0,0:0:0:0:
448,192,42800,1,0,0:0:0:0:
320,192,42800,1,0,0:0:0:0:
64,192,42800,1,0,0:0:0:0:
192,192,42925,1,0,0:0:0:0:
64,192,42925,1,0,0:0:0:0:
320,192,42925,1,0,0:0:0:0:
448,192,42925,1,0,0:0:0:0:
64,192,43050,1,0,0:0:0:0:
192,192,43050,1,0,0:0:0:0:
320,192,43050,1,0,0:0:0:0:
192,192,43175,1,0,0:0:0:0:
448,192,43175,1,0,0:0:0:0:
320,192,43300,1,0,0:0:0:0:
64,192,43300,1,0,0:0:0:0:
320,192,43425,1,0,0:0:0:0:
448,192,43425,1,0,0:0:0:0:
192,192,43425,1,0,0:0:0:0:
64,192,43425,1,0,0:0:0:0:
448,192,43550,1,0,0:0:0:0:
192,192,43550,1,0,0:0:0:0:
320,192,43675,1,0,0:0:0:0:
64,192,43675,1,0,0:0:0:0:
192,192,43675,1,0,0:0:0:0:
448,192,43800,1,0,0:0:0:0:
320,192,43800,1,0,0:0:0:0:
64,192,43925,1,0,0:0:0:0:
448,192,43925,1,0,0:0:0:0:
320,192,43925,1,0,0:0:0:0:
192,192,43925,1,0,0:0:0:0:
192,192,44050,1,0,0:0:0:0:
64,192,44050,1,0,0:0:0:0:
448,192,44175,1,0,0:0:0:0:
192,192,44175,1,0,0:0:0:0:
64,192,44175,1,0,0:0:0:0:
320,192,44300,1,0,0:0:0:0:
448,192,44300,1,0,0:0:0:0:
448,192,44425,1,0,0:0:0:0:
320,192,44425,1,0,0:0:0:0:
192,192,44425,1,0,0:0:0:0:
64,192,44425,1,0,0:0:0:0:
192,192,44550,1,0,0:0:0:0:
448,192,44675,1,0,0:0:0:0:
64,192,44675,1,0,0:0:0:0:
448,192,44800,1,0,0:0:0:0:
192,192,44800,1,0,0:0:0:0:
192,192,44925,1,0,0:0:0:0:
64,192,44925,1,0,0:0:0:0:
320,192,44925,1,0,0:0:0:0:
192,192,45050,1,0,0:0:0:0:
64,192,45050,1,0,0:0:0:0:
320,192,45175,1,0,0:0:0:0:
448,192,45175,1,0,0:0:0:0:
448,192,45300,1,0,0:0:0:0:
64,192,45300,1,0,0:0:0:0:
448,192,45425,1,0,0:0:0:0:
320,192,45425,1,0,0:0:0:0:
192,192,45425,1,0,0:0:0:0:
64,192,45425,1,0,0:0:0:0:
192,192,45550,1,0,0:0:0:0:
320,192,45550,1,0,0:0:0:0:
64,192,45675,1,0,0:0:0:0:
320,192,45675,1,0,0:0:0:0:
448,192,45800,1,0,0:0:0:0:
64,192,45800,1,0,0:0:0:0:
320,192,45925,1,0,0:0:0:0:
192,192,45925,1,0,0:0:0:0:
448,192,45925,1,0,0:0:0:0:
192,192,46050,1,0,0:0:0:0:
320,192,46050,1,0,0:0:0:0:
320,192,46175,1,0,0:0:0:0:
64,192,46175,1,0,0:0:0:0:
64,192,46300,1,0,0:0:0:0:
448,192,46300,1,0,0:0:0:0:
64,192,46425,1,0,0:0:0:0:
192,192,46425,1,0,0:0:0:0:
320,192,46425,1,0,0:0:0:0:
448,192,46425,1,0,0:0:0:0:
448,192,46550,1,0,0:0:0:0:
192,192,46550,1,0,0:0:0:0:
320,192,46675,1,0,0:0:0:0:
192,192,46675,1,0,0:0:0:0:
64,192,46675,1,0,0:0:0:0:
448,192,46800,1,0,0:0:0:0:
64,192,46800,1,0,0:0:0:0:
320,192,46800,1,0,0:0:0:0:
448,192,46925,1,0,0:0:0:0:
320,192,46925,1,0,0:0:0:0:
192,192,46925,1,0,0:0:0:0:
64,192,46925,1,0,0:0:0:0:
320,192,47050,1,0,0:0:0:0:
192,192,47050,1,0,0:0:0:0:
192,192,47175,1,0,0:0:0:0:
64,192,47175,1,0,0:0:0:0:
448,192,47300,1,0,0:0:0:0:
320,192,47300,1,0,0:0:0:0:
320,192,47425,1,0,0:0:0:0:
192,192,47425,1,0,0:0:0:0:
64,192,47425,1,0,0:0:0:0:
448,192,47425,1,0,0:0:0:0:
192,192,47550,1,0,0:0:0:0:
320,192,47550,1,0,0:0:0:0:
448,192,47675,1,0,0:0:0:0:
64,192,47675,1,0,0:0:0:0:
448,192,47800,1,0,0:0:0:0:
192,192,47800,1,0,0:0:0:0:
192,192,47925,1,0,0:0:0:0:
320,192,47925,1,0,0:0:0:0:
448,192,47925,1,0,0:0:0:0:
64,192,47925,1,0,0:0:0:0:
320,192,48050,1,0,0:0:0:0:
64,192,48050,1,0,0:0:0:0:
448,192,48175,1,0,0:0:0:0:
192,192,48175,1,0,0:0:0:0:
64,192,48175,1,0,0:0:0:0:
192,192,48300,1,0,0:0:0:0:
320,192,48300,1,0,0:0:0:0:
448,192,48425,1,0,0:0:0:0:
320,192,48425,1,0,0:0:0:0:
192,192,48425,1,0,0:0:0:0:
64,192,48425,1,0,0:0:0:0:
448,192,48550,1,0,0:0:0:0:
320,192,48550,1,0,0:0:0:0:
320,192,48675,1,0,0:0:0:0:
64,192,48675,1,0,0:0:0:0:
192,192,48800,1,0,0:0:0:0:
64,192,48800,1,0,0:0:0:0:
448,192,48925,1,0,0:0:0:0:
64,192,48925,1,0,0:0:0:0:
320,192,48925,1,0,0:0:0:0:
448,192,49050,1,0,0:0:0:0:
320,192,49050,1,0,0:0:0:0:
192,192,49175,1,0,0:0:0:0:
64,192,49175,1,0,0:0:0:0:
320,192,49300,1,0,0:0:0:0:
192,192,49300,1,0,0:0:0:0:
448,192,49425,1,0,0:0:0:0:
320,192,49425,1,0,0:0:0:0:
192,192,49425,1,0,0:0:0:0:
64,192,49425,1,0,0:0:0:0:
448,192,49550,1,0,0:0:0:0:
64,192,49550,1,0,0:0:0:0:
320,192,49675,1,0,0:0:0:0:
192,192,49675,1,0,0:0:0:0:
448,192,49800,1,0,0:0:0:0:
320,192,49800,1,0,0:0:0:0:
64,192,49925,1,0,0:0:0:0:
448,192,49925,1,0,0:0:0:0:
192,192,49925,1,0,0:0:0:0:
320,192,50050,1,0,0:0:0:0:
64,192,50050,1,0,0:0:0:0:
192,192,50175,1,0,0:0:0:0:
448,192,50175,1,0,0:0:0:0:
320,192,50300,1,0,0:0:0:0:
64,192,50300,1,0,0:0:0:0:
448,192,50425,1,0,0:0:0:0:
320,192,50425,1,0,0:0:0:0:
192,192,50425,1,0,0:0:0:0:
64,192,50425,1,0,0:0:0:0:
448,192,50550,1,0,0:0:0:0:
64,192,50550,1,0,0:0:0:0:
192,192,50675,1,0,0:0:0:0:
320,192,50675,1,0,0:0:0:0:
448,192,50675,1,0,0:0:0:0:
64,192,50800,1,0,0:0:0:0:
192,192,50800,1,0,0:0:0:0:
320,192,50925,1,0,0:0:0:0:
192,192,50925,1,0,0:0:0:0:
64,192,50925,1,0,0:0:0:0:
448,192,50925,1,0,0:0:0:0:
320,192,51050,1,0,0:0:0:0:
448,192,51050,1,0,0:0:0:0:
64,192,51175,1,0,0:0:0:0:
320,192,51175,1,0,0:0:0:0:
448,192,51175,1,0,0:0:0:0:
192,192,51300,1,0,0:0:0:0:
64,192,51300,1,0,0:0:0:0:
448,192,51425,1,0,0:0:0:0:
320,192,51425,1,0,0:0:0:0:
192,192,51425,1,0,0:0:0:0:
64,192,51425,1,0,0:0:0:0:
320,192,51550,1,0,0:0:0:0:
192,192,51550,1,0,0:0:0:0:
448,192,51675,1,0,0:0:0:0:
64,192,51675,1,0,0:0:0:0:
320,192,51800,1,0,0:0:0:0:
192,192,51800,1,0,0:0:0:0:
448,192,51925,1,0,0:0:0:0:
320,192,51925,1,0,0:0:0:0:
64,192,51925,1,0,0:0:0:0:
192,192,51925,1,0,0:0:0:0:
320,192,52175,1,0,0:0:0:0:
448,192,52175,1,0,0:0:0:0:
320,192,52300,1,0,0:0:0:0:
448,192,52300,1,0,0:0:0:0:
320,192,52425,1,0,0:0:0:0:
448,192,52425,1,0,0:0:0:0:
64,192,52425,1,0,0:0:0:0:
192,192,52425,1,0,0:0:0:0:
320,192,52550,1,0,0:0:0:0:
448,192,52550,1,0,0:0:0:0:
192,192,52675,1,0,0:0:0:0:
64,192,52675,1,0,0:0:0:0:
64,192,52800,1,0,0:0:0:0:
192,192,52800,1,0,0:0:0:0:
64,192,52925,1,0,0:0:0:0:
448,192,52925,1,0,0:0:0:0:
320,192,52925,1,0,0:0:0:0:
448,192,53050,1,0,0:0:0:0:
64,192,53050,1,0,0:0:0:0:
192,192,53175,1,0,0:0:0:0:
64,192,53175,1,0,0:0:0:0:
64,192,53300,1,0,0:0:0:0:
192,192,53300,1,0,0:0:0:0:
192,192,53425,1,0,0:0:0:0:
448,192,53425,1,0,0:0:0:0:
192,192,53550,1,0,0:0:0:0:
448,192,53550,1,0,0:0:0:0:
320,192,53675,1,0,0:0:0:0:
64,192,53675,1,0,0:0:0:0:
64,192,53800,1,0,0:0:0:0:
320,192,53800,1,0,0:0:0:0:
320,192,53925,1,0,0:0:0:0:
448,192,53925,1,0,0:0:0:0:
192,192,53925,1,0,0:0:0:0:
192,192,54050,1,0,0:0:0:0:
320,192,54050,1,0,0:0:0:0:
320,192,54175,1,0,0:0:0:0:
448,192,54175,1,0,0:0:0:0:
320,192,54300,1,0,0:0:0:0:
448,192,54300,1,0,0:0:0:0:
192,192,54425,1,0,0:0:0:0:
64,192,54425,1,0,0:0:0:0:
448,192,54425,1,0,0:0:0:0:
320,192,54425,1,0,0:0:0:0:
192,192,54550,1,0,0:0:0:0:
64,192,54550,1,0,0:0:0:0:
192,192,54675,1,0,0:0:0:0:
64,192,54675,1,0,0:0:0:0:
192,192,54800,1,0,0:0:0:0:
64,192,54800,1,0,0:0:0:0:
320,192,54925,1,0,0:0:0:0:
448,192,54925,1,0,0:0:0:0:
192,192,54925,1,0,0:0:0:0:
64,192,54925,1,0,0:0:0:0:
320,192,55050,1,0,0:0:0:0:
448,192,55050,1,0,0:0:0:0:
320,192,55175,1,0,0:0:0:0:
448,192,55175,1,0,0:0:0:0:
320,192,55300,1,0,0:0:0:0:
448,192,55300,1,0,0:0:0:0:
64,192,55425,1,0,0:0:0:0:
192,192,55425,1,0,0:0:0:0:
320,192,55425,1,0,0:0:0:0:
448,192,55425,1,0,0:0:0:0:
192,192,55550,1,0,0:0:0:0:
64,192,55550,1,0,0:0:0:0:
192,192,55675,1,0,0:0:0:0:
64,192,55675,1,0,0:0:0:0:
320,192,55675,1,0,0:0:0:0:
448,192,55675,1,0,0:0:0:0:
64,192,55925,1,0,0:0:0:0:
448,192,55925,1,0,0:0:0:0:
192,192,56113,1,0,0:0:0:0:
448,192,56113,1,0,0:0:0:0:
320,192,56175,1,0,0:0:0:0:
64,192,56175,1,0,0:0:0:0:
64,192,56425,1,0,0:0:0:0:
192,192,56425,1,0,0:0:0:0:
448,192,56425,1,0,0:0:0:0:
320,192,56425,1,0,0:0:0:0:
320,192,56550,1,0,0:0:0:0:
64,192,56550,1,0,0:0:0:0:
192,192,56675,1,0,0:0:0:0:
320,192,56675,1,0,0:0:0:0:
448,192,56675,1,0,0:0:0:0:
192,192,56800,1,0,0:0:0:0:
448,192,56800,1,0,0:0:0:0:
320,192,56925,1,0,0:0:0:0:
192,192,56925,1,0,0:0:0:0:
64,192,56925,1,0,0:0:0:0:
448,192,56925,1,0,0:0:0:0:
64,192,57050,1,0,0:0:0:0:
192,192,57050,1,0,0:0:0:0:
64,192,57175,1,0,0:0:0:0:
448,192,57175,1,0,0:0:0:0:
320,192,57175,1,0,0:0:0:0:
320,192,57300,1,0,0:0:0:0:
448,192,57300,1,0,0:0:0:0:
192,192,57300,1,0,0:0:0:0:
320,192,57425,1,0,0:0:0:0:
192,192,57425,1,0,0:0:0:0:
64,192,57425,1,0,0:0:0:0:
192,192,57550,1,0,0:0:0:0:
64,192,57550,1,0,0:0:0:0:
448,192,57550,1,0,0:0:0:0:
192,192,57675,1,0,0:0:0:0:
64,192,57675,1,0,0:0:0:0:
320,192,57675,1,0,0:0:0:0:
320,192,57800,1,0,0:0:0:0:
448,192,57800,1,0,0:0:0:0:
64,192,57925,1,0,0:0:0:0:
192,192,57925,1,0,0:0:0:0:
320,192,57925,1,0,0:0:0:0:
448,192,57925,1,0,0:0:0:0:
320,192,58050,1,0,0:0:0:0:
64,192,58050,1,0,0:0:0:0:
192,192,58050,1,0,0:0:0:0:
192,192,58175,1,0,0:0:0:0:
448,192,58175,1,0,0:0:0:0:
320,192,58175,1,0,0:0:0:0:
192,192,58300,1,0,0:0:0:0:
64,192,58300,1,0,0:0:0:0:
448,192,58300,1,0,0:0:0:0:
64,192,58425,1,0,0:0:0:0:
320,192,58425,1,0,0:0:0:0:
448,192,58425,1,0,0:0:0:0:
192,192,58550,1,0,0:0:0:0:
320,192,58550,1,0,0:0:0:0:
64,192,58675,1,0,0:0:0:0:
448,192,58675,1,0,0:0:0:0:
192,192,58675,1,0,0:0:0:0:
64,192,58800,1,0,0:0:0:0:
320,192,58800,1,0,0:0:0:0:
64,192,58925,1,0,0:0:0:0:
192,192,58925,1,0,0:0:0:0:
320,192,58925,1,0,0:0:0:0:
448,192,58925,1,0,0:0:0:0:
192,192,59050,1,0,0:0:0:0:
448,192,59050,1,0,0:0:0:0:
320,192,59175,1,0,0:0:0:0:
448,192,59175,1,0,0:0:0:0:
64,192,59175,1,0,0:0:0:0:
320,192,59300,1,0,0:0:0:0:
192,192,59300,1,0,0:0:0:0:
448,192,59300,1,0,0:0:0:0:
64,192,59425,1,0,0:0:0:0:
192,192,59425,1,0,0:0:0:0:
448,192,59425,1,0,0:0:0:0:
64,192,59550,1,0,0:0:0:0:
320,192,59550,1,0,0:0:0:0:
192,192,59550,1,0,0:0:0:0:
320,192,59675,1,0,0:0:0:0:
448,192,59675,1,0,0:0:0:0:
192,192,59675,1,0,0:0:0:0:
64,192,59800,1,0,0:0:0:0:
448,192,59800,1,0,0:0:0:0:
64,192,59925,1,0,0:0:0:0:
192,192,59925,1,0,0:0:0:0:
320,192,59925,1,0,0:0:0:0:
448,192,59925,1,0,0:0:0:0:
192,192,60050,1,0,0:0:0:0:
320,192,60050,1,0,0:0:0:0:
192,192,60175,1,0,0:0:0:0:
64,192,60175,1,0,0:0:0:0:
448,192,60175,1,0,0:0:0:0:
64,192,60300,1,0,0:0:0:0:
320,192,60300,1,0,0:0:0:0:
192,192,60425,1,0,0:0:0:0:
448,192,60425,1,0,0:0:0:0:
320,192,60425,1,0,0:0:0:0:
192,192,60550,1,0,0:0:0:0:
448,192,60550,1,0,0:0:0:0:
320,192,60675,1,0,0:0:0:0:
64,192,60675,1,0,0:0:0:0:
448,192,60675,1,0,0:0:0:0:
192,192,60800,1,0,0:0:0:0:
64,192,60800,1,0,0:0:0:0:
64,192,60925,1,0,0:0:0:0:
192,192,60925,1,0,0:0:0:0:
320,192,60925,1,0,0:0:0:0:
448,192,60925,1,0,0:0:0:0:
448,192,61050,1,0,0:0:0:0:
320,192,61050,1,0,0:0:0:0:
64,192,61175,1,0,0:0:0:0:
320,192,61175,1,0,0:0:0:0:
192,192,61175,1,0,0:0:0:0:
448,192,61300,1,0,0:0:0:0:
192,192,61300,1,0,0:0:0:0:
320,192,61300,1,0,0:0:0:0:
192,192,61425,1,0,0:0:0:0:
64,192,61425,1,0,0:0:0:0:
448,192,61425,1,0,0:0:0:0:
320,192,61550,1,0,0:0:0:0:
448,192,61550,1,0,0:0:0:0:
64,192,61675,1,0,0:0:0:0:
192,192,61675,1,0,0:0:0:0:
320,192,61675,1,0,0:0:0:0:
448,192,61800,1,0,0:0:0:0:
64,192,61800,1,0,0:0:0:0:
448,192,61925,1,0,0:0:0:0:
320,192,61925,1,0,0:0:0:0:
192,192,61925,1,0,0:0:0:0:
64,192,61925,1,0,0:0:0:0:
320,192,62050,1,0,0:0:0:0:
192,192,62050,1,0,0:0:0:0:
64,192,62175,1,0,0:0:0:0:
448,192,62175,1,0,0:0:0:0:
192,192,62175,1,0,0:0:0:0:
64,192,62300,1,0,0:0:0:0:
448,192,62300,1,0,0:0:0:0:
64,192,62425,1,0,0:0:0:0:
192,192,62425,1,0,0:0:0:0:
320,192,62425,1,0,0:0:0:0:
192,192,62550,1,0,0:0:0:0:
320,192,62550,1,0,0:0:0:0:
64,192,62550,1,0,0:0:0:0:
64,192,62675,1,0,0:0:0:0:
192,192,62675,1,0,0:0:0:0:
320,192,62675,1,0,0:0:0:0:
192,192,62800,1,0,0:0:0:0:
320,192,62800,1,0,0:0:0:0:
448,192,62800,1,0,0:0:0:0:
64,192,62925,1,0,0:0:0:0:
320,192,62925,1,0,0:0:0:0:
192,192,62925,1,0,0:0:0:0:
448,192,62925,1,0,0:0:0:0:
192,192,63050,1,0,0:0:0:0:
320,192,63050,1,0,0:0:0:0:
448,192,63050,1,0,0:0:0:0:
64,192,63175,1,0,0:0:0:0:
448,192,63175,1,0,0:0:0:0:
192,192,63175,1,0,0:0:0:0:
320,192,63300,1,0,0:0:0:0:
192,192,63300,1,0,0:0:0:0:
64,192,63300,1,0,0:0:0:0:
64,192,63425,1,0,0:0:0:0:
448,192,63425,1,0,0:0:0:0:
192,192,63425,1,0,0:0:0:0:
192,192,63550,1,0,0:0:0:0:
320,192,63550,1,0,0:0:0:0:
64,192,63550,1,0,0:0:0:0:
64,192,63675,1,0,0:0:0:0:
448,192,63675,1,0,0:0:0:0:
192,192,63675,1,0,0:0:0:0:
320,192,63800,1,0,0:0:0:0:
448,192,63800,1,0,0:0:0:0:
64,192,63925,1,0,0:0:0:0:
192,192,63925,1,0,0:0:0:0:
448,192,63925,1,0,0:0:0:0:
320,192,63925,1,0,0:0:0:0:
448,192,64050,1,0,0:0:0:0:
192,192,64050,1,0,0:0:0:0:
64,192,64175,1,0,0:0:0:0:
320,192,64175,1,0,0:0:0:0:
192,192,64175,1,0,0:0:0:0:
64,192,64300,1,0,0:0:0:0:
320,192,64300,1,0,0:0:0:0:
64,192,64425,1,0,0:0:0:0:
192,192,64425,1,0,0:0:0:0:
320,192,64425,1,0,0:0:0:0:
448,192,64425,1,0,0:0:0:0:
320,192,64550,1,0,0:0:0:0:
448,192,64550,1,0,0:0:0:0:
64,192,64675,1,0,0:0:0:0:
192,192,64675,1,0,0:0:0:0:
448,192,64675,1,0,0:0:0:0:
64,192,64800,1,0,0:0:0:0:
320,192,64800,1,0,0:0:0:0:
192,192,64925,1,0,0:0:0:0:
320,192,64925,1,0,0:0:0:0:
448,192,64925,1,0,0:0:0:0:
64,192,64925,1,0,0:0:0:0:
192,192,65050,1,0,0:0:0:0:
448,192,65050,1,0,0:0:0:0:
64,192,65175,1,0,0:0:0:0:
320,192,65175,1,0,0:0:0:0:
448,192,65175,1,0,0:0:0:0:
320,192,65300,1,0,0:0:0:0:
192,192,65300,1,0,0:0:0:0:
448,192,65300,1,0,0:0:0:0:
192,192,65425,1,0,0:0:0:0:
64,192,65425,1,0,0:0:0:0:
320,192,65425,1,0,0:0:0:0:
64,192,65550,1,0,0:0:0:0:
448,192,65550,1,0,0:0:0:0:
192,192,65550,1,0,0:0:0:0:
320,192,65675,1,0,0:0:0:0:
448,192,65675,1,0,0:0:0:0:
192,192,65675,1,0,0:0:0:0:
320,192,65800,1,0,0:0:0:0:
64,192,65800,1,0,0:0:0:0:
64,192,65925,1,0,0:0:0:0:
192,192,65925,1,0,0:0:0:0:
320,192,65925,1,0,0:0:0:0:
448,192,65925,1,0,0:0:0:0:
448,192,66050,1,0,0:0:0:0:
192,192,66050,1,0,0:0:0:0:
64,192,66050,1,0,0:0:0:0:
64,192,66175,1,0,0:0:0:0:
192,192,66175,1,0,0:0:0:0:
320,192,66175,1,0,0:0:0:0:
320,192,66300,1,0,0:0:0:0:
448,192,66300,1,0,0:0:0:0:
192,192,66300,1,0,0:0:0:0:
320,192,66425,1,0,0:0:0:0:
192,192,66425,1,0,0:0:0:0:
64,192,66425,1,0,0:0:0:0:
320,192,66550,1,0,0:0:0:0:
448,192,66550,1,0,0:0:0:0:
192,192,66675,1,0,0:0:0:0:
64,192,66675,1,0,0:0:0:0:
448,192,66675,1,0,0:0:0:0:
64,192,66800,1,0,0:0:0:0:
320,192,66800,1,0,0:0:0:0:
192,192,66925,1,0,0:0:0:0:
448,192,66925,1,0,0:0:0:0:
320,192,66925,1,0,0:0:0:0:
64,192,66925,1,0,0:0:0:0:
320,192,67050,1,0,0:0:0:0:
192,192,67050,1,0,0:0:0:0:
192,192,67175,1,0,0:0:0:0:
64,192,67175,1,0,0:0:0:0:
448,192,67175,1,0,0:0:0:0:
320,192,67300,1,0,0:0:0:0:
448,192,67300,1,0,0:0:0:0:
320,192,67425,1,0,0:0:0:0:
192,192,67425,1,0,0:0:0:0:
64,192,67425,1,0,0:0:0:0:
64,192,67550,1,0,0:0:0:0:
448,192,67550,1,0,0:0:0:0:
64,192,67675,1,0,0:0:0:0:
320,192,67675,1,0,0:0:0:0:
192,192,67675,1,0,0:0:0:0:
192,192,67800,1,0,0:0:0:0:
448,192,67800,1,0,0:0:0:0:
64,192,67925,1,0,0:0:0:0:
192,192,67925,1,0,0:0:0:0:
320,192,67925,1,0,0:0:0:0:
448,192,67925,1,0,0:0:0:0:
320,192,68050,1,0,0:0:0:0:
64,192,68050,1,0,0:0:0:0:
192,192,68175,1,0,0:0:0:0:
320,192,68175,1,0,0:0:0:0:
448,192,68175,1,0,0:0:0:0:
64,192,68300,1,0,0:0:0:0:
448,192,68300,1,0,0:0:0:0:
192,192,68300,1,0,0:0:0:0:
192,192,68425,1,0,0:0:0:0:
320,192,68425,1,0,0:0:0:0:
64,192,68425,1,0,0:0:0:0:
320,192,68550,1,0,0:0:0:0:
448,192,68550,1,0,0:0:0:0:
192,192,68550,1,0,0:0:0:0:
448,192,68675,1,0,0:0:0:0:
64,192,68675,1,0,0:0:0:0:
320,192,68675,1,0,0:0:0:0:
192,192,68800,1,0,0:0:0:0:
64,192,68800,1,0,0:0:0:0:
448,192,68800,1,0,0:0:0:0:
192,192,68925,1,0,0:0:0:0:
320,192,68925,1,0,0:0:0:0:
448,192,68925,1,0,0:0:0:0:
64,192,68925,1,0,0:0:0:0:
320,192,69050,1,0,0:0:0:0:
448,192,69050,1,0,0:0:0:0:
64,192,69050,1,0,0:0:0:0:
448,192,69175,1,0,0:0:0:0:
192,192,69175,1,0,0:0:0:0:
64,192,69175,1,0,0:0:0:0:
64,192,69300,1,0,0:0:0:0:
192,192,69300,1,0,0:0:0:0:
320,192,69300,1,0,0:0:0:0:
192,192,69425,1,0,0:0:0:0:
320,192,69425,1,0,0:0:0:0:
448,192,69425,1,0,0:0:0:0:
192,192,69550,1,0,0:0:0:0:
448,192,69550,1,0,0:0:0:0:
64,192,69550,1,0,0:0:0:0:
64,192,69675,1,0,0:0:0:0:
448,192,69675,1,0,0:0:0:0:
320,192,69675,1,0,0:0:0:0:
192,192,69800,1,0,0:0:0:0:
320,192,69800,1,0,0:0:0:0:
192,192,69925,1,0,0:0:0:0:
64,192,69925,1,0,0:0:0:0:
320,192,69925,1,0,0:0:0:0:
448,192,69925,1,0,0:0:0:0:
64,192,70050,1,0,0:0:0:0:
448,192,70050,1,0,0:0:0:0:
192,192,70175,1,0,0:0:0:0:
320,192,70175,1,0,0:0:0:0:
448,192,70175,1,0,0:0:0:0:
320,192,70300,1,0,0:0:0:0:
64,192,70300,1,0,0:0:0:0:
64,192,70425,1,0,0:0:0:0:
192,192,70425,1,0,0:0:0:0:
448,192,70425,1,0,0:0:0:0:
64,192,70550,1,0,0:0:0:0:
448,192,70550,1,0,0:0:0:0:
192,192,70675,1,0,0:0:0:0:
320,192,70675,1,0,0:0:0:0:
64,192,70800,1,0,0:0:0:0:
448,192,70800,1,0,0:0:0:0:
64,192,70925,1,0,0:0:0:0:
192,192,70925,1,0,0:0:0:0:
320,192,70925,1,0,0:0:0:0:
448,192,70925,1,0,0:0:0:0:
192,192,71050,1,0,0:0:0:0:
320,192,71050,1,0,0:0:0:0:
320,192,71175,1,0,0:0:0:0:
64,192,71175,1,0,0:0:0:0:
192,192,71300,1,0,0:0:0:0:
448,192,71300,1,0,0:0:0:0:
64,192,71425,1,0,0:0:0:0:
320,192,71425,1,0,0:0:0:0:
448,192,71425,1,0,0:0:0:0:
192,192,71550,1,0,0:0:0:0:
320,192,71550,1,0,0:0:0:0:
192,192,71675,1,0,0:0:0:0:
64,192,71675,1,0,0:0:0:0:
448,192,71675,1,0,0:0:0:0:
64,192,71800,1,0,0:0:0:0:
320,192,71800,1,0,0:0:0:0:
448,192,71925,1,0,0:0:0:0:
320,192,71925,1,0,0:0:0:0:
192,192,71925,1,0,0:0:0:0:
64,192,71925,1,0,0:0:0:0:
192,192,72113,1,0,0:0:0:0:
320,192,72113,1,0,0:0:0:0:
64,192,72175,1,0,0:0:0:0:
448,192,72175,1,0,0:0:0:0:
448,192,72425,1,0,0:0:0:0:
320,192,72425,1,0,0:0:0:0:
64,192,72425,1,0,0:0:0:0:
192,192,72425,1,0,0:0:0:0:
192,192,72550,1,0,0:0:0:0:
448,192,72550,1,0,0:0:0:0:
320,192,72675,1,0,0:0:0:0:
192,192,72675,1,0,0:0:0:0:
64,192,72675,1,0,0:0:0:0:
320,192,72800,1,0,0:0:0:0:
64,192,72800,1,0,0:0:0:0:
192,192,72925,1,0,0:0:0:0:
320,192,72925,1,0,0:0:0:0:
448,192,72925,1,0,0:0:0:0:
64,192,72925,1,0,0:0:0:0:
448,192,73050,1,0,0:0:0:0:
320,192,73050,1,0,0:0:0:0:
448,192,73175,1,0,0:0:0:0:
64,192,73175,1,0,0:0:0:0:
192,192,73175,1,0,0:0:0:0:
192,192,73300,1,0,0:0:0:0:
64,192,73300,1,0,0:0:0:0:
320,192,73300,1,0,0:0:0:0:
192,192,73425,1,0,0:0:0:0:
320,192,73425,1,0,0:0:0:0:
448,192,73425,1,0,0:0:0:0:
320,192,73550,1,0,0:0:0:0:
448,192,73550,1,0,0:0:0:0:
64,192,73550,1,0,0:0:0:0:
320,192,73675,1,0,0:0:0:0:
448,192,73675,1,0,0:0:0:0:
192,192,73675,1,0,0:0:0:0:
192,192,73800,1,0,0:0:0:0:
64,192,73800,1,0,0:0:0:0:
448,192,73925,1,0,0:0:0:0:
320,192,73925,1,0,0:0:0:0:
192,192,73925,1,0,0:0:0:0:
64,192,73925,1,0,0:0:0:0:
192,192,74050,1,0,0:0:0:0:
448,192,74050,1,0,0:0:0:0:
320,192,74050,1,0,0:0:0:0:
320,192,74175,1,0,0:0:0:0:
64,192,74175,1,0,0:0:0:0:
192,192,74175,1,0,0:0:0:0:
320,192,74300,1,0,0:0:0:0:
448,192,74300,1,0,0:0:0:0:
64,192,74300,1,0,0:0:0:0:
448,192,74425,1,0,0:0:0:0:
192,192,74425,1,0,0:0:0:0:
64,192,74425,1,0,0:0:0:0:
320,192,74550,1,0,0:0:0:0:
192,192,74550,1,0,0:0:0:0:
448,192,74675,1,0,0:0:0:0:
64,192,74675,1,0,0:0:0:0:
320,192,74675,1,0,0:0:0:0:
448,192,74800,1,0,0:0:0:0:
192,192,74800,1,0,0:0:0:0:
448,192,74925,1,0,0:0:0:0:
320,192,74925,1,0,0:0:0:0:
192,192,74925,1,0,0:0:0:0:
64,192,74925,1,0,0:0:0:0:
320,192,75050,1,0,0:0:0:0:
64,192,75050,1,0,0:0:0:0:
192,192,75175,1,0,0:0:0:0:
64,192,75175,1,0,0:0:0:0:
448,192,75175,1,0,0:0:0:0:
192,192,75300,1,0,0:0:0:0:
320,192,75300,1,0,0:0:0:0:
64,192,75300,1,0,0:0:0:0:
448,192,75425,1,0,0:0:0:0:
320,192,75425,1,0,0:0:0:0:
64,192,75425,1,0,0:0:0:0:
448,192,75550,1,0,0:0:0:0:
192,192,75550,1,0,0:0:0:0:
320,192,75550,1,0,0:0:0:0:
192,192,75675,1,0,0:0:0:0:
64,192,75675,1,0,0:0:0:0:
320,192,75675,1,0,0:0:0:0:
448,192,75800,1,0,0:0:0:0:
64,192,75800,1,0,0:0:0:0:
448,192,75925,1,0,0:0:0:0:
320,192,75925,1,0,0:0:0:0:
192,192,75925,1,0,0:0:0:0:
64,192,75925,1,0,0:0:0:0:
320,192,76050,1,0,0:0:0:0:
192,192,76050,1,0,0:0:0:0:
320,192,76175,1,0,0:0:0:0:
448,192,76175,1,0,0:0:0:0:
64,192,76175,1,0,0:0:0:0:
448,192,76300,1,0,0:0:0:0:
192,192,76300,1,0,0:0:0:0:
320,192,76425,1,0,0:0:0:0:
64,192,76425,1,0,0:0:0:0:
192,192,76425,1,0,0:0:0:0:
320,192,76550,1,0,0:0:0:0:
64,192,76550,1,0,0:0:0:0:
192,192,76675,1,0,0:0:0:0:
448,192,76675,1,0,0:0:0:0:
64,192,76675,1,0,0:0:0:0:
320,192,76800,1,0,0:0:0:0:
448,192,76800,1,0,0:0:0:0:
448,192,76925,1,0,0:0:0:0:
320,192,76925,1,0,0:0:0:0:
192,192,76925,1,0,0:0:0:0:
64,192,76925,1,0,0:0:0:0:
64,192,77050,1,0,0:0:0:0:
192,192,77050,1,0,0:0:0:0:
448,192,77175,1,0,0:0:0:0:
192,192,77175,1,0,0:0:0:0:
320,192,77175,1,0,0:0:0:0:
64,192,77300,1,0,0:0:0:0:
320,192,77300,1,0,0:0:0:0:
192,192,77300,1,0,0:0:0:0:
320,192,77425,1,0,0:0:0:0:
448,192,77425,1,0,0:0:0:0:
64,192,77425,1,0,0:0:0:0:
192,192,77550,1,0,0:0:0:0:
64,192,77550,1,0,0:0:0:0:
448,192,77675,1,0,0:0:0:0:
320,192,77675,1,0,0:0:0:0:
192,192,77675,1,0,0:0:0:0:
64,192,77800,1,0,0:0:0:0:
448,192,77800,1,0,0:0:0:0:
64,192,77925,1,0,0:0:0:0:
192,192,77925,1,0,0:0:0:0:
320,192,77925,1,0,0:0:0:0:
448,192,77925,1,0,0:0:0:0:
192,192,78050,1,0,0:0:0:0:
320,192,78050,1,0,0:0:0:0:
448,192,78175,1,0,0:0:0:0:
64,192,78175,1,0,0:0:0:0:
320,192,78175,1,0,0:0:0:0:
448,192,78300,1,0,0:0:0:0:
64,192,78300,1,0,0:0:0:0:
448,192,78425,1,0,0:0:0:0:
320,192,78425,1,0,0:0:0:0:
192,192,78425,1,0,0:0:0:0:
320,192,78550,1,0,0:0:0:0:
192,192,78550,1,0,0:0:0:0:
448,192,78550,1,0,0:0:0:0:
448,192,78675,1,0,0:0:0:0:
320,192,78675,1,0,0:0:0:0:
192,192,78675,1,0,0:0:0:0:
320,192,78800,1,0,0:0:0:0:
192,192,78800,1,0,0:0:0:0:
64,192,78800,1,0,0:0:0:0:
448,192,78925,1,0,0:0:0:0:
192,192,78925,1,0,0:0:0:0:
320,192,78925,1,0,0:0:0:0:
64,192,78925,1,0,0:0:0:0:
320,192,79050,1,0,0:0:0:0:
192,192,79050,1,0,0:0:0:0:
64,192,79050,1,0,0:0:0:0:
448,192,79175,1,0,0:0:0:0:
64,192,79175,1,0,0:0:0:0:
320,192,79175,1,0,0:0:0:0:
192,192,79300,1,0,0:0:0:0:
320,192,79300,1,0,0:0:0:0:
448,192,79300,1,0,0:0:0:0:
448,192,79425,1,0,0:0:0:0:
64,192,79425,1,0,0:0:0:0:
320,192,79425,1,0,0:0:0:0:
320,192,79550,1,0,0:0:0:0:
192,192,79550,1,0,0:0:0:0:
448,192,79550,1,0,0:0:0:0:
448,192,79675,1,0,0:0:0:0:
64,192,79675,1,0,0:0:0:0:
320,192,79675,1,0,0:0:0:0:
192,192,79800,1,0,0:0:0:0:
64,192,79800,1,0,0:0:0:0:
448,192,79925,1,0,0:0:0:0:
320,192,79925,1,0,0:0:0:0:
64,192,79925,1,0,0:0:0:0:
192,192,79925,1,0,0:0:0:0:
64,192,80050,1,0,0:0:0:0:
320,192,80050,1,0,0:0:0:0:
448,192,80175,1,0,0:0:0:0:
192,192,80175,1,0,0:0:0:0:
320,192,80175,1,0,0:0:0:0:
448,192,80300,1,0,0:0:0:0:
192,192,80300,1,0,0:0:0:0:
448,192,80425,1,0,0:0:0:0:
320,192,80425,1,0,0:0:0:0:
192,192,80425,1,0,0:0:0:0:
64,192,80425,1,0,0:0:0:0:
192,192,80550,1,0,0:0:0:0:
64,192,80550,1,0,0:0:0:0:
448,192,80675,1,0,0:0:0:0:
320,192,80675,1,0,0:0:0:0:
64,192,80675,1,0,0:0:0:0:
448,192,80800,1,0,0:0:0:0:
192,192,80800,1,0,0:0:0:0:
320,192,80925,1,0,0:0:0:0:
192,192,80925,1,0,0:0:0:0:
64,192,80925,1,0,0:0:0:0:
448,192,80925,1,0,0:0:0:0:
320,192,81050,1,0,0:0:0:0:
64,192,81050,1,0,0:0:0:0:
448,192,81175,1,0,0:0:0:0:
192,192,81175,1,0,0:0:0:0:
64,192,81175,1,0,0:0:0:0:
192,192,81300,1,0,0:0:0:0:
320,192,81300,1,0,0:0:0:0:
64,192,81300,1,0,0:0:0:0:
320,192,81425,1,0,0:0:0:0:
448,192,81425,1,0,0:0:0:0:
192,192,81425,1,0,0:0:0:0:
448,192,81550,1,0,0:0:0:0:
64,192,81550,1,0,0:0:0:0:
320,192,81550,1,0,0:0:0:0:
192,192,81675,1,0,0:0:0:0:
64,192,81675,1,0,0:0:0:0:
320,192,81675,1,0,0:0:0:0:
192,192,81800,1,0,0:0:0:0:
448,192,81800,1,0,0:0:0:0:
448,192,81925,1,0,0:0:0:0:
320,192,81925,1,0,0:0:0:0:
192,192,81925,1,0,0:0:0:0:
64,192,81925,1,0,0:0:0:0:
64,192,82050,1,0,0:0:0:0:
320,192,82050,1,0,0:0:0:0:
448,192,82050,1,0,0:0:0:0:
448,192,82175,1,0,0:0:0:0:
320,192,82175,1,0,0:0:0:0:
192,192,82175,1,0,0:0:0:0:
192,192,82300,1,0,0:0:0:0:
64,192,82300,1,0,0:0:0:0:
320,192,82300,1,0,0:0:0:0:
192,192,82425,1,0,0:0:0:0:
320,192,82425,1,0,0:0:0:0:
448,192,82425,1,0,0:0:0:0:
192,192,82550,1,0,0:0:0:0:
64,192,82550,1,0,0:0:0:0:
320,192,82675,1,0,0:0:0:0:
448,192,82675,1,0,0:0:0:0:
64,192,82675,1,0,0:0:0:0:
448,192,82800,1,0,0:0:0:0:
192,192,82800,1,0,0:0:0:0:
320,192,82925,1,0,0:0:0:0:
64,192,82925,1,0,0:0:0:0:
192,192,82925,1,0,0:0:0:0:
448,192,82925,1,0,0:0:0:0:
192,192,83050,1,0,0:0:0:0:
320,192,83050,1,0,0:0:0:0:
320,192,83175,1,0,0:0:0:0:
448,192,83175,1,0,0:0:0:0:
64,192,83175,1,0,0:0:0:0:
192,192,83300,1,0,0:0:0:0:
64,192,83300,1,0,0:0:0:0:
192,192,83425,1,0,0:0:0:0:
320,192,83425,1,0,0:0:0:0:
448,192,83425,1,0,0:0:0:0:
448,192,83550,1,0,0:0:0:0:
64,192,83550,1,0,0:0:0:0:
448,192,83675,1,0,0:0:0:0:
192,192,83675,1,0,0:0:0:0:
320,192,83675,1,0,0:0:0:0:
320,192,83800,1,0,0:0:0:0:
64,192,83800,1,0,0:0:0:0:
448,192,83925,1,0,0:0:0:0:
320,192,83925,1,0,0:0:0:0:
192,192,83925,1,0,0:0:0:0:
64,192,83925,1,0,0:0:0:0:
192,192,84050,1,0,0:0:0:0:
448,192,84050,1,0,0:0:0:0:
320,192,84175,1,0,0:0:0:0:
192,192,84175,1,0,0:0:0:0:
64,192,84175,1,0,0:0:0:0:
448,192,84300,1,0,0:0:0:0:
64,192,84300,1,0,0:0:0:0:
320,192,84300,1,0,0:0:0:0:
320,192,84425,1,0,0:0:0:0:
192,192,84425,1,0,0:0:0:0:
448,192,84425,1,0,0:0:0:0:
192,192,84550,1,0,0:0:0:0:
64,192,84550,1,0,0:0:0:0:
320,192,84550,1,0,0:0:0:0:
64,192,84675,1,0,0:0:0:0:
448,192,84675,1,0,0:0:0:0:
192,192,84675,1,0,0:0:0:0:
320,192,84800,1,0,0:0:0:0:
448,192,84800,1,0,0:0:0:0:
64,192,84800,1,0,0:0:0:0:
320,192,84925,1,0,0:0:0:0:
192,192,84925,1,0,0:0:0:0:
64,192,84925,1,0,0:0:0:0:
448,192,84925,1,0,0:0:0:0:
192,192,85050,1,0,0:0:0:0:
64,192,85050,1,0,0:0:0:0:
448,192,85050,1,0,0:0:0:0:
64,192,85175,1,0,0:0:0:0:
320,192,85175,1,0,0:0:0:0:
448,192,85175,1,0,0:0:0:0:
448,192,85300,1,0,0:0:0:0:
320,192,85300,1,0,0:0:0:0:
192,192,85300,1,0,0:0:0:0:
320,192,85425,1,0,0:0:0:0:
192,192,85425,1,0,0:0:0:0:
64,192,85425,1,0,0:0:0:0:
320,192,85550,1,0,0:0:0:0:
64,192,85550,1,0,0:0:0:0:
448,192,85550,1,0,0:0:0:0:
448,192,85675,1,0,0:0:0:0:
64,192,85675,1,0,0:0:0:0:
192,192,85675,1,0,0:0:0:0:
320,192,85800,1,0,0:0:0:0:
192,192,85800,1,0,0:0:0:0:
320,192,85925,1,0,0:0:0:0:
448,192,85925,1,0,0:0:0:0:
192,192,85925,1,0,0:0:0:0:
64,192,85925,1,0,0:0:0:0:
64,192,86175,128,0,86238:0:0:0:0:
192,192,86175,128,0,86238:0:0:0:0:
448,192,86175,128,0,86238:0:0:0:0:
64,192,86425,128,0,86488:0:0:0:0:
192,192,86425,128,0,86488:0:0:0:0:
320,192,86425,128,0,86488:0:0:0:0:
448,192,86425,128,0,86488:0:0:0:0:
64,192,86925,128,0,86988:0:0:0:0:
320,192,86925,128,0,86988:0:0:0:0:
448,192,86925,128,0,86988:0:0:0:0:
320,192,87425,128,0,87488:0:0:0:0:
192,192,87425,128,0,87488:0:0:0:0:
64,192,87425,128,0,87488:0:0:0:0:
448,192,87675,128,0,88175:0:0:0:0:
192,192,87675,128,0,87738:0:0:0:0:
320,192,87675,128,0,87738:0:0:0:0:
64,192,88175,128,0,90925:0:0:0:0:
192,192,88175,128,0,88238:0:0:0:0:
320,192,88175,128,0,88238:0:0:0:0:
448,192,88425,128,0,88675:0:0:0:0:
192,192,88425,1,0,0:0:0:0:
320,192,88675,128,0,88925:0:0:0:0:
192,192,88925,128,0,89175:0:0:0:0:
448,192,88925,1,0,0:0:0:0:
448,192,89175,128,0,89675:0:0:0:0:
192,192,89675,128,0,90175:0:0:0:0:
320,192,89925,1,0,0:0:0:0:
448,192,89925,1,0,0:0:0:0:
320,192,90175,128,0,90425:0:0:0:0:
448,192,90425,128,0,90800:0:0:0:0:
192,192,90425,1,0,0:0:0:0:
192,192,90800,128,0,91175:0:0:0:0:
320,192,90925,1,0,0:0:0:0:
448,192,90925,1,0,0:0:0:0:
320,192,91175,128,0,91925:0:0:0:0:
64,192,91675,1,0,0:0:0:0:
192,192,91925,1,0,0:0:0:0:
64,192,91925,128,0,92175:0:0:0:0:
448,192,92175,128,0,93175:0:0:0:0:
192,192,92425,1,0,0:0:0:0:
64,192,92425,1,0,0:0:0:0:
64,192,92863,1,0,0:0:0:0:
320,192,92925,1,0,0:0:0:0:
192,192,92925,1,0,0:0:0:0:
64,192,93175,128,0,94175:0:0:0:0:
320,192,93175,1,0,0:0:0:0:
448,192,93675,1,0,0:0:0:0:
192,192,93925,1,0,0:0:0:0:
320,192,93925,1,0,0:0:0:0:
448,192,94175,128,0,94300:0:0:0:0:
320,192,94300,128,0,94425:0:0:0:0:
64,192,94425,1,0,0:0:0:0:
448,192,94488,1,0,0:0:0:0:
64,192,94550,1,0,0:0:0:0:
320,192,94613,1,0,0:0:0:0:
192,192,94675,1,0,0:0:0:0:
320,192,94738,1,0,0:0:0:0:
64,192,94800,1,0,0:0:0:0:
448,192,94863,1,0,0:0:0:0:
192,192,94925,1,0,0:0:0:0:
320,192,94988,1,0,0:0:0:0:
64,192,95050,1,0,0:0:0:0:
448,192,95113,1,0,0:0:0:0:
192,192,95175,1,0,0:0:0:0:
448,192,95238,1,0,0:0:0:0:
64,192,95300,1,0,0:0:0:0:
320,192,95363,1,0,0:0:0:0:
64,192,95425,1,0,0:0:0:0:
192,192,95467,1,0,0:0:0:0:
448,192,95509,1,0,0:0:0:0:
320,192,95550,1,0,0:0:0:0:
192,192,95592,1,0,0:0:0:0:
64,192,95634,1,0,0:0:0:0:
320,192,95675,1,0,0:0:0:0:
448,192,95717,1,0,0:0:0:0:
192,192,95759,1,0,0:0:0:0:
64,192,95800,1,0,0:0:0:0:
320,192,95842,1,0,0:0:0:0:
448,192,95884,1,0,0:0:0:0:
192,192,95925,1,0,0:0:0:0:
64,192,95967,1,0,0:0:0:0:
320,192,96009,1,0,0:0:0:0:
192,192,96050,1,0,0:0:0:0:
64,192,96092,1,0,0:0:0:0:
320,192,96134,1,0,0:0:0:0:
448,192,96175,1,0,0:0:0:0:
192,192,96217,1,0,0:0:0:0:
320,192,96259,1,0,0:0:0:0:
448,192,96300,1,0,0:0:0:0:
64,192,96342,1,0,0:0:0:0:
192,192,96425,128,0,96800:0:0:0:0:
448,192,96425,1,0,0:0:0:0:
320,192,96425,1,0,0:0:0:0:
64,192,96800,1,0,0:0:0:0:
320,192,96925,128,0,97175:0:0:0:0:
448,192,96925,1,0,0:0:0:0:
192,192,96925,1,0,0:0:0:0:
64,192,97175,128,0,97300:0:0:0:0:
192,192,97300,128,0,97675:0:0:0:0:
448,192,97425,1,0,0:0:0:0:
320,192,97425,1,0,0:0:0:0:
320,192,97675,1,0,0:0:0:0:
448,192,97925,1,0,0:0:0:0:
64,192,97925,1,0,0:0:0:0:
320,192,98175,128,0,98425:0:0:0:0:
448,192,98425,128,0,98800:0:0:0:0:
192,192,98425,1,0,0:0:0:0:
64,192,98425,1,0,0:0:0:0:
320,192,98800,1,0,0:0:0:0:
192,192,98925,128,0,99175:0:0:0:0:
64,192,98925,1,0,0:0:0:0:
448,192,98925,1,0,0:0:0:0:
320,192,99175,128,0,99300:0:0:0:0:
64,192,99300,128,0,99675:0:0:0:0:
448,192,99425,1,0,0:0:0:0:
192,192,99425,1,0,0:0:0:0:
320,192,99675,1,0,0:0:0:0:
192,192,99925,128,0,100175:0:0:0:0:
64,192,99925,1,0,0:0:0:0:
448,192,99925,1,0,0:0:0:0:
320,192,100175,128,0,100425:0:0:0:0:
448,192,100425,128,0,100675:0:0:0:0:
192,192,100425,1,0,0:0:0:0:
64,192,100425,1,0,0:0:0:0:
192,192,100675,128,0,100800:0:0:0:0:
64,192,100800,128,0,101050:0:0:0:0:
448,192,100800,1,0,0:0:0:0:
320,192,100925,1,0,0:0:0:0:
192,192,100925,1,0,0:0:0:0:
320,192,101175,128,0,101425:0:0:0:0:
448,192,101425,128,0,101925:0:0:0:0:
64,192,101425,1,0,0:0:0:0:
192,192,101425,1,0,0:0:0:0:
192,192,101675,1,0,0:0:0:0:
192,192,101925,128,0,102175:0:0:0:0:
64,192,101925,1,0,0:0:0:0:
320,192,101925,1,0,0:0:0:0:
320,192,102175,128,0,102425:0:0:0:0:
64,192,102425,128,0,102800:0:0:0:0:
448,192,102425,1,0,0:0:0:0:
192,192,102425,1,0,0:0:0:0:
320,192,102675,1,0,0:0:0:0:
192,192,102675,1,0,0:0:0:0:
320,192,102925,1,0,0:0:0:0:
448,192,102925,1,0,0:0:0:0:
192,192,103175,1,0,0:0:0:0:
64,192,103175,1,0,0:0:0:0:
320,192,103675,1,0,0:0:0:0:
64,192,103925,1,0,0:0:0:0:
448,192,103925,1,0,0:0:0:0:
192,192,104175,128,0,104425:0:0:0:0:
448,192,104425,128,0,104800:0:0:0:0:
64,192,104425,1,0,0:0:0:0:
320,192,104425,1,0,0:0:0:0:
64,192,104800,1,0,0:0:0:0:
320,192,104925,128,0,105175:0:0:0:0:
192,192,104925,1,0,0:0:0:0:
448,192,104925,1,0,0:0:0:0:
192,192,105175,128,0,105300:0:0:0:0:
64,192,105300,128,0,105675:0:0:0:0:
448,192,105425,1,0,0:0:0:0:
320,192,105425,1,0,0:0:0:0:
192,192,105675,1,0,0:0:0:0:
320,192,105925,128,0,106175:0:0:0:0:
64,192,105925,1,0,0:0:0:0:
448,192,105925,1,0,0:0:0:0:
192,192,106175,128,0,106425:0:0:0:0:
448,192,106425,128,0,106675:0:0:0:0:
64,192,106425,1,0,0:0:0:0:
320,192,106425,1,0,0:0:0:0:
320,192,106675,128,0,106925:0:0:0:0:
448,192,106800,1,0,0:0:0:0:
64,192,106925,128,0,107175:0:0:0:0:
192,192,106925,1,0,0:0:0:0:
320,192,107175,128,0,107300:0:0:0:0:
448,192,107175,1,0,0:0:0:0:
192,192,107300,128,0,107675:0:0:0:0:
64,192,107425,1,0,0:0:0:0:
448,192,107675,1,0,0:0:0:0:
320,192,107925,1,0,0:0:0:0:
192,192,107925,1,0,0:0:0:0:
64,192,108175,128,0,108425:0:0:0:0:
448,192,108425,128,0,109175:0:0:0:0:
192,192,108425,1,0,0:0:0:0:
320,192,108425,1,0,0:0:0:0:
64,192,108675,1,0,0:0:0:0:
64,192,108925,1,0,0:0:0:0:
192,192,108925,1,0,0:0:0:0:
320,192,109175,128,0,109425:0:0:0:0:
64,192,109425,128,0,109925:0:0:0:0:
192,192,109425,1,0,0:0:0:0:
448,192,109425,1,0,0:0:0:0:
320,192,109675,1,0,0:0:0:0:
192,192,109925,128,0,110425:0:0:0:0:
320,192,109925,1,0,0:0:0:0:
448,192,109925,1,0,0:0:0:0:
320,192,110425,128,0,111675:0:0:0:0:
448,192,110425,1,0,0:0:0:0:
64,192,110425,1,0,0:0:0:0:
192,192,110675,1,0,0:0:0:0:
64,192,110675,1,0,0:0:0:0:
192,192,110925,1,0,0:0:0:0:
448,192,110925,1,0,0:0:0:0:
64,192,111175,1,0,0:0:0:0:
448,192,111175,1,0,0:0:0:0:
192,192,111675,1,0,0:0:0:0:
448,192,111675,1,0,0:0:0:0:
64,192,111925,1,0,0:0:0:0:
448,192,111925,1,0,0:0:0:0:
192,192,112113,1,0,0:0:0:0:
448,192,112113,1,0,0:0:0:0:
64,192,112175,1,0,0:0:0:0:
320,192,112175,1,0,0:0:0:0:
64,192,112425,1,0,0:0:0:0:
192,192,112425,1,0,0:0:0:0:
320,192,112425,1,0,0:0:0:0:
448,192,112425,1,0,0:0:0:0:
64,192,112550,1,0,0:0:0:0:
448,192,112550,1,0,0:0:0:0:
192,192,112675,1,0,0:0:0:0:
320,192,112675,1,0,0:0:0:0:
320,192,112800,1,0,0:0:0:0:
64,192,112800,1,0,0:0:0:0:
64,192,112925,1,0,0:0:0:0:
448,192,112925,1,0,0:0:0:0:
192,192,112925,1,0,0:0:0:0:
448,192,113050,1,0,0:0:0:0:
320,192,113050,1,0,0:0:0:0:
192,192,113175,1,0,0:0:0:0:
64,192,113175,1,0,0:0:0:0:
192,192,113300,1,0,0:0:0:0:
448,192,113300,1,0,0:0:0:0:
64,192,113425,1,0,0:0:0:0:
320,192,113425,1,0,0:0:0:0:
448,192,113425,1,0,0:0:0:0:
192,192,113425,1,0,0:0:0:0:
320,192,113550,1,0,0:0:0:0:
64,192,113550,1,0,0:0:0:0:
192,192,113675,1,0,0:0:0:0:
448,192,113675,1,0,0:0:0:0:
448,192,113800,1,0,0:0:0:0:
320,192,113800,1,0,0:0:0:0:
320,192,113925,1,0,0:0:0:0:
64,192,113925,1,0,0:0:0:0:
192,192,113925,1,0,0:0:0:0:
64,192,114050,1,0,0:0:0:0:
448,192,114050,1,0,0:0:0:0:
320,192,114175,1,0,0:0:0:0:
448,192,114175,1,0,0:0:0:0:
320,192,114300,1,0,0:0:0:0:
64,192,114300,1,0,0:0:0:0:
64,192,114425,1,0,0:0:0:0:
192,192,114425,1,0,0:0:0:0:
320,192,114425,1,0,0:0:0:0:
448,192,114425,1,0,0:0:0:0:
192,192,114550,1,0,0:0:0:0:
64,192,114550,1,0,0:0:0:0:
64,192,114675,1,0,0:0:0:0:
448,192,114675,1,0,0:0:0:0:
320,192,114675,1,0,0:0:0:0:
64,192,114800,1,0,0:0:0:0:
192,192,114800,1,0,0:0:0:0:
448,192,114800,1,0,0:0:0:0:
320,192,114925,1,0,0:0:0:0:
448,192,114925,1,0,0:0:0:0:
192,192,114925,1,0,0:0:0:0:
64,192,114925,1,0,0:0:0:0:
448,192,115050,1,0,0:0:0:0:
320,192,115050,1,0,0:0:0:0:
192,192,115050,1,0,0:0:0:0:
320,192,115175,1,0,0:0:0:0:
64,192,115175,1,0,0:0:0:0:
192,192,115300,1,0,0:0:0:0:
448,192,115300,1,0,0:0:0:0:
192,192,115425,1,0,0:0:0:0:
64,192,115425,1,0,0:0:0:0:
320,192,115425,1,0,0:0:0:0:
448,192,115425,1,0,0:0:0:0:
64,192,115550,1,0,0:0:0:0:
320,192,115550,1,0,0:0:0:0:
192,192,115675,1,0,0:0:0:0:
448,192,115675,1,0,0:0:0:0:
320,192,115675,1,0,0:0:0:0:
64,192,115800,1,0,0:0:0:0:
192,192,115800,1,0,0:0:0:0:
448,192,115925,1,0,0:0:0:0:
64,192,115925,1,0,0:0:0:0:
192,192,115925,1,0,0:0:0:0:
320,192,115925,1,0,0:0:0:0:
320,192,116050,1,0,0:0:0:0:
448,192,116050,1,0,0:0:0:0:
64,192,116175,1,0,0:0:0:0:
320,192,116175,1,0,0:0:0:0:
448,192,116175,1,0,0:0:0:0:
192,192,116300,1,0,0:0:0:0:
64,192,116300,1,0,0:0:0:0:
64,192,116425,1,0,0:0:0:0:
192,192,116425,1,0,0:0:0:0:
320,192,116425,1,0,0:0:0:0:
448,192,116425,1,0,0:0:0:0:
320,192,116550,1,0,0:0:0:0:
64,192,116675,1,0,0:0:0:0:
448,192,116675,1,0,0:0:0:0:
64,192,116800,1,0,0:0:0:0:
320,192,116800,1,0,0:0:0:0:
320,192,116925,1,0,0:0:0:0:
448,192,116925,1,0,0:0:0:0:
192,192,116925,1,0,0:0:0:0:
320,192,117050,1,0,0:0:0:0:
448,192,117050,1,0,0:0:0:0:
192,192,117175,1,0,0:0:0:0:
64,192,117175,1,0,0:0:0:0:
64,192,117300,1,0,0:0:0:0:
448,192,117300,1,0,0:0:0:0:
64,192,117425,1,0,0:0:0:0:
192,192,117425,1,0,0:0:0:0:
320,192,117425,1,0,0:0:0:0:
448,192,117425,1,0,0:0:0:0:
320,192,117550,1,0,0:0:0:0:
192,192,117550,1,0,0:0:0:0:
448,192,117675,1,0,0:0:0:0:
192,192,117675,1,0,0:0:0:0:
64,192,117800,1,0,0:0:0:0:
448,192,117800,1,0,0:0:0:0:
192,192,117925,1,0,0:0:0:0:
320,192,117925,1,0,0:0:0:0:
64,192,117925,1,0,0:0:0:0:
320,192,118050,1,0,0:0:0:0:
192,192,118050,1,0,0:0:0:0:
192,192,118175,1,0,0:0:0:0:
448,192,118175,1,0,0:0:0:0:
448,192,118300,1,0,0:0:0:0:
64,192,118300,1,0,0:0:0:0:
448,192,118425,1,0,0:0:0:0:
320,192,118425,1,0,0:0:0:0:
192,192,118425,1,0,0:0:0:0:
64,192,118425,1,0,0:0:0:0:
64,192,118550,1,0,0:0:0:0:
320,192,118550,1,0,0:0:0:0:
192,192,118675,1,0,0:0:0:0:
320,192,118675,1,0,0:0:0:0:
448,192,118675,1,0,0:0:0:0:
64,192,118800,1,0,0:0:0:0:
448,192,118800,1,0,0:0:0:0:
192,192,118800,1,0,0:0:0:0:
64,192,118925,1,0,0:0:0:0:
192,192,118925,1,0,0:0:0:0:
320,192,118925,1,0,0:0:0:0:
448,192,118925,1,0,0:0:0:0:
192,192,119050,1,0,0:0:0:0:
320,192,119050,1,0,0:0:0:0:
320,192,119175,1,0,0:0:0:0:
448,192,119175,1,0,0:0:0:0:
64,192,119300,1,0,0:0:0:0:
192,192,119300,1,0,0:0:0:0:
192,192,119425,1,0,0:0:0:0:
320,192,119425,1,0,0:0:0:0:
448,192,119425,1,0,0:0:0:0:
64,192,119425,1,0,0:0:0:0:
320,192,119550,1,0,0:0:0:0:
192,192,119550,1,0,0:0:0:0:
64,192,119675,1,0,0:0:0:0:
448,192,119675,1,0,0:0:0:0:
64,192,119800,1,0,0:0:0:0:
320,192,119800,1,0,0:0:0:0:
320,192,119925,1,0,0:0:0:0:
192,192,119925,1,0,0:0:0:0:
64,192,119925,1,0,0:0:0:0:
448,192,119925,1,0,0:0:0:0:
192,192,120050,1,0,0:0:0:0:
448,192,120050,1,0,0:0:0:0:
64,192,120175,1,0,0:0:0:0:
320,192,120175,1,0,0:0:0:0:
448,192,120175,1,0,0:0:0:0:
320,192,120300,1,0,0:0:0:0:
192,192,120300,1,0,0:0:0:0:
64,192,120425,1,0,0:0:0:0:
192,192,120425,1,0,0:0:0:0:
320,192,120425,1,0,0:0:0:0:
448,192,120425,1,0,0:0:0:0:
64,192,120550,1,0,0:0:0:0:
192,192,120550,1,0,0:0:0:0:
192,192,120675,1,0,0:0:0:0:
448,192,120675,1,0,0:0:0:0:
320,192,120800,1,0,0:0:0:0:
448,192,120800,1,0,0:0:0:0:
64,192,120925,1,0,0:0:0:0:
448,192,120925,1,0,0:0:0:0:
192,192,120925,1,0,0:0:0:0:
64,192,121050,1,0,0:0:0:0:
192,192,121050,1,0,0:0:0:0:
320,192,121175,1,0,0:0:0:0:
448,192,121175,1,0,0:0:0:0:
192,192,121300,1,0,0:0:0:0:
320,192,121300,1,0,0:0:0:0:
64,192,121425,1,0,0:0:0:0:
192,192,121425,1,0,0:0:0:0:
320,192,121425,1,0,0:0:0:0:
448,192,121425,1,0,0:0:0:0:
64,192,121550,1,0,0:0:0:0:
448,192,121550,1,0,0:0:0:0:
192,192,121675,1,0,0:0:0:0:
320,192,121675,1,0,0:0:0:0:
64,192,121800,1,0,0:0:0:0:
192,192,121800,1,0,0:0:0:0:
448,192,121925,1,0,0:0:0:0:
64,192,121925,1,0,0:0:0:0:
320,192,121925,1,0,0:0:0:0:
192,192,122050,1,0,0:0:0:0:
448,192,122050,1,0,0:0:0:0:
320,192,122175,1,0,0:0:0:0:
64,192,122175,1,0,0:0:0:0:
192,192,122300,1,0,0:0:0:0:
448,192,122300,1,0,0:0:0:0:
64,192,122425,1,0,0:0:0:0:
192,192,122425,1,0,0:0:0:0:
320,192,122425,1,0,0:0:0:0:
448,192,122425,1,0,0:0:0:0:
64,192,122550,1,0,0:0:0:0:
448,192,122550,1,0,0:0:0:0:
320,192,122675,1,0,0:0:0:0:
192,192,122675,1,0,0:0:0:0:
64,192,122675,1,0,0:0:0:0:
448,192,122800,1,0,0:0:0:0:
320,192,122800,1,0,0:0:0:0:
192,192,122925,1,0,0:0:0:0:
320,192,122925,1,0,0:0:0:0:
448,192,122925,1,0,0:0:0:0:
64,192,122925,1,0,0:0:0:0:
192,192,123050,1,0,0:0:0:0:
64,192,123050,1,0,0:0:0:0:
448,192,123175,1,0,0:0:0:0:
192,192,123175,1,0,0:0:0:0:
64,192,123175,1,0,0:0:0:0:
320,192,123300,1,0,0:0:0:0:
448,192,123300,1,0,0:0:0:0:
64,192,123425,1,0,0:0:0:0:
192,192,123425,1,0,0:0:0:0:
320,192,123425,1,0,0:0:0:0:
448,192,123425,1,0,0:0:0:0:
192,192,123550,1,0,0:0:0:0:
320,192,123550,1,0,0:0:0:0:
64,192,123675,1,0,0:0:0:0:
448,192,123675,1,0,0:0:0:0:
192,192,123800,1,0,0:0:0:0:
320,192,123800,1,0,0:0:0:0:
64,192,123925,1,0,0:0:0:0:
192,192,123925,1,0,0:0:0:0:
448,192,123925,1,0,0:0:0:0:
320,192,123925,1,0,0:0:0:0:
192,192,124175,1,0,0:0:0:0:
64,192,124175,1,0,0:0:0:0:
192,192,124300,1,0,0:0:0:0:
64,192,124300,1,0,0:0:0:0:
192,192,124425,1,0,0:0:0:0:
320,192,124425,1,0,0:0:0:0:
64,192,124425,1,0,0:0:0:0:
192,192,124550,1,0,0:0:0:0:
320,192,124550,1,0,0:0:0:0:
64,192,124550,1,0,0:0:0:0:
320,192,124675,1,0,0:0:0:0:
448,192,124675,1,0,0:0:0:0:
448,192,124800,1,0,0:0:0:0:
320,192,124800,1,0,0:0:0:0:
64,192,124925,1,0,0:0:0:0:
448,192,124925,1,0,0:0:0:0:
320,192,124925,1,0,0:0:0:0:
64,192,125050,1,0,0:0:0:0:
448,192,125050,1,0,0:0:0:0:
192,192,125175,1,0,0:0:0:0:
64,192,125175,1,0,0:0:0:0:
192,192,125300,1,0,0:0:0:0:
64,192,125300,1,0,0:0:0:0:
192,192,125425,1,0,0:0:0:0:
448,192,125425,1,0,0:0:0:0:
192,192,125550,1,0,0:0:0:0:
448,192,125550,1,0,0:0:0:0:
320,192,125675,1,0,0:0:0:0:
64,192,125675,1,0,0:0:0:0:
64,192,125800,1,0,0:0:0:0:
320,192,125800,1,0,0:0:0:0:
448,192,125925,1,0,0:0:0:0:
320,192,125925,1,0,0:0:0:0:
64,192,125925,1,0,0:0:0:0:
448,192,126050,1,0,0:0:0:0:
320,192,126050,1,0,0:0:0:0:
64,192,126175,1,0,0:0:0:0:
192,192,126175,1,0,0:0:0:0:
192,192,126300,1,0,0:0:0:0:
64,192,126300,1,0,0:0:0:0:
192,192,126425,1,0,0:0:0:0:
64,192,126425,1,0,0:0:0:0:
320,192,126425,1,0,0:0:0:0:
448,192,126425,1,0,0:0:0:0:
320,192,126550,1,0,0:0:0:0:
448,192,126550,1,0,0:0:0:0:
320,192,126675,1,0,0:0:0:0:
448,192,126675,1,0,0:0:0:0:
320,192,126800,1,0,0:0:0:0:
448,192,126800,1,0,0:0:0:0:
448,192,126925,1,0,0:0:0:0:
320,192,126925,1,0,0:0:0:0:
192,192,126925,1,0,0:0:0:0:
64,192,126925,1,0,0:0:0:0:
192,192,127050,1,0,0:0:0:0:
64,192,127050,1,0,0:0:0:0:
192,192,127175,1,0,0:0:0:0:
64,192,127175,1,0,0:0:0:0:
192,192,127300,1,0,0:0:0:0:
64,192,127300,1,0,0:0:0:0:
64,192,127425,1,0,0:0:0:0:
192,192,127425,1,0,0:0:0:0:
320,192,127425,1,0,0:0:0:0:
448,192,127425,1,0,0:0:0:0:
320,192,127550,1,0,0:0:0:0:
448,192,127550,1,0,0:0:0:0:
448,192,127675,1,0,0:0:0:0:
320,192,127675,1,0,0:0:0:0:
192,192,127675,1,0,0:0:0:0:
64,192,127675,1,0,0:0:0:0:
64,192,127925,1,0,0:0:0:0:
448,192,127925,1,0,0:0:0:0:
64,192,128113,1,0,0:0:0:0:
192,192,128113,1,0,0:0:0:0:
320,192,128175,1,0,0:0:0:0:
448,192,128175,1,0,0:0:0:0:
448,192,128425,1,0,0:0:0:0:
320,192,128425,1,0,0:0:0:0:
64,192,128425,1,0,0:0:0:0:
192,192,128425,1,0,0:0:0:0:
192,192,128550,1,0,0:0:0:0:
448,192,128550,1,0,0:0:0:0:
320,192,128675,1,0,0:0:0:0:
192,192,128675,1,0,0:0:0:0:
64,192,128675,1,0,0:0:0:0:
320,192,128800,1,0,0:0:0:0:
64,192,128800,1,0,0:0:0:0:
192,192,128925,1,0,0:0:0:0:
320,192,128925,1,0,0:0:0:0:
448,192,128925,1,0,0:0:0:0:
64,192,128925,1,0,0:0:0:0:
448,192,129050,1,0,0:0:0:0:
320,192,129050,1,0,0:0:0:0:
448,192,129175,1,0,0:0:0:0:
64,192,129175,1,0,0:0:0:0:
192,192,129175,1,0,0:0:0:0:
192,192,129300,1,0,0:0:0:0:
64,192,129300,1,0,0:0:0:0:
320,192,129300,1,0,0:0:0:0:
192,192,129425,1,0,0:0:0:0:
320,192,129425,1,0,0:0:0:0:
448,192,129425,1,0,0:0:0:0:
320,192,129550,1,0,0:0:0:0:
448,192,129550,1,0,0:0:0:0:
64,192,129550,1,0,0:0:0:0:
320,192,129675,1,0,0:0:0:0:
448,192,129675,1,0,0:0:0:0:
192,192,129675,1,0,0:0:0:0:
192,192,129800,1,0,0:0:0:0:
64,192,129800,1,0,0:0:0:0:
448,192,129925,1,0,0:0:0:0:
320,192,129925,1,0,0:0:0:0:
192,192,129925,1,0,0:0:0:0:
64,192,129925,1,0,0:0:0:0:
192,192,130050,1,0,0:0:0:0:
448,192,130050,1,0,0:0:0:0:
320,192,130050,1,0,0:0:0:0:
320,192,130175,1,0,0:0:0:0:
64,192,130175,1,0,0:0:0:0:
192,192,130175,1,0,0:0:0:0:
320,192,130300,1,0,0:0:0:0:
448,192,130300,1,0,0:0:0:0:
64,192,130300,1,0,0:0:0:0:
448,192,130425,1,0,0:0:0:0:
192,192,130425,1,0,0:0:0:0:
64,192,130425,1,0,0:0:0:0:
320,192,130550,1,0,0:0:0:0:
192,192,130550,1,0,0:0:0:0:
448,192,130675,1,0,0:0:0:0:
64,192,130675,1,0,0:0:0:0:
320,192,130675,1,0,0:0:0:0:
448,192,130800,1,0,0:0:0:0:
192,192,130800,1,0,0:0:0:0:
448,192,130925,1,0,0:0:0:0:
320,192,130925,1,0,0:0:0:0:
192,192,130925,1,0,0:0:0:0:
64,192,130925,1,0,0:0:0:0:
320,192,131050,1,0,0:0:0:0:
64,192,131050,1,0,0:0:0:0:
192,192,131175,1,0,0:0:0:0:
64,192,131175,1,0,0:0:0:0:
448,192,131175,1,0,0:0:0:0:
192,192,131300,1,0,0:0:0:0:
320,192,131300,1,0,0:0:0:0:
64,192,131300,1,0,0:0:0:0:
448,192,131425,1,0,0:0:0:0:
320,192,131425,1,0,0:0:0:0:
64,192,131425,1,0,0:0:0:0:
448,192,131550,1,0,0:0:0:0:
192,192,131550,1,0,0:0:0:0:
320,192,131550,1,0,0:0:0:0:
192,192,131675,1,0,0:0:0:0:
64,192,131675,1,0,0:0:0:0:
320,192,131675,1,0,0:0:0:0:
448,192,131800,1,0,0:0:0:0:
64,192,131800,1,0,0:0:0:0:
448,192,131925,1,0,0:0:0:0:
320,192,131925,1,0,0:0:0:0:
192,192,131925,1,0,0:0:0:0:
64,192,131925,1,0,0:0:0:0:
320,192,132050,1,0,0:0:0:0:
192,192,132050,1,0,0:0:0:0:
320,192,132175,1,0,0:0:0:0:
448,192,132175,1,0,0:0:0:0:
64,192,132175,1,0,0:0:0:0:
448,192,132300,1,0,0:0:0:0:
192,192,132300,1,0,0:0:0:0:
320,192,132425,1,0,0:0:0:0:
64,192,132425,1,0,0:0:0:0:
192,192,132425,1,0,0:0:0:0:
320,192,132550,1,0,0:0:0:0:
64,192,132550,1,0,0:0:0:0:
192,192,132675,1,0,0:0:0:0:
448,192,132675,1,0,0:0:0:0:
64,192,132675,1,0,0:0:0:0:
320,192,132800,1,0,0:0:0:0:
448,192,132800,1,0,0:0:0:0:
448,192,132925,1,0,0:0:0:0:
320,192,132925,1,0,0:0:0:0:
192,192,132925,1,0,0:0:0:0:
64,192,132925,1,0,0:0:0:0:
64,192,133050,1,0,0:0:0:0:
192,192,133050,1,0,0:0:0:0:
448,192,133175,1,0,0:0:0:0:
192,192,133175,1,0,0:0:0:0:
320,192,133175,1,0,0:0:0:0:
64,192,133300,1,0,0:0:0:0:
320,192,133300,1,0,0:0:0:0:
192,192,133300,1,0,0:0:0:0:
320,192,133425,1,0,0:0:0:0:
448,192,133425,1,0,0:0:0:0:
64,192,133425,1,0,0:0:0:0:
192,192,133550,1,0,0:0:0:0:
64,192,133550,1,0,0:0:0:0:
448,192,133675,1,0,0:0:0:0:
320,192,133675,1,0,0:0:0:0:
192,192,133675,1,0,0:0:0:0:
64,192,133800,1,0,0:0:0:0:
448,192,133800,1,0,0:0:0:0:
64,192,133925,1,0,0:0:0:0:
192,192,133925,1,0,0:0:0:0:
320,192,133925,1,0,0:0:0:0:
448,192,133925,1,0,0:0:0:0:
192,192,134050,1,0,0:0:0:0:
320,192,134050,1,0,0:0:0:0:
448,192,134175,1,0,0:0:0:0:
64,192,134175,1,0,0:0:0:0:
320,192,134175,1,0,0:0:0:0:
448,192,134300,1,0,0:0:0:0:
64,192,134300,1,0,0:0:0:0:
448,192,134425,1,0,0:0:0:0:
320,192,134425,1,0,0:0:0:0:
192,192,134425,1,0,0:0:0:0:
320,192,134550,1,0,0:0:0:0:
192,192,134550,1,0,0:0:0:0:
448,192,134550,1,0,0:0:0:0:
448,192,134675,1,0,0:0:0:0:
320,192,134675,1,0,0:0:0:0:
192,192,134675,1,0,0:0:0:0:
320,192,134800,1,0,0:0:0:0:
192,192,134800,1,0,0:0:0:0:
64,192,134800,1,0,0:0:0:0:
448,192,134925,1,0,0:0:0:0:
192,192,134925,1,0,0:0:0:0:
320,192,134925,1,0,0:0:0:0:
64,192,134925,1,0,0:0:0:0:
320,192,135050,1,0,0:0:0:0:
192,192,135050,1,0,0:0:0:0:
64,192,135050,1,0,0:0:0:0:
448,192,135175,1,0,0:0:0:0:
64,192,135175,1,0,0:0:0:0:
320,192,135175,1,0,0:0:0:0:
192,192,135300,1,0,0:0:0:0:
320,192,135300,1,0,0:0:0:0:
448,192,135300,1,0,0:0:0:0:
448,192,135425,1,0,0:0:0:0:
64,192,135425,1,0,0:0:0:0:
320,192,135425,1,0,0:0:0:0:
320,192,135550,1,0,0:0:0:0:
192,192,135550,1,0,0:0:0:0:
448,192,135550,1,0,0:0:0:0:
448,192,135675,1,0,0:0:0:0:
64,192,135675,1,0,0:0:0:0:
320,192,135675,1,0,0:0:0:0:
192,192,135800,1,0,0:0:0:0:
64,192,135800,1,0,0:0:0:0:
448,192,135925,1,0,0:0:0:0:
320,192,135925,1,0,0:0:0:0:
64,192,135925,1,0,0:0:0:0:
192,192,135925,1,0,0:0:0:0:
64,192,136050,1,0,0:0:0:0:
320,192,136050,1,0,0:0:0:0:
448,192,136175,1,0,0:0:0:0:
192,192,136175,1,0,0:0:0:0:
320,192,136175,1,0,0:0:0:0:
448,192,136300,1,0,0:0:0:0:
192,192,136300,1,0,0:0:0:0:
448,192,136425,1,0,0:0:0:0:
320,192,136425,1,0,0:0:0:0:
192,192,136425,1,0,0:0:0:0:
64,192,136425,1,0,0:0:0:0:
192,192,136550,1,0,0:0:0:0:
64,192,136550,1,0,0:0:0:0:
448,192,136675,1,0,0:0:0:0:
320,192,136675,1,0,0:0:0:0:
64,192,136675,1,0,0:0:0:0:
448,192,136800,1,0,0:0:0:0:
192,192,136800,1,0,0:0:0:0:
320,192,136925,1,0,0:0:0:0:
192,192,136925,1,0,0:0:0:0:
64,192,136925,1,0,0:0:0:0:
448,192,136925,1,0,0:0:0:0:
320,192,137050,1,0,0:0:0:0:
64,192,137050,1,0,0:0:0:0:
448,192,137175,1,0,0:0:0:0:
192,192,137175,1,0,0:0:0:0:
64,192,137175,1,0,0:0:0:0:
192,192,137300,1,0,0:0:0:0:
320,192,137300,1,0,0:0:0:0:
64,192,137300,1,0,0:0:0:0:
320,192,137425,1,0,0:0:0:0:
448,192,137425,1,0,0:0:0:0:
192,192,137425,1,0,0:0:0:0:
448,192,137550,1,0,0:0:0:0:
64,192,137550,1,0,0:0:0:0:
320,192,137550,1,0,0:0:0:0:
192,192,137675,1,0,0:0:0:0:
64,192,137675,1,0,0:0:0:0:
320,192,137675,1,0,0:0:0:0:
192,192,137800,1,0,0:0:0:0:
448,192,137800,1,0,0:0:0:0:
448,192,137925,1,0,0:0:0:0:
320,192,137925,1,0,0:0:0:0:
192,192,137925,1,0,0:0:0:0:
64,192,137925,1,0,0:0:0:0:
64,192,138050,1,0,0:0:0:0:
320,192,138050,1,0,0:0:0:0:
448,192,138050,1,0,0:0:0:0:
448,192,138175,1,0,0:0:0:0:
320,192,138175,1,0,0:0:0:0:
192,192,138175,1,0,0:0:0:0:
192,192,138300,1,0,0:0:0:0:
64,192,138300,1,0,0:0:0:0:
320,192,138300,1,0,0:0:0:0:
192,192,138425,1,0,0:0:0:0:
320,192,138425,1,0,0:0:0:0:
448,192,138425,1,0,0:0:0:0:
192,192,138550,1,0,0:0:0:0:
64,192,138550,1,0,0:0:0:0:
320,192,138675,1,0,0:0:0:0:
448,192,138675,1,0,0:0:0:0:
64,192,138675,1,0,0:0:0:0:
448,192,138800,1,0,0:0:0:0:
192,192,138800,1,0,0:0:0:0:
320,192,138925,1,0,0:0:0:0:
64,192,138925,1,0,0:0:0:0:
192,192,138925,1,0,0:0:0:0:
448,192,138925,1,0,0:0:0:0:
192,192,139050,1,0,0:0:0:0:
320,192,139050,1,0,0:0:0:0:
320,192,139175,1,0,0:0:0:0:
448,192,139175,1,0,0:0:0:0:
64,192,139175,1,0,0:0:0:0:
192,192,139300,1,0,0:0:0:0:
64,192,139300,1,0,0:0:0:0:
192,192,139425,1,0,0:0:0:0:
320,192,139425,1,0,0:0:0:0:
448,192,139425,1,0,0:0:0:0:
448,192,139550,1,0,0:0:0:0:
64,192,139550,1,0,0:0:0:0:
448,192,139675,1,0,0:0:0:0:
192,192,139675,1,0,0:0:0:0:
320,192,139675,1,0,0:0:0:0:
320,192,139800,1,0,0:0:0:0:
64,192,139800,1,0,0:0:0:0:
448,192,139925,1,0,0:0:0:0:
320,192,139925,1,0,0:0:0:0:
192,192,139925,1,0,0:0:0:0:
64,192,139925,1,0,0:0:0:0:
192,192,140050,1,0,0:0:0:0:
448,192,140050,1,0,0:0:0:0:
320,192,140175,1,0,0:0:0:0:
192,192,140175,1,0,0:0:0:0:
64,192,140175,1,0,0:0:0:0:
448,192,140300,1,0,0:0:0:0:
64,192,140300,1,0,0:0:0:0:
320,192,140300,1,0,0:0:0:0:
320,192,140425,1,0,0:0:0:0:
192,192,140425,1,0,0:0:0:0:
448,192,140425,1,0,0:0:0:0:
192,192,140550,1,0,0:0:0:0:
64,192,140550,1,0,0:0:0:0:
320,192,140550,1,0,0:0:0:0:
64,192,140675,1,0,0:0:0:0:
448,192,140675,1,0,0:0:0:0:
192,192,140675,1,0,0:0:0:0:
320,192,140800,1,0,0:0:0:0:
448,192,140800,1,0,0:0:0:0:
64,192,140800,1,0,0:0:0:0:
320,192,140925,1,0,0:0:0:0:
192,192,140925,1,0,0:0:0:0:
64,192,140925,1,0,0:0:0:0:
448,192,140925,1,0,0:0:0:0:
192,192,141050,1,0,0:0:0:0:
64,192,141050,1,0,0:0:0:0:
448,192,141050,1,0,0:0:0:0:
64,192,141175,1,0,0:0:0:0:
320,192,141175,1,0,0:0:0:0:
448,192,141175,1,0,0:0:0:0:
448,192,141300,1,0,0:0:0:0:
320,192,141300,1,0,0:0:0:0:
192,192,141300,1,0,0:0:0:0:
320,192,141425,1,0,0:0:0:0:
192,192,141425,1,0,0:0:0:0:
64,192,141425,1,0,0:0:0:0:
320,192,141550,1,0,0:0:0:0:
64,192,141550,1,0,0:0:0:0:
448,192,141550,1,0,0:0:0:0:
448,192,141675,1,0,0:0:0:0:
64,192,141675,1,0,0:0:0:0:
192,192,141675,1,0,0:0:0:0:
320,192,141800,1,0,0:0:0:0:
192,192,141800,1,0,0:0:0:0:
320,192,141925,1,0,0:0:0:0:
448,192,141925,1,0,0:0:0:0:
192,192,141925,1,0,0:0:0:0:
64,192,141925,1,0,0:0:0:0:
448,192,142050,1,0,0:0:0:0:
64,192,142050,1,0,0:0:0:0:
320,192,142175,1,0,0:0:0:0:
192,192,142175,1,0,0:0:0:0:
64,192,142175,1,0,0:0:0:0:
192,192,142300,1,0,0:0:0:0:
448,192,142300,1,0,0:0:0:0:
448,192,142425,1,0,0:0:0:0:
320,192,142425,1,0,0:0:0:0:
64,192,142425,1,0,0:0:0:0:
448,192,142550,1,0,0:0:0:0:
64,192,142550,1,0,0:0:0:0:
320,192,142675,1,0,0:0:0:0:
192,192,142675,1,0,0:0:0:0:
448,192,142800,1,0,0:0:0:0:
64,192,142800,1,0,0:0:0:0:
448,192,142925,1,0,0:0:0:0:
320,192,142925,1,0,0:0:0:0:
192,192,142925,1,0,0:0:0:0:
64,192,142925,1,0,0:0:0:0:
320,192,143050,1,0,0:0:0:0:
192,192,143050,1,0,0:0:0:0:
192,192,143175,1,0,0:0:0:0:
448,192,143175,1,0,0:0:0:0:
320,192,143300,1,0,0:0:0:0:
64,192,143300,1,0,0:0:0:0:
448,192,143425,1,0,0:0:0:0:
192,192,143425,1,0,0:0:0:0:
64,192,143425,1,0,0:0:0:0:
320,192,143550,1,0,0:0:0:0:
192,192,143550,1,0,0:0:0:0:
320,192,143675,1,0,0:0:0:0:
448,192,143675,1,0,0:0:0:0:
64,192,143675,1,0,0:0:0:0:
448,192,143800,1,0,0:0:0:0:
192,192,143800,1,0,0:0:0:0:
64,192,143925,1,0,0:0:0:0:
192,192,143925,1,0,0:0:0:0:
320,192,143925,1,0,0:0:0:0:
448,192,143925,1,0,0:0:0:0:
64,192,144113,1,0,0:0:0:0:
448,192,144113,1,0,0:0:0:0:
192,192,144175,1,0,0:0:0:0:
320,192,144175,1,0,0:0:0:0:
64,192,144425,1,0,0:0:0:0:
448,192,144425,1,0,0:0:0:0:
192,192,144425,1,0,0:0:0:0:
320,192,144425,1,0,0:0:0:0:
320,192,144550,1,0,0:0:0:0:
64,192,144550,1,0,0:0:0:0:
192,192,144675,1,0,0:0:0:0:
320,192,144675,1,0,0:0:0:0:
448,192,144675,1,0,0:0:0:0:
192,192,144800,1,0,0:0:0:0:
448,192,144800,1,0,0:0:0:0:
320,192,144925,1,0,0:0:0:0:
192,192,144925,1,0,0:0:0:0:
64,192,144925,1,0,0:0:0:0:
448,192,144925,1,0,0:0:0:0:
64,192,145050,1,0,0:0:0:0:
192,192,145050,1,0,0:0:0:0:
64,192,145175,1,0,0:0:0:0:
448,192,145175,1,0,0:0:0:0:
320,192,145175,1,0,0:0:0:0:
320,192,145300,1,0,0:0:0:0:
448,192,145300,1,0,0:0:0:0:
192,192,145300,1,0,0:0:0:0:
320,192,145425,1,0,0:0:0:0:
192,192,145425,1,0,0:0:0:0:
64,192,145425,1,0,0:0:0:0:
192,192,145550,1,0,0:0:0:0:
64,192,145550,1,0,0:0:0:0:
448,192,145550,1,0,0:0:0:0:
192,192,145675,1,0,0:0:0:0:
64,192,145675,1,0,0:0:0:0:
320,192,145675,1,0,0:0:0:0:
320,192,145800,1,0,0:0:0:0:
448,192,145800,1,0,0:0:0:0:
64,192,145925,1,0,0:0:0:0:
192,192,145925,1,0,0:0:0:0:
320,192,145925,1,0,0:0:0:0:
448,192,145925,1,0,0:0:0:0:
320,192,146050,1,0,0:0:0:0:
64,192,146050,1,0,0:0:0:0:
192,192,146050,1,0,0:0:0:0:
192,192,146175,1,0,0:0:0:0:
448,192,146175,1,0,0:0:0:0:
320,192,146175,1,0,0:0:0:0:
192,192,146300,1,0,0:0:0:0:
64,192,146300,1,0,0:0:0:0:
448,192,146300,1,0,0:0:0:0:
64,192,146425,1,0,0:0:0:0:
320,192,146425,1,0,0:0:0:0:
448,192,146425,1,0,0:0:0:0:
192,192,146550,1,0,0:0:0:0:
320,192,146550,1,0,0:0:0:0:
64,192,146675,1,0,0:0:0:0:
448,192,146675,1,0,0:0:0:0:
192,192,146675,1,0,0:0:0:0:
64,192,146800,1,0,0:0:0:0:
320,192,146800,1,0,0:0:0:0:
64,192,146925,1,0,0:0:0:0:
192,192,146925,1,0,0:0:0:0:
320,192,146925,1,0,0:0:0:0:
448,192,146925,1,0,0:0:0:0:
192,192,147050,1,0,0:0:0:0:
448,192,147050,1,0,0:0:0:0:
320,192,147175,1,0,0:0:0:0:
448,192,147175,1,0,0:0:0:0:
64,192,147175,1,0,0:0:0:0:
320,192,147300,1,0,0:0:0:0:
192,192,147300,1,0,0:0:0:0:
448,192,147300,1,0,0:0:0:0:
64,192,147425,1,0,0:0:0:0:
192,192,147425,1,0,0:0:0:0:
448,192,147425,1,0,0:0:0:0:
64,192,147550,1,0,0:0:0:0:
320,192,147550,1,0,0:0:0:0:
192,192,147550,1,0,0:0:0:0:
320,192,147675,1,0,0:0:0:0:
448,192,147675,1,0,0:0:0:0:
192,192,147675,1,0,0:0:0:0:
64,192,147800,1,0,0:0:0:0:
448,192,147800,1,0,0:0:0:0:
64,192,147925,1,0,0:0:0:0:
192,192,147925,1,0,0:0:0:0:
320,192,147925,1,0,0:0:0:0:
448,192,147925,1,0,0:0:0:0:
192,192,148050,1,0,0:0:0:0:
320,192,148050,1,0,0:0:0:0:
192,192,148175,1,0,0:0:0:0:
64,192,148175,1,0,0:0:0:0:
448,192,148175,1,0,0:0:0:0:
64,192,148300,1,0,0:0:0:0:
320,192,148300,1,0,0:0:0:0:
192,192,148425,1,0,0:0:0:0:
448,192,148425,1,0,0:0:0:0:
320,192,148425,1,0,0:0:0:0:
192,192,148550,1,0,0:0:0:0:
448,192,148550,1,0,0:0:0:0:
320,192,148675,1,0,0:0:0:0:
64,192,148675,1,0,0:0:0:0:
448,192,148675,1,0,0:0:0:0:
192,192,148800,1,0,0:0:0:0:
64,192,148800,1,0,0:0:0:0:
64,192,148925,1,0,0:0:0:0:
192,192,148925,1,0,0:0:0:0:
320,192,148925,1,0,0:0:0:0:
448,192,148925,1,0,0:0:0:0:
448,192,149050,1,0,0:0:0:0:
320,192,149050,1,0,0:0:0:0:
64,192,149175,1,0,0:0:0:0:
320,192,149175,1,0,0:0:0:0:
192,192,149175,1,0,0:0:0:0:
448,192,149300,1,0,0:0:0:0:
192,192,149300,1,0,0:0:0:0:
320,192,149300,1,0,0:0:0:0:
192,192,149425,1,0,0:0:0:0:
64,192,149425,1,0,0:0:0:0:
448,192,149425,1,0,0:0:0:0:
320,192,149550,1,0,0:0:0:0:
448,192,149550,1,0,0:0:0:0:
64,192,149675,1,0,0:0:0:0:
192,192,149675,1,0,0:0:0:0:
320,192,149675,1,0,0:0:0:0:
448,192,149800,1,0,0:0:0:0:
64,192,149800,1,0,0:0:0:0:
448,192,149925,1,0,0:0:0:0:
320,192,149925,1,0,0:0:0:0:
192,192,149925,1,0,0:0:0:0:
64,192,149925,1,0,0:0:0:0:
320,192,150050,1,0,0:0:0:0:
192,192,150050,1,0,0:0:0:0:
64,192,150175,1,0,0:0:0:0:
448,192,150175,1,0,0:0:0:0:
192,192,150175,1,0,0:0:0:0:
64,192,150300,1,0,0:0:0:0:
448,192,150300,1,0,0:0:0:0:
64,192,150425,1,0,0:0:0:0:
192,192,150425,1,0,0:0:0:0:
320,192,150425,1,0,0:0:0:0:
192,192,150550,1,0,0:0:0:0:
320,192,150550,1,0,0:0:0:0:
64,192,150550,1,0,0:0:0:0:
64,192,150675,1,0,0:0:0:0:
192,192,150675,1,0,0:0:0:0:
320,192,150675,1,0,0:0:0:0:
192,192,150800,1,0,0:0:0:0:
320,192,150800,1,0,0:0:0:0:
448,192,150800,1,0,0:0:0:0:
64,192,150925,1,0,0:0:0:0:
320,192,150925,1,0,0:0:0:0:
192,192,150925,1,0,0:0:0:0:
448,192,150925,1,0,0:0:0:0:
192,192,151050,1,0,0:0:0:0:
320,192,151050,1,0,0:0:0:0:
448,192,151050,1,0,0:0:0:0:
64,192,151175,1,0,0:0:0:0:
448,192,151175,1,0,0:0:0:0:
192,192,151175,1,0,0:0:0:0:
320,192,151300,1,0,0:0:0:0:
192,192,151300,1,0,0:0:0:0:
64,192,151300,1,0,0:0:0:0:
64,192,151425,1,0,0:0:0:0:
448,192,151425,1,0,0:0:0:0:
192,192,151425,1,0,0:0:0:0:
192,192,151550,1,0,0:0:0:0:
320,192,151550,1,0,0:0:0:0:
64,192,151550,1,0,0:0:0:0:
64,192,151675,1,0,0:0:0:0:
448,192,151675,1,0,0:0:0:0:
192,192,151675,1,0,0:0:0:0:
320,192,151800,1,0,0:0:0:0:
448,192,151800,1,0,0:0:0:0:
64,192,151925,1,0,0:0:0:0:
192,192,151925,1,0,0:0:0:0:
448,192,151925,1,0,0:0:0:0:
320,192,151925,1,0,0:0:0:0:
448,192,152050,1,0,0:0:0:0:
192,192,152050,1,0,0:0:0:0:
64,192,152175,1,0,0:0:0:0:
320,192,152175,1,0,0:0:0:0:
192,192,152175,1,0,0:0:0:0:
64,192,152300,1,0,0:0:0:0:
320,192,152300,1,0,0:0:0:0:
64,192,152425,1,0,0:0:0:0:
192,192,152425,1,0,0:0:0:0:
448,192,152425,1,0,0:0:0:0:
320,192,152550,1,0,0:0:0:0:
448,192,152550,1,0,0:0:0:0:
64,192,152675,1,0,0:0:0:0:
192,192,152675,1,0,0:0:0:0:
448,192,152675,1,0,0:0:0:0:
64,192,152800,1,0,0:0:0:0:
320,192,152800,1,0,0:0:0:0:
192,192,152925,1,0,0:0:0:0:
320,192,152925,1,0,0:0:0:0:
448,192,152925,1,0,0:0:0:0:
64,192,152925,1,0,0:0:0:0:
192,192,153050,1,0,0:0:0:0:
448,192,153050,1,0,0:0:0:0:
64,192,153175,1,0,0:0:0:0:
320,192,153175,1,0,0:0:0:0:
448,192,153175,1,0,0:0:0:0:
320,192,153300,1,0,0:0:0:0:
192,192,153300,1,0,0:0:0:0:
448,192,153300,1,0,0:0:0:0:
192,192,153425,1,0,0:0:0:0:
64,192,153425,1,0,0:0:0:0:
320,192,153425,1,0,0:0:0:0:
64,192,153550,1,0,0:0:0:0:
448,192,153550,1,0,0:0:0:0:
192,192,153550,1,0,0:0:0:0:
320,192,153675,1,0,0:0:0:0:
448,192,153675,1,0,0:0:0:0:
192,192,153675,1,0,0:0:0:0:
320,192,153800,1,0,0:0:0:0:
64,192,153800,1,0,0:0:0:0:
64,192,153925,1,0,0:0:0:0:
192,192,153925,1,0,0:0:0:0:
320,192,153925,1,0,0:0:0:0:
448,192,153925,1,0,0:0:0:0:
448,192,154050,1,0,0:0:0:0:
192,192,154050,1,0,0:0:0:0:
64,192,154050,1,0,0:0:0:0:
64,192,154175,1,0,0:0:0:0:
192,192,154175,1,0,0:0:0:0:
320,192,154175,1,0,0:0:0:0:
320,192,154300,1,0,0:0:0:0:
448,192,154300,1,0,0:0:0:0:
192,192,154300,1,0,0:0:0:0:
320,192,154425,1,0,0:0:0:0:
192,192,154425,1,0,0:0:0:0:
64,192,154425,1,0,0:0:0:0:
320,192,154550,1,0,0:0:0:0:
448,192,154550,1,0,0:0:0:0:
192,192,154675,1,0,0:0:0:0:
64,192,154675,1,0,0:0:0:0:
448,192,154675,1,0,0:0:0:0:
64,192,154800,1,0,0:0:0:0:
320,192,154800,1,0,0:0:0:0:
192,192,154925,1,0,0:0:0:0:
448,192,154925,1,0,0:0:0:0:
320,192,154925,1,0,0:0:0:0:
64,192,154925,1,0,0:0:0:0:
320,192,155050,1,0,0:0:0:0:
192,192,155050,1,0,0:0:0:0:
192,192,155175,1,0,0:0:0:0:
64,192,155175,1,0,0:0:0:0:
448,192,155175,1,0,0:0:0:0:
320,192,155300,1,0,0:0:0:0:
448,192,155300,1,0,0:0:0:0:
320,192,155425,1,0,0:0:0:0:
192,192,155425,1,0,0:0:0:0:
64,192,155425,1,0,0:0:0:0:
64,192,155550,1,0,0:0:0:0:
448,192,155550,1,0,0:0:0:0:
64,192,155675,1,0,0:0:0:0:
320,192,155675,1,0,0:0:0:0:
192,192,155675,1,0,0:0:0:0:
192,192,155800,1,0,0:0:0:0:
448,192,155800,1,0,0:0:0:0:
64,192,155925,1,0,0:0:0:0:
192,192,155925,1,0,0:0:0:0:
320,192,155925,1,0,0:0:0:0:
448,192,155925,1,0,0:0:0:0:
320,192,156050,1,0,0:0:0:0:
64,192,156050,1,0,0:0:0:0:
192,192,156175,1,0,0:0:0:0:
320,192,156175,1,0,0:0:0:0:
448,192,156175,1,0,0:0:0:0:
64,192,156300,1,0,0:0:0:0:
192,192,156300,1,0,0:0:0:0:
448,192,156300,1,0,0:0:0:0:
192,192,156425,1,0,0:0:0:0:
320,192,156425,1,0,0:0:0:0:
64,192,156425,1,0,0:0:0:0:
448,192,156425,1,0,0:0:0:0:
320,192,156550,1,0,0:0:0:0:
192,192,156550,1,0,0:0:0:0:
448,192,156550,1,0,0:0:0:0:
448,192,156675,1,0,0:0:0:0:
64,192,156675,1,0,0:0:0:0:
320,192,156675,1,0,0:0:0:0:
192,192,156800,1,0,0:0:0:0:
64,192,156800,1,0,0:0:0:0:
448,192,156800,1,0,0:0:0:0:
192,192,156925,1,0,0:0:0:0:
320,192,156925,1,0,0:0:0:0:
448,192,156925,1,0,0:0:0:0:
64,192,156925,1,0,0:0:0:0:
320,192,157050,1,0,0:0:0:0:
448,192,157050,1,0,0:0:0:0:
64,192,157050,1,0,0:0:0:0:
192,192,157175,1,0,0:0:0:0:
64,192,157175,1,0,0:0:0:0:
320,192,157175,1,0,0:0:0:0:
64,192,157300,1,0,0:0:0:0:
192,192,157300,1,0,0:0:0:0:
448,192,157300,1,0,0:0:0:0:
192,192,157425,1,0,0:0:0:0:
320,192,157425,1,0,0:0:0:0:
448,192,157425,1,0,0:0:0:0:
192,192,157550,1,0,0:0:0:0:
448,192,157550,1,0,0:0:0:0:
64,192,157550,1,0,0:0:0:0:
64,192,157675,1,0,0:0:0:0:
320,192,157675,1,0,0:0:0:0:
192,192,157675,1,0,0:0:0:0:
320,192,157800,1,0,0:0:0:0:
448,192,157800,1,0,0:0:0:0:
192,192,157925,1,0,0:0:0:0:
64,192,157925,1,0,0:0:0:0:
320,192,157925,1,0,0:0:0:0:
448,192,157925,1,0,0:0:0:0:
64,192,158175,128,0,158238:0:0:0:0:
192,192,158175,128,0,158238:0:0:0:0:
448,192,158175,128,0,158238:0:0:0:0:
64,192,158425,128,0,158488:0:0:0:0:
192,192,158425,128,0,158488:0:0:0:0:
320,192,158425,128,0,158488:0:0:0:0:
448,192,158425,128,0,158488:0:0:0:0:
64,192,158925,128,0,158988:0:0:0:0:
320,192,158925,128,0,158988:0:0:0:0:
448,192,158925,128,0,158988:0:0:0:0:
320,192,159425,128,0,159488:0:0:0:0:
192,192,159425,128,0,159488:0:0:0:0:
64,192,159425,128,0,159488:0:0:0:0:
448,192,159675,128,0,160175:0:0:0:0:
320,192,159675,128,0,159738:0:0:0:0:
192,192,159675,128,0,159738:0:0:0:0:
64,192,160175,128,0,161925:0:0:0:0:
320,192,160175,128,0,160300:0:0:0:0:
192,192,160300,128,0,160425:0:0:0:0:
448,192,160425,128,0,162675:0:0:0:0:
320,192,162675,128,0,162925:0:0:0:0:
192,192,162925,128,0,163113:0:0:0:0:
64,192,163113,128,0,163300:0:0:0:0:
448,192,163300,128,0,163425:0:0:0:0:
64,192,163425,128,0,163488:0:0:0:0:
320,192,163488,128,0,163550:0:0:0:0:
192,192,163550,128,0,163613:0:0:0:0:
64,192,163613,128,0,163675:0:0:0:0:
448,192,163675,128,0,163925:0:0:0:0:
192,192,163925,128,0,164175:0:0:0:0:
64,192,164175,128,0,164425:0:0:0:0:
320,192,164425,128,0,164675:0:0:0:0:
448,192,164675,128,0,164800:0:0:0:0:
64,192,164800,128,0,164863:0:0:0:0:
64,192,164925,128,0,165175:0:0:0:0:
448,192,165342,128,0,165425:0:0:0:0:
192,192,165425,128,0,165550:0:0:0:0:
320,192,165592,128,0,165675:0:0:0:0:
64,192,165675,128,0,165800:0:0:0:0:
192,192,165800,128,0,166050:0:0:0:0:
320,192,166300,128,0,166425:0:0:0:0:
64,192,166425,128,0,166488:0:0:0:0:
320,192,166488,128,0,166550:0:0:0:0:
192,192,166550,128,0,166613:0:0:0:0:
64,192,166613,128,0,166675:0:0:0:0:
448,192,166675,128,0,166738:0:0:0:0:
448,192,166800,128,0,167925:0:0:0:0:
192,192,168425,1,0,0:0:0:0:
64,192,168425,1,0,0:0:0:0:
320,192,169842,128,0,169925:0:0:0:0:
64,192,169925,128,0,170050:0:0:0:0:
192,192,170092,128,0,170175:0:0:0:0:
448,192,170175,128,0,170300:0:0:0:0:
192,192,170342,128,0,170425:0:0:0:0:
64,192,170425,128,0,170550:0:0:0:0:
320,192,170592,128,0,170675:0:0:0:0:
192,192,170675,128,0,170800:0:0:0:0:
320,192,170842,128,0,170925:0:0:0:0:
448,192,170925,128,0,171050:0:0:0:0:
192,192,171092,128,0,171175:0:0:0:0:
320,192,171175,128,0,171300:0:0:0:0:
64,192,171342,128,0,171425:0:0:0:0:
192,192,171425,128,0,171550:0:0:0:0:
448,192,171613,128,0,171675:0:0:0:0:
320,192,171675,128,0,171800:0:0:0:0:
192,192,171863,128,0,171925:0:0:0:0:
64,192,171925,128,0,172050:0:0:0:0:
320,192,172050,128,0,172113:0:0:0:0:
192,192,172175,128,0,172207:0:0:0:0:
64,192,172207,128,0,172238:0:0:0:0:
448,192,172238,128,0,173175:0:0:0:0:
192,192,173175,128,0,173259:0:0:0:0:
320,192,173259,128,0,173342:0:0:0:0:
448,192,173342,128,0,173425:0:0:0:0:
64,192,173425,128,0,173675:0:0:0:0:
320,192,173675,128,0,173925:0:0:0:0:
192,192,173925,128,0,174175:0:0:0:0:
448,192,174175,128,0,174425:0:0:0:0:
320,192,174425,128,0,174925:0:0:0:0:
64,192,174925,128,0,175425:0:0:0:0:
192,192,175425,128,0,175925:0:0:0:0:
448,192,175925,128,0,176425:0:0:0:0:
320,192,176425,1,0,0:0:0:0:
192,192,176425,1,0,0:0:0:0:
64,192,176425,1,0,0:0:0:0:
192,192,176675,1,0,0:0:0:0:
320,192,176925,1,0,0:0:0:0:
448,192,177175,1,0,0:0:0:0:
320,192,177925,1,0,0:0:0:0:
64,192,177925,1,0,0:0:0:0:
192,192,178425,1,0,0:0:0:0:
64,192,178425,1,0,0:0:0:0:
192,192,178675,1,0,0:0:0:0:
320,192,178675,1,0,0:0:0:0:
448,192,178925,1,0,0:0:0:0:
320,192,178925,1,0,0:0:0:0:
448,192,179175,1,0,0:0:0:0:
64,192,179175,1,0,0:0:0:0:
64,192,179925,1,0,0:0:0:0:
320,192,180175,1,0,0:0:0:0:
192,192,180425,1,0,0:0:0:0:
320,192,180675,1,0,0:0:0:0:
64,192,180925,1,0,0:0:0:0:
448,192,181175,1,0,0:0:0:0:
192,192,181675,1,0,0:0:0:0:
64,192,181675,1,0,0:0:0:0:
320,192,181925,1,0,0:0:0:0:
64,192,182175,1,0,0:0:0:0:
448,192,182175,1,0,0:0:0:0:
320,192,182425,1,0,0:0:0:0:
192,192,182425,1,0,0:0:0:0:
192,192,182800,1,0,0:0:0:0:
64,192,182800,1,0,0:0:0:0:
320,192,183175,1,0,0:0:0:0:
448,192,183175,1,0,0:0:0:0:
64,192,183925,1,0,0:0:0:0:
192,192,183925,1,0,0:0:0:0:
64,192,184113,1,0,0:0:0:0:
320,192,184113,1,0,0:0:0:0:
192,192,184175,1,0,0:0:0:0:
448,192,184175,1,0,0:0:0:0:
64,192,184425,1,0,0:0:0:0:
192,192,184425,1,0,0:0:0:0:
320,192,184425,1,0,0:0:0:0:
448,192,184425,1,0,0:0:0:0:
320,192,184550,1,0,0:0:0:0:
448,192,184550,1,0,0:0:0:0:
64,192,184675,1,0,0:0:0:0:
192,192,184675,1,0,0:0:0:0:
448,192,184675,1,0,0:0:0:0:
64,192,184800,1,0,0:0:0:0:
320,192,184800,1,0,0:0:0:0:
192,192,184925,1,0,0:0:0:0:
320,192,184925,1,0,0:0:0:0:
448,192,184925,1,0,0:0:0:0:
64,192,184925,1,0,0:0:0:0:
192,192,185050,1,0,0:0:0:0:
448,192,185050,1,0,0:0:0:0:
64,192,185175,1,0,0:0:0:0:
320,192,185175,1,0,0:0:0:0:
448,192,185175,1,0,0:0:0:0:
320,192,185300,1,0,0:0:0:0:
192,192,185300,1,0,0:0:0:0:
448,192,185300,1,0,0:0:0:0:
192,192,185425,1,0,0:0:0:0:
64,192,185425,1,0,0:0:0:0:
320,192,185425,1,0,0:0:0:0:
64,192,185550,1,0,0:0:0:0:
448,192,185550,1,0,0:0:0:0:
192,192,185550,1,0,0:0:0:0:
320,192,185675,1,0,0:0:0:0:
448,192,185675,1,0,0:0:0:0:
192,192,185675,1,0,0:0:0:0:
320,192,185800,1,0,0:0:0:0:
64,192,185800,1,0,0:0:0:0:
64,192,185925,1,0,0:0:0:0:
192,192,185925,1,0,0:0:0:0:
320,192,185925,1,0,0:0:0:0:
448,192,185925,1,0,0:0:0:0:
448,192,186050,1,0,0:0:0:0:
192,192,186050,1,0,0:0:0:0:
64,192,186050,1,0,0:0:0:0:
64,192,186175,1,0,0:0:0:0:
192,192,186175,1,0,0:0:0:0:
320,192,186175,1,0,0:0:0:0:
320,192,186300,1,0,0:0:0:0:
448,192,186300,1,0,0:0:0:0:
192,192,186300,1,0,0:0:0:0:
320,192,186425,1,0,0:0:0:0:
192,192,186425,1,0,0:0:0:0:
64,192,186425,1,0,0:0:0:0:
320,192,186550,1,0,0:0:0:0:
448,192,186550,1,0,0:0:0:0:
192,192,186675,1,0,0:0:0:0:
64,192,186675,1,0,0:0:0:0:
448,192,186675,1,0,0:0:0:0:
64,192,186800,1,0,0:0:0:0:
320,192,186800,1,0,0:0:0:0:
192,192,186925,1,0,0:0:0:0:
448,192,186925,1,0,0:0:0:0:
320,192,186925,1,0,0:0:0:0:
64,192,186925,1,0,0:0:0:0:
320,192,187050,1,0,0:0:0:0:
192,192,187050,1,0,0:0:0:0:
192,192,187175,1,0,0:0:0:0:
64,192,187175,1,0,0:0:0:0:
448,192,187175,1,0,0:0:0:0:
320,192,187300,1,0,0:0:0:0:
448,192,187300,1,0,0:0:0:0:
320,192,187425,1,0,0:0:0:0:
192,192,187425,1,0,0:0:0:0:
64,192,187425,1,0,0:0:0:0:
64,192,187550,1,0,0:0:0:0:
448,192,187550,1,0,0:0:0:0:
64,192,187675,1,0,0:0:0:0:
320,192,187675,1,0,0:0:0:0:
192,192,187675,1,0,0:0:0:0:
192,192,187800,1,0,0:0:0:0:
448,192,187800,1,0,0:0:0:0:
64,192,187925,1,0,0:0:0:0:
192,192,187925,1,0,0:0:0:0:
320,192,187925,1,0,0:0:0:0:
448,192,187925,1,0,0:0:0:0:
320,192,188050,1,0,0:0:0:0:
64,192,188050,1,0,0:0:0:0:
192,192,188175,1,0,0:0:0:0:
320,192,188175,1,0,0:0:0:0:
448,192,188175,1,0,0:0:0:0:
64,192,188300,1,0,0:0:0:0:
448,192,188300,1,0,0:0:0:0:
192,192,188300,1,0,0:0:0:0:
192,192,188425,1,0,0:0:0:0:
320,192,188425,1,0,0:0:0:0:
64,192,188425,1,0,0:0:0:0:
320,192,188550,1,0,0:0:0:0:
448,192,188550,1,0,0:0:0:0:
192,192,188550,1,0,0:0:0:0:
448,192,188675,1,0,0:0:0:0:
64,192,188675,1,0,0:0:0:0:
320,192,188675,1,0,0:0:0:0:
192,192,188800,1,0,0:0:0:0:
64,192,188800,1,0,0:0:0:0:
448,192,188800,1,0,0:0:0:0:
192,192,188925,1,0,0:0:0:0:
320,192,188925,1,0,0:0:0:0:
448,192,188925,1,0,0:0:0:0:
64,192,188925,1,0,0:0:0:0:
320,192,189050,1,0,0:0:0:0:
448,192,189050,1,0,0:0:0:0:
64,192,189050,1,0,0:0:0:0:
448,192,189175,1,0,0:0:0:0:
192,192,189175,1,0,0:0:0:0:
64,192,189175,1,0,0:0:0:0:
64,192,189300,1,0,0:0:0:0:
192,192,189300,1,0,0:0:0:0:
320,192,189300,1,0,0:0:0:0:
192,192,189425,1,0,0:0:0:0:
320,192,189425,1,0,0:0:0:0:
448,192,189425,1,0,0:0:0:0:
192,192,189550,1,0,0:0:0:0:
448,192,189550,1,0,0:0:0:0:
64,192,189550,1,0,0:0:0:0:
64,192,189675,1,0,0:0:0:0:
448,192,189675,1,0,0:0:0:0:
320,192,189675,1,0,0:0:0:0:
192,192,189800,1,0,0:0:0:0:
320,192,189800,1,0,0:0:0:0:
192,192,189925,1,0,0:0:0:0:
64,192,189925,1,0,0:0:0:0:
320,192,189925,1,0,0:0:0:0:
448,192,189925,1,0,0:0:0:0:
64,192,190050,1,0,0:0:0:0:
448,192,190050,1,0,0:0:0:0:
192,192,190175,1,0,0:0:0:0:
320,192,190175,1,0,0:0:0:0:
448,192,190175,1,0,0:0:0:0:
320,192,190300,1,0,0:0:0:0:
64,192,190300,1,0,0:0:0:0:
64,192,190425,1,0,0:0:0:0:
192,192,190425,1,0,0:0:0:0:
448,192,190425,1,0,0:0:0:0:
64,192,190550,1,0,0:0:0:0:
448,192,190550,1,0,0:0:0:0:
192,192,190675,1,0,0:0:0:0:
320,192,190675,1,0,0:0:0:0:
64,192,190800,1,0,0:0:0:0:
448,192,190800,1,0,0:0:0:0:
64,192,190925,1,0,0:0:0:0:
192,192,190925,1,0,0:0:0:0:
320,192,190925,1,0,0:0:0:0:
448,192,190925,1,0,0:0:0:0:
192,192,191050,1,0,0:0:0:0:
320,192,191050,1,0,0:0:0:0:
320,192,191175,1,0,0:0:0:0:
64,192,191175,1,0,0:0:0:0:
192,192,191300,1,0,0:0:0:0:
448,192,191300,1,0,0:0:0:0:
64,192,191425,1,0,0:0:0:0:
320,192,191425,1,0,0:0:0:0:
448,192,191425,1,0,0:0:0:0:
192,192,191550,1,0,0:0:0:0:
320,192,191550,1,0,0:0:0:0:
192,192,191675,1,0,0:0:0:0:
64,192,191675,1,0,0:0:0:0:
448,192,191675,1,0,0:0:0:0:
64,192,191800,1,0,0:0:0:0:
320,192,191800,1,0,0:0:0:0:
448,192,191925,1,0,0:0:0:0:
320,192,191925,1,0,0:0:0:0:
192,192,191925,1,0,0:0:0:0:
64,192,191925,1,0,0:0:0:0:
320,192,192113,1,0,0:0:0:0:
448,192,192113,1,0,0:0:0:0:
192,192,192175,1,0,0:0:0:0:
64,192,192175,1,0,0:0:0:0:
64,192,192425,1,0,0:0:0:0:
320,192,192425,1,0,0:0:0:0:
448,192,192425,1,0,0:0:0:0:
192,192,192425,1,0,0:0:0:0:
448,192,192550,1,0,0:0:0:0:
192,192,192550,1,0,0:0:0:0:
64,192,192675,1,0,0:0:0:0:
192,192,192675,1,0,0:0:0:0:
320,192,192675,1,0,0:0:0:0:
64,192,192800,1,0,0:0:0:0:
320,192,192800,1,0,0:0:0:0:
448,192,192925,1,0,0:0:0:0:
64,192,192925,1,0,0:0:0:0:
192,192,192925,1,0,0:0:0:0:
320,192,192925,1,0,0:0:0:0:
320,192,193050,1,0,0:0:0:0:
448,192,193050,1,0,0:0:0:0:
192,192,193175,1,0,0:0:0:0:
64,192,193175,1,0,0:0:0:0:
448,192,193175,1,0,0:0:0:0:
320,192,193300,1,0,0:0:0:0:
64,192,193300,1,0,0:0:0:0:
192,192,193300,1,0,0:0:0:0:
448,192,193425,1,0,0:0:0:0:
320,192,193425,1,0,0:0:0:0:
192,192,193425,1,0,0:0:0:0:
64,192,193550,1,0,0:0:0:0:
448,192,193550,1,0,0:0:0:0:
320,192,193550,1,0,0:0:0:0:
192,192,193675,1,0,0:0:0:0:
448,192,193675,1,0,0:0:0:0:
320,192,193675,1,0,0:0:0:0:
64,192,193800,1,0,0:0:0:0:
192,192,193800,1,0,0:0:0:0:
192,192,193925,1,0,0:0:0:0:
64,192,193925,1,0,0:0:0:0:
448,192,193925,1,0,0:0:0:0:
320,192,193925,1,0,0:0:0:0:
320,192,194050,1,0,0:0:0:0:
448,192,194050,1,0,0:0:0:0:
192,192,194050,1,0,0:0:0:0:
192,192,194175,1,0,0:0:0:0:
64,192,194175,1,0,0:0:0:0:
320,192,194175,1,0,0:0:0:0:
64,192,194300,1,0,0:0:0:0:
448,192,194300,1,0,0:0:0:0:
320,192,194300,1,0,0:0:0:0:
64,192,194425,1,0,0:0:0:0:
192,192,194425,1,0,0:0:0:0:
448,192,194425,1,0,0:0:0:0:
192,192,194550,1,0,0:0:0:0:
320,192,194550,1,0,0:0:0:0:
320,192,194675,1,0,0:0:0:0:
64,192,194675,1,0,0:0:0:0:
448,192,194675,1,0,0:0:0:0:
192,192,194800,1,0,0:0:0:0:
448,192,194800,1,0,0:0:0:0:
192,192,194925,1,0,0:0:0:0:
64,192,194925,1,0,0:0:0:0:
448,192,194925,1,0,0:0:0:0:
320,192,194925,1,0,0:0:0:0:
64,192,195050,1,0,0:0:0:0:
320,192,195050,1,0,0:0:0:0:
448,192,195175,1,0,0:0:0:0:
64,192,195175,1,0,0:0:0:0:
192,192,195175,1,0,0:0:0:0:
64,192,195300,1,0,0:0:0:0:
320,192,195300,1,0,0:0:0:0:
192,192,195300,1,0,0:0:0:0:
64,192,195425,1,0,0:0:0:0:
320,192,195425,1,0,0:0:0:0:
448,192,195425,1,0,0:0:0:0:
320,192,195550,1,0,0:0:0:0:
192,192,195550,1,0,0:0:0:0:
448,192,195550,1,0,0:0:0:0:
320,192,195675,1,0,0:0:0:0:
64,192,195675,1,0,0:0:0:0:
192,192,195675,1,0,0:0:0:0:
64,192,195800,1,0,0:0:0:0:
448,192,195800,1,0,0:0:0:0:
192,192,195925,1,0,0:0:0:0:
64,192,195925,1,0,0:0:0:0:
448,192,195925,1,0,0:0:0:0:
320,192,195925,1,0,0:0:0:0:
192,192,196050,1,0,0:0:0:0:
320,192,196050,1,0,0:0:0:0:
64,192,196175,1,0,0:0:0:0:
448,192,196175,1,0,0:0:0:0:
320,192,196175,1,0,0:0:0:0:
192,192,196300,1,0,0:0:0:0:
448,192,196300,1,0,0:0:0:0:
192,192,196425,1,0,0:0:0:0:
64,192,196425,1,0,0:0:0:0:
320,192,196425,1,0,0:0:0:0:
64,192,196550,1,0,0:0:0:0:
320,192,196550,1,0,0:0:0:0:
64,192,196675,1,0,0:0:0:0:
448,192,196675,1,0,0:0:0:0:
192,192,196675,1,0,0:0:0:0:
448,192,196800,1,0,0:0:0:0:
320,192,196800,1,0,0:0:0:0:
192,192,196925,1,0,0:0:0:0:
64,192,196925,1,0,0:0:0:0:
448,192,196925,1,0,0:0:0:0:
320,192,196925,1,0,0:0:0:0:
192,192,197050,1,0,0:0:0:0:
64,192,197050,1,0,0:0:0:0:
320,192,197175,1,0,0:0:0:0:
192,192,197175,1,0,0:0:0:0:
448,192,197175,1,0,0:0:0:0:
192,192,197300,1,0,0:0:0:0:
320,192,197300,1,0,0:0:0:0:
64,192,197300,1,0,0:0:0:0:
64,192,197425,1,0,0:0:0:0:
448,192,197425,1,0,0:0:0:0:
320,192,197425,1,0,0:0:0:0:
64,192,197550,1,0,0:0:0:0:
192,192,197550,1,0,0:0:0:0:
192,192,197675,1,0,0:0:0:0:
320,192,197675,1,0,0:0:0:0:
448,192,197675,1,0,0:0:0:0:
448,192,197800,1,0,0:0:0:0:
64,192,197800,1,0,0:0:0:0:
320,192,197925,1,0,0:0:0:0:
448,192,197925,1,0,0:0:0:0:
64,192,197925,1,0,0:0:0:0:
192,192,197925,1,0,0:0:0:0:
320,192,198050,1,0,0:0:0:0:
192,192,198050,1,0,0:0:0:0:
320,192,198175,1,0,0:0:0:0:
64,192,198175,1,0,0:0:0:0:
448,192,198175,1,0,0:0:0:0:
64,192,198300,1,0,0:0:0:0:
448,192,198300,1,0,0:0:0:0:
192,192,198425,1,0,0:0:0:0:
320,192,198425,1,0,0:0:0:0:
448,192,198425,1,0,0:0:0:0:
448,192,198550,1,0,0:0:0:0:
192,192,198550,1,0,0:0:0:0:
320,192,198550,1,0,0:0:0:0:
192,192,198675,1,0,0:0:0:0:
320,192,198675,1,0,0:0:0:0:
448,192,198675,1,0,0:0:0:0:
64,192,198800,1,0,0:0:0:0:
192,192,198800,1,0,0:0:0:0:
320,192,198800,1,0,0:0:0:0:
320,192,198925,1,0,0:0:0:0:
64,192,198925,1,0,0:0:0:0:
448,192,198925,1,0,0:0:0:0:
192,192,198925,1,0,0:0:0:0:
64,192,199050,1,0,0:0:0:0:
192,192,199050,1,0,0:0:0:0:
320,192,199050,1,0,0:0:0:0:
320,192,199175,1,0,0:0:0:0:
64,192,199175,1,0,0:0:0:0:
448,192,199175,1,0,0:0:0:0:
448,192,199300,1,0,0:0:0:0:
320,192,199300,1,0,0:0:0:0:
192,192,199300,1,0,0:0:0:0:
320,192,199425,1,0,0:0:0:0:
64,192,199425,1,0,0:0:0:0:
448,192,199425,1,0,0:0:0:0:
448,192,199550,1,0,0:0:0:0:
192,192,199550,1,0,0:0:0:0:
320,192,199550,1,0,0:0:0:0:
320,192,199675,1,0,0:0:0:0:
64,192,199675,1,0,0:0:0:0:
448,192,199675,1,0,0:0:0:0:
64,192,199800,1,0,0:0:0:0:
192,192,199800,1,0,0:0:0:0:
64,192,199925,1,0,0:0:0:0:
192,192,199925,1,0,0:0:0:0:
448,192,199925,1,0,0:0:0:0:
320,192,199925,1,0,0:0:0:0:
320,192,200050,1,0,0:0:0:0:
64,192,200050,1,0,0:0:0:0:
320,192,200175,1,0,0:0:0:0:
192,192,200175,1,0,0:0:0:0:
448,192,200175,1,0,0:0:0:0:
192,192,200300,1,0,0:0:0:0:
448,192,200300,1,0,0:0:0:0:
192,192,200425,1,0,0:0:0:0:
64,192,200425,1,0,0:0:0:0:
448,192,200425,1,0,0:0:0:0:
320,192,200425,1,0,0:0:0:0:
64,192,200550,1,0,0:0:0:0:
192,192,200550,1,0,0:0:0:0:
64,192,200675,1,0,0:0:0:0:
320,192,200675,1,0,0:0:0:0:
448,192,200675,1,0,0:0:0:0:
192,192,200800,1,0,0:0:0:0:
448,192,200800,1,0,0:0:0:0:
64,192,200925,1,0,0:0:0:0:
448,192,200925,1,0,0:0:0:0:
320,192,200925,1,0,0:0:0:0:
192,192,200925,1,0,0:0:0:0:
64,192,201050,1,0,0:0:0:0:
320,192,201050,1,0,0:0:0:0:
64,192,201175,1,0,0:0:0:0:
192,192,201175,1,0,0:0:0:0:
448,192,201175,1,0,0:0:0:0:
64,192,201300,1,0,0:0:0:0:
320,192,201300,1,0,0:0:0:0:
192,192,201300,1,0,0:0:0:0:
192,192,201425,1,0,0:0:0:0:
448,192,201425,1,0,0:0:0:0:
320,192,201425,1,0,0:0:0:0:
320,192,201550,1,0,0:0:0:0:
64,192,201550,1,0,0:0:0:0:
448,192,201550,1,0,0:0:0:0:
320,192,201675,1,0,0:0:0:0:
64,192,201675,1,0,0:0:0:0:
192,192,201675,1,0,0:0:0:0:
448,192,201800,1,0,0:0:0:0:
192,192,201800,1,0,0:0:0:0:
192,192,201925,1,0,0:0:0:0:
64,192,201925,1,0,0:0:0:0:
448,192,201925,1,0,0:0:0:0:
320,192,201925,1,0,0:0:0:0:
448,192,202050,1,0,0:0:0:0:
320,192,202050,1,0,0:0:0:0:
64,192,202050,1,0,0:0:0:0:
192,192,202175,1,0,0:0:0:0:
320,192,202175,1,0,0:0:0:0:
448,192,202175,1,0,0:0:0:0:
320,192,202300,1,0,0:0:0:0:
64,192,202300,1,0,0:0:0:0:
192,192,202300,1,0,0:0:0:0:
448,192,202425,1,0,0:0:0:0:
320,192,202425,1,0,0:0:0:0:
192,192,202425,1,0,0:0:0:0:
64,192,202550,1,0,0:0:0:0:
192,192,202550,1,0,0:0:0:0:
64,192,202675,1,0,0:0:0:0:
448,192,202675,1,0,0:0:0:0:
320,192,202675,1,0,0:0:0:0:
192,192,202800,1,0,0:0:0:0:
448,192,202800,1,0,0:0:0:0:
192,192,202925,1,0,0:0:0:0:
448,192,202925,1,0,0:0:0:0:
320,192,202925,1,0,0:0:0:0:
64,192,202925,1,0,0:0:0:0:
320,192,203050,1,0,0:0:0:0:
192,192,203050,1,0,0:0:0:0:
64,192,203175,1,0,0:0:0:0:
448,192,203175,1,0,0:0:0:0:
320,192,203175,1,0,0:0:0:0:
64,192,203300,1,0,0:0:0:0:
192,192,203300,1,0,0:0:0:0:
320,192,203425,1,0,0:0:0:0:
192,192,203425,1,0,0:0:0:0:
448,192,203425,1,0,0:0:0:0:
64,192,203550,1,0,0:0:0:0:
448,192,203550,1,0,0:0:0:0:
320,192,203675,1,0,0:0:0:0:
192,192,203675,1,0,0:0:0:0:
448,192,203675,1,0,0:0:0:0:
64,192,203800,1,0,0:0:0:0:
320,192,203800,1,0,0:0:0:0:
192,192,203925,1,0,0:0:0:0:
64,192,203925,1,0,0:0:0:0:
448,192,203925,1,0,0:0:0:0:
320,192,203925,1,0,0:0:0:0:
448,192,204050,1,0,0:0:0:0:
192,192,204050,1,0,0:0:0:0:
64,192,204175,1,0,0:0:0:0:
192,192,204175,1,0,0:0:0:0:
320,192,204175,1,0,0:0:0:0:
320,192,204300,1,0,0:0:0:0:
64,192,204300,1,0,0:0:0:0:
448,192,204300,1,0,0:0:0:0:
448,192,204425,1,0,0:0:0:0:
192,192,204425,1,0,0:0:0:0:
320,192,204425,1,0,0:0:0:0:
320,192,204550,1,0,0:0:0:0:
64,192,204550,1,0,0:0:0:0:
192,192,204550,1,0,0:0:0:0:
192,192,204675,1,0,0:0:0:0:
448,192,204675,1,0,0:0:0:0:
64,192,204675,1,0,0:0:0:0:
64,192,204800,1,0,0:0:0:0:
448,192,204800,1,0,0:0:0:0:
320,192,204800,1,0,0:0:0:0:
64,192,204925,1,0,0:0:0:0:
448,192,204925,1,0,0:0:0:0:
320,192,204925,1,0,0:0:0:0:
192,192,204925,1,0,0:0:0:0:
448,192,205050,1,0,0:0:0:0:
64,192,205050,1,0,0:0:0:0:
192,192,205050,1,0,0:0:0:0:
448,192,205175,1,0,0:0:0:0:
320,192,205175,1,0,0:0:0:0:
64,192,205175,1,0,0:0:0:0:
192,192,205300,1,0,0:0:0:0:
320,192,205300,1,0,0:0:0:0:
448,192,205300,1,0,0:0:0:0:
64,192,205425,1,0,0:0:0:0:
192,192,205425,1,0,0:0:0:0:
320,192,205425,1,0,0:0:0:0:
448,192,205550,1,0,0:0:0:0:
64,192,205550,1,0,0:0:0:0:
320,192,205550,1,0,0:0:0:0:
192,192,205675,1,0,0:0:0:0:
64,192,205675,1,0,0:0:0:0:
448,192,205675,1,0,0:0:0:0:
192,192,205800,1,0,0:0:0:0:
320,192,205800,1,0,0:0:0:0:
192,192,205925,1,0,0:0:0:0:
64,192,205925,1,0,0:0:0:0:
320,192,205925,1,0,0:0:0:0:
448,192,205925,1,0,0:0:0:0:
64,192,206175,128,0,206238:0:0:0:0:
320,192,206175,128,0,206238:0:0:0:0:
448,192,206175,128,0,206238:0:0:0:0:
64,192,206425,128,0,206488:0:0:0:0:
192,192,206425,128,0,206488:0:0:0:0:
320,192,206425,128,0,206488:0:0:0:0:
448,192,206425,128,0,206488:0:0:0:0:
192,192,206925,128,0,206988:0:0:0:0:
64,192,206925,128,0,206988:0:0:0:0:
320,192,206925,128,0,206988:0:0:0:0:
192,192,207425,128,0,207488:0:0:0:0:
320,192,207425,128,0,207488:0:0:0:0:
448,192,207425,128,0,207488:0:0:0:0:
64,192,207675,128,0,207738:0:0:0:0:
192,192,207675,128,0,207738:0:0:0:0:
448,192,207675,128,0,207738:0:0:0:0:
64,192,208175,128,0,208238:0:0:0:0:
192,192,208175,128,0,208238:0:0:0:0:
320,192,208175,128,0,208238:0:0:0:0:
64,192,208425,1,0,0:0:0:0:
320,192,208425,1,0,0:0:0:0:
448,192,208425,1,0,0:0:0:0:
