osu file format v14

[General]
AudioFilename: audio.mp3
AudioLeadIn: 0
PreviewTime: 52092
Countdown: 0
SampleSet: None
StackLeniency: 0.7
Mode: 0
LetterboxInBreaks: 0
WidescreenStoryboard: 1

[Editor]
DistanceSpacing: 1.2
BeatDivisor: 4
GridSize: 8
TimelineZoom: 1

[Metadata]
Title:Maiochiru Yuki no Youni
TitleUnicode:Maiochiru Yuki no Youni
Artist:Ogiso Setsuna (CV: Yonezawa Madoka)
ArtistUnicode:Ogiso Setsuna (CV: Yonezawa Madoka)
Creator:SZS09
Version:small dreams
Source:AQUAPLUS Vocal Collection
Tags:WA2 WA WhiteAlbum2 WhiteAlbum whitealbum2 whitealbum white album ogiso setsuna ogisosetsuna yonezawamadoka yonezawa madoka ホワイトアルバム2 ホワイトアルバム 小木曽雪菜 小木曽 雪菜 米澤円 米澤 円 maiochiru yuki no youni maiochiruyukinoyouni 舞い落ちる雪のように
BeatmapID:4566865
BeatmapSetID:2165003

[Difficulty]
HPDrainRate:5
CircleSize:4
OverallDifficulty:3.5
ApproachRate:5.5
SliderMultiplier:1.8
SliderTickRate:1

[Events]
//Background and Video events
0,0,"haruki & setsuna in the snow (but coda this time).jpg",0,0
//Break Periods
//Storyboard Layer 0 (Background)
//Storyboard Layer 1 (Fail)
//Storyboard Layer 2 (Pass)
//Storyboard Layer 3 (Foreground)
//Storyboard Layer 4 (Overlay)
//Storyboard Sound Samples

[TimingPoints]
26692,800,4,1,0,25,1,0
48492,-66.6666666666667,4,1,0,30,0,0
52292,-100,4,1,0,35,0,1
77092,-100,4,1,0,30,0,0
96692,-100,4,1,0,25,0,0
122292,-100,4,1,0,25,0,0
144492,-66.6666666666667,4,1,0,30,0,0
148292,-100,4,1,0,35,0,1
154492,-50,4,1,0,35,0,1
155692,-100,4,1,0,35,0,1
167292,-50,4,1,0,35,0,1
168492,-100,4,1,0,35,0,1
173092,-100,4,1,0,25,0,0
180292,-100,4,1,0,20,0,0
186692,-100,4,1,0,20,0,1
188292,-100,4,1,0,20,0,0
193092,-100,4,1,0,20,0,1
194292,-100,4,1,0,20,0,0
199492,-100,4,1,0,20,0,1
200892,-100,4,1,0,20,0,0
202692,-100,4,1,0,20,0,1
203892,-100,4,1,0,20,0,0
212092,-50,4,1,0,20,0,0
213292,-100,4,1,0,20,0,0
218692,-100,4,1,0,35,0,1
224892,-43.4782608695652,4,1,0,35,0,0
225092,-43.4782608695652,4,1,0,35,0,1
226092,-100,4,1,0,35,0,1
230692,-100,4,1,0,40,0,0
231492,-100,4,1,0,50,0,1
237692,-43.4782608695652,4,1,0,50,0,0
237892,-43.4782608695652,4,1,0,50,0,1
238892,-100,4,1,0,50,0,1
250492,-43.4782608695652,4,1,0,50,0,0
250692,-43.4782608695652,4,1,0,50,0,1
251692,-100,4,1,0,50,0,1
256292,-100,4,1,0,25,0,0
265092,-200,4,1,0,18,0,0

[Colours]
Combo1 : 255,191,255
Combo2 : 0,128,192
Combo3 : 218,158,233
Combo4 : 71,57,138

[HitObjects]
95,94,692,6,0,L|185:140,1,90
423,280,2292,2,0,P|377:296|329:292,1,90
242,41,3892,2,0,P|197:62|159:96,1,90
289,316,5092,1,0,0:0:0:0:
384,238,5492,2,0,L|367:193,2,45
289,316,6292,1,0,0:0:0:0:
102,119,7092,5,0,0:0:0:0:
220,141,7492,2,0,P|284:204|287:212,2,90
148,222,8692,1,0,0:0:0:0:
264,308,9092,2,0,P|296:274|303:231,1,90
225,142,9892,1,0,0:0:0:0:
304,61,10292,1,0,0:0:0:0:
378,143,10692,1,0,0:0:0:0:
123,261,11492,5,0,0:0:0:0:
63,170,11892,1,0,0:0:0:0:
149,98,12292,1,0,0:0:0:0:
406,219,13092,1,0,0:0:0:0:
314,301,13492,6,0,P|265:292|237:264,1,90
175,27,15092,2,0,P|122:60|106:89,1,90
400,263,16692,2,0,P|430:207|427:169,1,90
107,300,18292,2,0,P|69:267|74:227,1,90
289,73,19892,5,0,0:0:0:0:
373,156,20292,2,0,P|352:207|316:222,2,90
210,189,21492,1,0,0:0:0:0:
246,307,21892,2,0,P|180:312|80:258,1,180
148,174,23092,2,0,L|192:144,2,45
265,44,24292,6,0,P|298:75|332:112,1,90
380,224,25092,1,0,0:0:0:0:
46,286,25892,1,0,0:0:0:0:
109,152,26292,5,0,0:0:0:0:
215,64,26692,1,0,0:0:0:0:
313,156,27092,2,0,P|284:202|249:227,1,90
128,179,27892,1,0,0:0:0:0:
215,285,28292,2,0,P|273:256|278:232,2,90
108,235,29492,1,0,0:0:0:0:
201,154,29892,2,0,P|274:182|351:253,2,180
395,293,32292,6,0,P|441:249|440:220,2,90
288,235,33492,1,0,0:0:0:0:
274,113,33892,2,0,P|212:122|186:149,2,90
154,289,35492,2,0,P|112:264|119:221,1,90
189,140,36292,2,0,P|335:188|366:214,3,180
271,296,39092,5,0,0:0:0:0:
176,235,39492,2,0,P|198:167|215:161,2,90
297,197,40692,1,0,0:0:0:0:
238,93,41092,2,0,P|172:125|142:151,1,90
112,220,41892,1,0,0:0:0:0:
182,312,42292,2,0,P|228:277|226:233,1,90
306,59,43492,1,0,0:0:0:0:
402,135,43892,5,0,0:0:0:0:
417,238,44292,2,0,P|359:264|329:256,2,90
402,135,45492,1,0,0:0:0:0:
316,64,45892,2,0,P|262:82|148:158,1,180
241,236,47092,5,0,0:0:0:0:
359,176,47492,2,0,P|315:132|270:122,2,90
288,337,48692,2,4,P|233:309|192:246,1,135.000005149842
169,167,49492,2,8,P|122:199|84:273,1,135.000005149842
241,242,50292,2,4,P|242:290|173:357,1,135.000005149842
104,226,51092,2,8,P|44:255|16:320,1,135.000005149842
156,342,51892,1,0,0:0:0:0:
264,277,52292,6,4,P|290:224|280:166,2,90
156,197,53492,1,8,0:0:0:0:
52,269,53892,2,4,P|101:298|136:301,2,90
102,136,55092,1,8,0:0:0:0:
215,62,55492,2,0,L|281:85,2,45
102,136,56292,1,8,0:0:0:0:
243,272,56692,2,4,P|300:249|315:221,1,90
290,114,57492,1,0,0:0:0:0:
169,149,57892,5,0,0:0:0:0:
253,234,58292,1,0,0:0:0:0:
311,96,58692,2,4,P|241:96|220:104,2,90
391,190,59892,1,8,0:0:0:0:
276,283,60292,2,0,P|237:254|233:207,2,90
408,247,61492,1,8,0:0:0:0:
341,135,61892,2,0,P|282:122|234:130,1,90
158,215,62692,1,8,0:0:0:0:
272,285,63092,2,0,P|326:247|339:207,2,90
230,157,64292,5,8,0:0:0:0:
110,205,64692,2,0,P|100:155|120:118,1,90
218,52,65492,1,8,0:0:0:0:
319,128,65892,1,0,0:0:0:0:
215,187,66292,1,8,0:0:0:0:
116,121,66692,1,4,0:0:0:0:
208,328,67492,1,8,0:0:0:0:
330,236,67892,5,0,0:0:0:0:
355,111,68292,2,4,P|309:84|267:88,2,90
430,229,69492,2,0,P|384:259|333:273,1,90
262,212,70292,2,8,L|312:180,2,45
136,159,71092,1,0,0:0:0:0:
213,70,71492,1,4,0:0:0:0:
282,159,71892,1,0,0:0:0:0:
210,251,72292,1,0,0:0:0:0:
139,158,72692,6,0,P|172:123|212:107,1,90
307,186,73492,2,0,P|253:237|231:244,1,90
93,214,74292,1,0,0:0:0:0:
182,105,74692,2,0,P|257:126|269:146,1,90
200,281,75492,2,0,P|166:221|175:194,2,90
320,239,76692,1,0,0:0:0:0:
240,156,77092,1,8,0:0:0:0:
156,231,77492,5,0,0:0:0:0:
79,139,77892,2,4,P|142:120|181:127,2,90
156,231,79092,1,0,0:0:0:0:
293,141,79492,2,0,P|332:170|346:221,2,90
150,85,80692,1,0,0:0:0:0:
82,219,81092,2,0,P|75:310|80:326,2,90
215,145,82292,2,0,L|315:186,1,90
127,45,83492,2,0,P|90:80|68:117,2,90
376,167,85092,5,0,0:0:0:0:
302,272,85492,2,0,P|234:256|216:238,1,90
131,39,86692,1,0,0:0:0:0:
75,290,87492,2,0,P|156:280|164:275,2,90
44,167,88692,1,0,0:0:0:0:
159,119,89092,2,0,P|205:137|236:175,2,90
86,206,90292,1,0,0:0:0:0:
179,284,90692,6,0,P|242:245|248:226,2,90
148,163,91892,2,0,L|72:218,1,90
160,285,92692,1,0,0:0:0:0:
272,237,93092,1,0,0:0:0:0:
158,44,93892,1,0,0:0:0:0:
257,91,94292,2,0,P|308:128|336:153,1,90
69,310,95492,1,0,0:0:0:0:
328,52,96692,5,0,0:0:0:0:
403,115,97092,2,0,P|369:154|327:168,1,90
235,134,97892,1,0,0:0:0:0:
175,220,98292,2,0,P|214:247|263:253,1,90
67,53,99492,1,0,0:0:0:0:
116,152,99892,2,0,P|175:144|209:126,1,90
451,216,101092,1,0,0:0:0:0:
359,293,101492,1,0,0:0:0:0:
243,238,101892,2,0,P|261:157|321:80,1,180
428,135,103092,5,0,0:0:0:0:
364,213,103492,2,0,P|314:192|302:161,2,90
428,135,104692,1,0,0:0:0:0:
336,54,105092,2,0,P|233:96|180:157,1,180
287,225,106292,1,0,0:0:0:0:
202,293,106692,2,0,P|150:273|143:233,2,90
320,257,107892,2,0,P|281:224|240:202,1,90
101,36,109092,1,0,0:0:0:0:
57,126,109492,6,0,P|82:164|123:190,1,90
383,137,110692,1,0,0:0:0:0:
351,223,111092,2,0,P|314:251|256:268,1,90
128,67,112292,1,0,0:0:0:0:
51,182,112692,2,0,P|73:224|122:241,1,90
351,129,113892,1,0,0:0:0:0:
249,280,114292,2,0,L|181:214,1,90
215,107,115092,2,0,P|267:117|307:150,1,90
340,230,115892,5,0,0:0:0:0:
244,296,116292,2,0,P|194:270|177:220,2,90
271,164,117492,1,0,0:0:0:0:
162,67,117892,2,0,P|102:103|43:214,1,180
135,273,119092,2,0,L|196:243,2,45
199,56,120292,5,0,0:0:0:0:
302,106,120692,2,0,P|350:177|353:192,1,90
304,283,121492,1,0,0:0:0:0:
220,200,121892,1,0,0:0:0:0:
304,119,122292,5,0,0:0:0:0:
203,67,122692,2,0,P|151:88|130:130,2,90
206,191,123892,1,0,0:0:0:0:
270,299,124292,2,0,P|346:262|356:244,2,90
160,206,125492,1,0,0:0:0:0:
214,85,125892,2,0,P|292:109|371:176,1,180
290,248,127092,1,0,0:0:0:0:
199,171,127492,1,0,0:0:0:0:
156,324,128292,6,0,P|114:289|91:250,1,90
170,166,129092,2,0,P|226:199|217:247,2,90
123,54,130292,1,0,0:0:0:0:
248,75,130692,2,0,P|303:101|322:125,1,90
384,189,131492,2,0,L|310:257,1,90
233,268,132292,2,0,P|178:263|88:160,2,180
190,93,134292,1,0,0:0:0:0:
272,166,134692,1,0,0:0:0:0:
167,229,135092,5,0,0:0:0:0:
86,112,135492,2,0,P|136:52|184:44,2,90
244,164,136692,1,0,0:0:0:0:
177,286,137092,2,0,P|116:264|84:235,1,90
44,130,137892,1,0,0:0:0:0:
149,56,138292,2,0,P|190:94|211:144,1,90
396,283,139492,5,0,0:0:0:0:
330,148,139892,2,0,P|257:155|232:166,1,90
123,236,140692,1,0,0:0:0:0:
82,105,141092,2,0,P|196:67|201:68,1,90
301,137,141892,2,0,P|248:212|170:260,1,180
82,183,143092,5,0,0:0:0:0:
177,98,143492,2,0,P|213:124|221:177,2,90
144,231,144692,2,4,B|187:264|251:272|244:240|197:225,1,135.000005149842
201,227,145492,2,4,B|156:167|171:108|217:168,1,135.000005149842
215,165,146292,2,4,B|152:191|91:187|169:137,1,135.000005149842
163,140,147092,2,4,B|237:248|191:232|158:205,1,135.000005149842
76,145,147892,1,0,0:0:0:0:
174,69,148292,6,4,P|251:103|269:131,2,90
106,164,149492,1,0,0:0:0:0:
196,281,149892,2,0,P|239:252|264:210,2,90
145,147,151092,1,0,0:0:0:0:
297,193,151492,2,8,L|281:130,2,45
349,68,152292,1,0,0:0:0:0:
172,138,152692,2,4,P|225:197|253:205,1,90
352,224,153492,2,0,P|312:277|272:289,1,90
186,214,154292,5,0,0:0:0:0:
254,128,154692,2,4,B|307:38|366:92|315:141|264:161,2,180
347,227,155892,1,0,0:0:0:0:
262,318,156292,2,0,P|230:275|237:232,2,90
397,266,157492,1,0,0:0:0:0:
323,182,157892,2,0,P|268:167|220:169,1,90
134,235,158692,1,0,0:0:0:0:
55,143,159092,2,0,P|103:103|140:88,1,90
239,162,159892,5,8,0:0:0:0:
327,245,160292,1,0,0:0:0:0:
396,147,160692,2,4,P|369:103|317:78,1,90
234,152,161492,1,0,0:0:0:0:
179,257,161892,2,0,P|119:229|83:179,2,90
306,208,163092,1,0,0:0:0:0:
213,125,163492,1,8,0:0:0:0:
102,171,163892,5,0,0:0:0:0:
185,283,164292,2,4,P|253:261|266:227,2,90
108,154,165492,2,0,B|118:96|139:68|156:111,1,90
274,209,166292,2,8,L|201:237,2,45
331,137,167092,5,0,0:0:0:0:
235,91,167492,2,4,B|247:65|196:79|177:86|155:106|164:118|175:133|194:138|220:140|259:133|235:106,2,180
356,180,168692,1,0,0:0:0:0:
279,283,169092,2,0,P|235:262|206:211,2,90
388,240,170292,1,0,0:0:0:0:
321,159,170692,2,0,P|239:192|227:202,1,90
132,262,171492,2,0,P|100:218|102:145,2,90
269,237,172692,1,0,0:0:0:0:
300,120,173092,1,8,0:0:0:0:
184,92,173492,5,0,0:0:0:0:
101,177,173892,2,0,P|130:239|171:252,2,90
239,196,175092,1,0,0:0:0:0:
184,293,175492,2,0,P|139:310|94:310,2,90
122,157,176692,5,0,0:0:0:0:
248,185,177092,2,0,P|285:210|300:264,2,90
162,86,178292,1,0,0:0:0:0:
74,165,178692,2,0,P|70:227|107:260,1,90
216,173,179492,6,0,L|261:217,2,45
80,191,180292,2,4,P|115:101|194:52,2,180
183,266,182292,2,0,B|260:237|277:224|283:216,1,90
265,107,183092,2,0,P|327:124|351:141,1,90
184,340,184292,1,0,0:0:0:0:
96,268,184692,2,0,P|123:224|166:206,1,90
271,263,185492,6,0,P|321:215|316:177,1,90
240,117,186292,2,0,B|186:188|181:204|242:179|251:173,1,90
336,178,187092,1,0,0:0:0:0:
271,282,187492,2,0,P|208:246|201:227,1,90
249,113,188292,1,0,0:0:0:0:
355,172,188692,2,0,P|392:210|408:245,1,90
312,313,189492,2,0,P|262:281|250:242,1,90
254,147,190292,2,0,P|181:172|165:187,1,90
175,282,191092,5,0,0:0:0:0:
277,344,191492,1,0,0:0:0:0:
372,269,191892,2,0,P|346:206|312:178,1,90
267,164,192492,1,0,0:0:0:0:
253,233,192692,2,0,L|205:210,2,45
401,122,193492,1,0,0:0:0:0:
359,65,193692,2,0,L|324:102,1,45
288,295,194292,1,0,0:0:0:0:
155,232,194692,5,0,0:0:0:0:
274,124,195092,2,0,L|312:160,2,45
204,118,195692,1,0,0:0:0:0:
238,187,195892,2,0,L|151:199,2,45
346,307,196692,2,0,P|379:267|387:217,1,90
348,168,197292,1,0,0:0:0:0:
301,226,197492,2,0,P|271:193|269:143,1,90
101,241,198492,6,0,L|60:204,2,45
163,192,199092,2,0,P|179:136|161:97,1,90
325,144,199892,2,0,P|374:177|399:208,1,90
260,263,200692,6,0,L|250:205,2,45
331,296,201292,2,0,L|354:244,2,45
386,344,201892,2,0,L|434:328,2,45
331,296,202492,2,0,L|354:244,1,45
307,128,203092,1,0,0:0:0:0:
175,181,203492,2,0,P|132:230|122:260,1,90
53,38,205092,1,0,0:0:0:0:
370,181,205892,6,0,P|340:235|307:244,2,90
302,100,207092,1,0,0:0:0:0:
207,143,207492,2,0,P|147:206|142:229,1,90
341,303,208692,1,0,0:0:0:0:
417,221,209092,2,0,P|439:177|422:140,2,90
318,136,210292,2,0,P|259:161|234:180,1,90
206,287,211092,2,0,P|155:277|130:246,1,90
205,128,211892,5,0,0:0:0:0:
309,165,212292,2,0,B|359:183|380:195|386:236|358:240|329:240|309:232|280:212|272:178,2,180
199,262,213492,2,0,P|152:229|136:200,1,90
190,97,214292,2,0,P|218:145|228:186,1,90
94,257,215092,5,0,0:0:0:0:
140,132,215492,2,0,P|198:116|243:121,1,90
355,187,216292,1,0,0:0:0:0:
266,303,216692,2,0,P|220:261|208:217,1,90
276,134,217492,2,8,L|232:110,2,45
328,242,218292,1,0,0:0:0:0:
210,273,218692,6,4,P|148:222|146:180,2,90
290,180,219892,1,0,0:0:0:0:
222,78,220292,2,0,P|179:98|170:146,2,90
348,138,221492,1,0,0:0:0:0:
297,243,221892,2,0,P|231:217|217:184,2,90
400,129,223092,2,4,P|349:98|316:98,1,90
229,184,223892,2,0,B|184:133|180:104|226:119,1,90
335,197,224692,5,0,0:0:0:0:
249,267,225092,2,4,B|217:331|186:335|126:258|153:223|236:215|275:249,2,207.000003948212
155,133,226292,1,0,0:0:0:0:
286,71,226692,2,0,P|368:123|384:146,1,90
314,250,227492,1,0,0:0:0:0:
133,171,227892,5,0,0:0:0:0:
232,93,228292,2,4,P|278:143|282:177,1,90
195,255,229092,1,0,0:0:0:0:
81,198,229492,2,4,P|112:154|166:130,1,90
265,209,230292,2,8,L|302:165,2,45
120,29,231492,6,4,P|75:54|50:105,1,90
114,151,232292,1,0,0:0:0:0:
191,101,232692,1,0,0:0:0:0:
246,174,233092,1,0,0:0:0:0:
187,299,233492,2,4,P|148:245|154:225,1,90
266,162,234292,5,0,0:0:0:0:
335,261,234692,2,0,P|393:210|395:177,2,90
209,203,235892,2,4,P|217:150|247:151,1,90
270,277,236692,2,0,B|219:319|187:327|198:260,1,90
231,140,237492,5,0,0:0:0:0:
370,93,237892,2,4,B|426:99|452:124|456:158|432:178|396:186|359:164|343:132,2,207.000003948212
251,173,239092,1,0,0:0:0:0:
189,295,239492,2,0,P|261:300|299:287,1,90
359,211,240292,1,8,0:0:0:0:
280,71,240692,5,0,0:0:0:0:
173,126,241092,2,0,P|133:177|128:211,1,90
226,290,241892,1,0,0:0:0:0:
334,164,242292,2,4,P|297:124|251:105,1,90
157,192,243092,2,8,L|134:139,2,45
279,277,243892,5,0,0:0:0:0:
395,182,244292,2,4,P|361:145|313:137,1,90
191,184,245092,1,0,0:0:0:0:
248,45,245492,1,0,0:0:0:0:
345,129,245892,2,0,P|335:186|247:273,1,180
124,205,247092,5,0,0:0:0:0:
209,104,247492,2,0,P|278:146|284:160,2,90
158,217,248692,2,4,P|112:178|110:148,1,90
247,176,249492,2,0,P|272:223|260:277,1,90
128,218,250292,5,0,0:0:0:0:
227,162,250692,2,4,B|257:103|285:102|315:113|330:138|330:164|240:195,2,207.000003948212
279,304,251892,1,0,0:0:0:0:
405,238,252292,2,0,P|370:201|313:191,2,90
279,304,253492,5,0,0:0:0:0:
185,198,253892,2,4,P|233:153|268:140,1,90
367,212,254692,1,0,0:0:0:0:
320,333,255092,2,4,P|272:301|251:250,1,90
309,165,255892,2,0,P|261:135|222:142,1,90
180,283,256692,6,0,L|113:202,1,90
171,98,257492,1,0,0:0:0:0:
301,128,257892,2,0,P|338:191|327:236,2,90
234,238,259092,2,0,L|141:202,1,90
107,76,259892,5,0,0:0:0:0:
234,125,260292,2,0,P|193:187|168:198,2,90
143,39,261492,1,0,0:0:0:0:
67,135,261892,2,0,P|96:190|359:333,1,360
455,166,264292,2,0,P|396:118|295:116,1,180
234,203,265492,6,0,P|183:175|179:171,1,45
142,105,266292,2,0,P|103:128|98:131,1,45
410,300,268292,2,0,P|445:280|446:259,2,45
369,231,269492,1,0,0:0:0:0:
288,259,269892,2,0,L|202:298,1,90
125,243,271092,2,0,P|131:207|147:184,1,45
338,51,272292,6,0,P|386:79|388:84,2,45
80,205,273892,1,0,0:0:0:0:
388,319,274692,2,0,P|420:288|421:286,1,45
337,217,275492,2,0,P|293:227|275:236,1,45
208,291,276292,2,0,P|171:260|164:203,1,90
256,192,278192,12,0,282392,0:0:0:0:
