osu file format v14

[General]
AudioFilename: audio.mp3
AudioLeadIn: 0
PreviewTime: 52092
Countdown: 0
SampleSet: None
StackLeniency: 0.7
Mode: 0
LetterboxInBreaks: 0
WidescreenStoryboard: 1

[Editor]
DistanceSpacing: 1.2
BeatDivisor: 4
GridSize: 8
TimelineZoom: 1

[Metadata]
Title:Maiochiru Yuki no Youni
TitleUnicode:Maiochiru Yuki no Youni
Artist:Ogiso Setsuna (CV: Yonezawa Madoka)
ArtistUnicode:Ogiso Setsuna (CV: Yonezawa Madoka)
Creator:SZS09
Version:melting dreams
Source:AQUAPLUS Vocal Collection
Tags:WA2 WA WhiteAlbum2 WhiteAlbum whitealbum2 whitealbum white album ogiso setsuna ogisosetsuna yonezawamadoka yonezawa madoka ホワイトアルバム2 ホワイトアルバム 小木曽雪菜 小木曽 雪菜 米澤円 米澤 円 maiochiru yuki no youni maiochiruyukinoyouni 舞い落ちる雪のように
BeatmapID:4566864
BeatmapSetID:2165003

[Difficulty]
HPDrainRate:6
CircleSize:5
OverallDifficulty:3
ApproachRate:6
SliderMultiplier:1.79999990463257
SliderTickRate:1

[Events]
//Background and Video events
0,0,"haruki & setsuna in the snow (but coda this time).jpg",0,0
//Break Periods
//Storyboard Layer 0 (Background)
//Storyboard Layer 1 (Fail)
//Storyboard Layer 2 (Pass)
//Storyboard Layer 3 (Foreground)
//Storyboard Layer 4 (Overlay)
//Storyboard Sound Samples

[TimingPoints]
26692,800,4,1,0,30,1,0
52292,-100,4,1,0,50,0,1
77092,-100,4,1,0,40,0,0
96692,-100,4,1,0,30,0,0
122292,-100,4,1,0,30,0,0
144492,-50,4,1,0,30,0,0
144692,-50,4,1,0,30,0,1
145092,-50,4,1,0,30,0,0
146292,-50,4,1,0,30,0,1
146692,-50,4,1,0,30,0,0
147892,-100,4,1,0,30,0,0
148292,-66.6666666666667,4,1,0,50,0,1
167292,-33.3333333333333,4,1,0,50,0,1
168492,-66.6666666666667,4,1,0,50,0,1
173092,-100,4,1,0,40,0,0
180292,-100,4,1,0,40,0,0
186692,-100,4,1,0,40,0,1
188292,-100,4,1,0,40,0,0
193092,-100,4,1,0,40,0,1
194292,-100,4,1,0,40,0,0
202692,-100,4,1,0,40,0,1
203892,-100,4,1,0,40,0,0
218692,-68.9655172413793,4,1,0,50,0,1
230692,-100,4,1,0,45,0,0
231492,-66.6666666666667,4,1,0,65,0,1
237692,-40,4,1,0,65,0,0
237892,-40,4,1,0,65,0,1
238892,-66.6666666666667,4,1,0,65,0,1
250492,-35.7142857142857,4,1,0,65,0,0
250692,-35.7142857142857,4,1,0,65,0,1
251692,-66.6666666666667,4,1,0,65,0,1
256292,-100,4,1,0,40,0,0
265092,-192.307692307692,4,1,0,25,0,0

[Colours]
Combo1 : 255,191,255
Combo2 : 0,128,192
Combo3 : 218,158,233
Combo4 : 71,57,138

[HitObjects]
62,47,692,5,0,0:0:0:0:
175,75,1092,2,0,P|248:133|249:135,1,89.9999952316285
322,197,1892,1,0,0:0:0:0:
217,264,2292,1,0,0:0:0:0:
133,188,2692,2,0,P|154:151|209:131,1,89.9999952316285
283,181,3492,1,0,0:0:0:0:
381,111,3892,5,0,0:0:0:0:
291,64,4292,2,0,P|246:88|210:128,1,89.9999952316285
181,202,5092,1,0,0:0:0:0:
255,273,5492,2,0,P|299:275|343:237,1,89.9999952316285
375,171,6292,1,0,0:0:0:0:
284,181,6692,1,0,0:0:0:0:
202,244,7092,5,0,0:0:0:0:
131,173,7492,2,0,P|160:129|201:110,2,89.9999952316285
251,207,8692,1,0,0:0:0:0:
345,141,9092,2,0,L|305:110,2,44.9999976158143
391,228,9892,1,0,0:0:0:0:
274,274,10292,1,0,0:0:0:0:
304,170,10692,1,0,0:0:0:0:
238,71,11092,6,0,L|194:108,2,44.9999976158143
351,112,11892,1,0,0:0:0:0:
261,187,12292,1,0,0:0:0:0:
285,315,12692,2,0,P|229:298|182:270,1,89.9999952316285
155,169,13492,6,0,P|202:154|255:163,1,89.9999952316285
325,226,14292,1,0,0:0:0:0:
330,108,14692,1,0,0:0:0:0:
240,158,15092,1,0,0:0:0:0:
207,262,15492,2,0,P|135:235|106:210,1,89.9999952316285
194,150,16292,1,0,0:0:0:0:
291,208,16692,6,0,P|251:256|216:278,1,89.9999952316285
133,211,17492,1,0,0:0:0:0:
204,124,17892,1,0,0:0:0:0:
303,173,18292,2,0,P|242:226|226:231,1,89.9999952316285
150,168,19092,1,0,0:0:0:0:
240,120,19492,1,0,0:0:0:0:
234,227,19892,5,0,0:0:0:0:
156,308,20292,2,0,P|106:261|105:233,1,89.9999952316285
154,146,21092,2,0,P|217:165|247:191,1,89.9999952316285
239,277,21892,2,0,P|315:257|326:246,1,89.9999952316285
316,154,22692,1,0,0:0:0:0:
204,197,23092,5,0,0:0:0:0:
204,197,23292,1,0,0:0:0:0:
204,197,23492,1,0,0:0:0:0:
310,271,23892,2,0,P|341:229|348:184,1,89.9999952316285
278,126,24692,1,0,0:0:0:0:
173,177,25092,1,0,0:0:0:0:
256,270,25492,2,0,L|295:231,2,44.9999976158143
142,241,26292,5,0,0:0:0:0:
200,143,26692,2,0,P|256:147|298:170,1,89.9999952316285
286,161,27292,1,0,0:0:0:0:
286,161,27492,1,0,0:0:0:0:
268,275,27892,2,0,P|201:247|195:222,1,89.9999952316285
276,155,28692,1,0,0:0:0:0:
163,99,29092,1,0,0:0:0:0:
156,223,29492,2,0,P|195:250|236:263,1,89.9999952316285
339,311,30292,6,0,L|312:264,2,44.9999976158143
426,248,31092,1,0,0:0:0:0:
326,185,31492,1,0,0:0:0:0:
212,241,31892,1,0,0:0:0:0:
131,177,32292,6,0,P|163:141|211:125,1,89.9999952316285
300,185,33092,1,0,0:0:0:0:
201,230,33492,1,0,0:0:0:0:
201,125,33892,2,0,P|269:151|289:171,2,89.9999952316285
113,192,35092,1,0,0:0:0:0:
171,288,35492,2,0,P|228:250|240:219,1,89.9999952316285
200,170,36092,1,0,0:0:0:0:
264,138,36292,2,0,P|320:162|375:264,1,179.999990463257
293,313,37492,5,0,0:0:0:0:
230,227,37892,1,0,0:0:0:0:
316,154,38292,2,0,L|365:176,2,44.9999976158143
236,74,39092,5,0,0:0:0:0:
116,160,39492,1,0,0:0:0:0:
252,187,39892,1,0,0:0:0:0:
252,187,40092,1,0,0:0:0:0:
252,187,40292,1,0,0:0:0:0:
313,287,40692,5,0,0:0:0:0:
207,256,41092,2,0,P|182:214|181:206,2,44.9999976158143
294,196,41892,1,0,0:0:0:0:
196,131,42292,1,0,0:0:0:0:
196,131,42492,1,0,0:0:0:0:
196,131,42692,1,0,0:0:0:0:
136,244,43092,2,0,L|96:212,2,44.9999976158143
262,202,43892,5,0,0:0:0:0:
361,108,44292,2,0,P|318:89|309:89,2,44.9999976158143
389,207,45092,1,0,0:0:0:0:
300,284,45492,2,0,P|257:261|230:225,1,89.9999952316285
267,129,46292,1,0,0:0:0:0:
267,129,46492,1,0,0:0:0:0:
267,129,46692,1,0,0:0:0:0:
379,191,47092,5,0,0:0:0:0:
273,286,47492,2,0,P|233:244|234:210,1,89.9999952316285
303,128,48292,1,0,0:0:0:0:
206,58,48692,6,4,P|153:90|135:120,1,89.9999952316285
131,178,49292,1,0,0:0:0:0:
193,194,49492,6,4,P|253:139|256:115,1,89.9999952316285
250,63,50092,1,0,0:0:0:0:
310,85,50292,6,4,P|345:140|336:180,1,89.9999952316285
336,222,50892,1,0,0:0:0:0:
266,217,51092,2,0,L|196:186,2,44.9999976158143
309,278,51692,2,0,L|258:298,2,44.9999976158143
375,232,52292,6,0,P|344:178|283:148,2,89.9999952316285
295,304,53492,1,0,0:0:0:0:
185,212,53892,2,0,L|221:162,2,44.9999976158143
344,124,54692,1,8,0:0:0:0:
242,63,55092,5,0,0:0:0:0:
186,144,55492,2,0,P|209:194|219:199,2,44.9999976158143
301,226,56292,1,0,0:0:0:0:
260,94,56692,2,4,P|222:147|209:171,1,89.9999952316285
206,234,57292,1,0,0:0:0:0:
271,257,57492,2,4,P|336:232|346:193,1,89.9999952316285
274,80,58292,5,0,0:0:0:0:
161,153,58692,1,0,0:0:0:0:
295,206,59092,2,0,L|306:151,2,44.9999976158143
186,266,59892,6,0,P|150:233|138:185,1,89.9999952316285
209,128,60692,1,0,0:0:0:0:
296,211,61092,2,0,L|247:231,2,44.9999976158143
360,135,61892,2,0,P|296:108|241:106,1,89.9999952316285
189,172,62692,1,0,0:0:0:0:
289,240,63092,5,0,0:0:0:0:
289,240,63292,1,0,0:0:0:0:
289,240,63492,1,8,0:0:0:0:
396,145,63892,5,0,0:0:0:0:
396,145,64092,1,0,0:0:0:0:
396,145,64292,1,8,0:0:0:0:
266,152,64692,5,0,0:0:0:0:
167,207,65092,2,4,P|193:259|220:275,1,89.9999952316285,0|0,0:0|0:0,0:0:0:0:
319,241,65892,1,0,0:0:0:0:
229,160,66292,2,0,L|269:117,2,44.9999976158143
196,278,67092,5,0,0:0:0:0:
196,278,67292,1,0,0:0:0:0:
196,278,67492,1,8,0:0:0:0:
310,244,67892,5,0,0:0:0:0:
356,153,68292,2,4,P|312:119|264:105,1,89.9999952316285
201,168,69092,1,0,0:0:0:0:
285,249,69492,2,4,P|317:216|323:161,1,89.9999952316285
255,101,70292,5,0,0:0:0:0:
255,101,70492,1,0,0:0:0:0:
255,101,70692,1,8,0:0:0:0:
162,180,71092,6,0,L|208:208,2,44.9999976158143
207,134,71692,1,4,0:0:0:0:
271,133,71892,6,0,L|256:68,2,44.9999976158143
314,185,72492,1,4,0:0:0:0:
277,238,72692,6,0,L|337:268,2,44.9999976158143
211,237,73292,1,0,0:0:0:0:
197,172,73492,6,0,P|266:129|286:122,1,89.9999952316285
369,182,74292,1,0,0:0:0:0:
283,249,74692,2,4,P|246:223|241:209,2,44.9999976158143
389,243,75492,1,0,0:0:0:0:
313,169,75892,2,4,P|254:136|217:127,1,89.9999952316285
126,178,76692,5,0,0:0:0:0:
126,178,76892,1,0,0:0:0:0:
126,178,77092,1,8,0:0:0:0:
221,248,77492,6,0,L|262:224,2,44.9999976158143
116,217,78292,1,0,0:0:0:0:
176,124,78692,2,0,P|245:147|264:167,1,89.9999952316285
321,253,79492,1,0,0:0:0:0:
174,217,79892,5,0,0:0:0:0:
174,217,80092,1,0,0:0:0:0:
174,217,80292,1,8,0:0:0:0:
223,110,80692,5,0,0:0:0:0:
308,159,81092,2,0,P|327:209|321:223,2,44.9999976158143
252,244,81892,1,0,0:0:0:0:
131,193,82292,2,0,P|176:152|187:146,2,44.9999976158143
205,265,83092,1,8,0:0:0:0:
302,221,83492,5,0,0:0:0:0:
230,159,83892,2,0,P|181:185|154:209,1,89.9999952316285
191,317,84692,1,0,0:0:0:0:
191,317,84892,1,0,0:0:0:0:
191,317,85092,1,8,0:0:0:0:
311,258,85492,5,0,0:0:0:0:
311,258,85692,1,0,0:0:0:0:
311,258,85892,1,8,0:0:0:0:
387,150,86292,5,0,0:0:0:0:
387,150,86492,1,0,0:0:0:0:
387,150,86692,1,8,0:0:0:0:
276,91,87092,5,0,0:0:0:0:
181,150,87492,2,0,L|164:198,2,44.9999976158143
295,145,88292,1,0,0:0:0:0:
319,259,88692,2,0,P|267:273|229:265,1,89.9999952316285
186,172,89492,2,0,L|136:211,2,44.9999976158143
317,193,90292,5,0,0:0:0:0:
365,73,90692,2,0,P|297:63|263:77,1,89.9999952316285
217,144,91492,2,0,L|251:234,1,89.9999952316285
366,253,92292,1,0,0:0:0:0:
336,152,92692,2,0,L|269:161,2,44.9999976158143
122,308,93892,6,0,P|51:269|36:248,2,89.9999952316285
199,235,95092,1,0,0:0:0:0:
199,235,95292,1,0,0:0:0:0:
199,235,95492,1,0,0:0:0:0:
116,165,95892,1,0,0:0:0:0:
116,165,96092,1,0,0:0:0:0:
116,165,96292,1,0,0:0:0:0:
218,103,96692,5,0,0:0:0:0:
315,162,97092,2,0,P|292:225|272:229,1,89.9999952316285
188,195,97892,1,0,0:0:0:0:
266,119,98292,2,0,L|311:155,2,44.9999976158143
148,142,99092,1,0,0:0:0:0:
233,231,99492,1,0,0:0:0:0:
286,140,99892,6,0,P|331:171|346:210,1,89.9999952316285
276,284,100692,1,0,0:0:0:0:
246,164,101092,1,0,0:0:0:0:
126,205,101492,6,0,P|116:161|129:105,1,89.9999952316285
219,63,102292,1,0,0:0:0:0:
219,63,102492,1,0,0:0:0:0:
219,63,102692,1,0,0:0:0:0:
321,120,103092,5,0,0:0:0:0:
259,195,103492,2,0,P|201:184|187:153,1,89.9999952316285
269,99,104292,1,0,0:0:0:0:
331,178,104692,2,0,P|341:260|337:279,1,89.9999952316285
231,308,105492,1,0,0:0:0:0:
282,214,105892,1,0,0:0:0:0:
179,240,106292,2,0,P|150:205|156:151,1,89.9999952316285
246,103,107092,5,0,0:0:0:0:
246,103,107292,1,0,0:0:0:0:
246,103,107492,1,0,0:0:0:0:
365,172,107892,5,0,0:0:0:0:
214,315,108292,1,0,0:0:0:0:
60,144,108692,1,0,0:0:0:0:
321,42,109092,1,0,0:0:0:0:
412,229,109492,6,0,P|370:245|322:252,1,89.9999952316285
242,193,110292,1,0,0:0:0:0:
242,193,110492,1,0,0:0:0:0:
242,193,110692,1,0,0:0:0:0:
317,93,111092,6,0,P|245:79|199:90,1,89.9999952316285
166,182,111892,2,0,L|128:138,2,44.9999976158143
311,162,112692,1,0,0:0:0:0:
234,66,113092,2,0,P|194:100|172:144,1,89.9999952316285
220,230,113892,1,0,0:0:0:0:
325,172,114292,6,0,L|380:206,2,44.9999976158143
202,204,115092,2,0,P|201:142|238:107,1,89.9999952316285
325,81,115892,1,0,0:0:0:0:
376,162,116292,6,0,P|337:184|282:187,1,89.9999952316285
225,192,116892,1,0,0:0:0:0:
166,157,117092,2,0,P|86:153|56:173,1,89.9999952316285
164,307,117892,6,0,P|221:276|234:243,1,89.9999952316285
202,134,118692,1,0,0:0:0:0:
320,186,119092,2,0,L|284:222,2,44.9999976158143
257,52,119892,5,0,0:0:0:0:
72,187,120292,1,0,0:0:0:0:
315,327,120692,1,0,0:0:0:0:
435,101,121092,1,0,0:0:0:0:
155,280,121492,1,0,0:0:0:0:
235,40,121892,1,0,0:0:0:0:
366,114,122292,5,0,0:0:0:0:
260,198,122692,2,0,P|235:142|244:110,1,89.9999952316285
335,180,123492,1,0,0:0:0:0:
224,211,123892,1,0,0:0:0:0:
289,100,124292,6,0,P|335:130|341:142,2,44.9999976158143
196,162,125092,1,0,0:0:0:0:
236,254,125492,2,0,P|280:230|285:222,2,44.9999976158143
150,176,126292,1,0,0:0:0:0:
259,103,126692,1,0,0:0:0:0:
275,222,127092,5,0,0:0:0:0:
275,222,127292,1,0,0:0:0:0:
275,222,127492,1,0,0:0:0:0:
362,147,127892,5,0,0:0:0:0:
362,147,128092,1,0,0:0:0:0:
362,147,128292,1,0,0:0:0:0:
206,104,128692,6,0,L|240:48,2,44.9999976158143
243,208,129492,1,0,0:0:0:0:
149,289,129892,2,0,L|102:235,2,44.9999976158143
301,304,130692,1,0,0:0:0:0:
359,209,131092,5,0,0:0:0:0:
248,139,131492,1,0,0:0:0:0:
158,180,131892,2,0,P|107:216|75:252,1,89.9999952316285
179,328,132692,2,0,L|206:278,2,44.9999976158143
115,334,133292,1,0,0:0:0:0:
107,271,133492,2,0,L|156:243,2,44.9999976158143
120,163,134292,5,0,0:0:0:0:
225,113,134692,1,0,0:0:0:0:
216,229,135092,2,0,P|159:213|119:199,1,89.9999952316285
92,93,135892,2,0,L|42:146,2,44.9999976158143
210,63,136692,1,0,0:0:0:0:
307,133,137092,2,0,P|286:185|246:203,1,89.9999952316285
161,155,137892,5,0,0:0:0:0:
103,233,138292,2,0,P|137:273|190:295,1,89.9999952316285
264,233,139092,1,0,0:0:0:0:
172,176,139492,1,0,0:0:0:0:
262,124,139892,1,0,0:0:0:0:
349,218,140292,2,0,L|342:274,2,44.9999976158143
294,106,141092,5,0,0:0:0:0:
74,302,141492,1,0,0:0:0:0:
384,264,141892,1,0,0:0:0:0:
232,176,142292,5,0,0:0:0:0:
232,176,142492,1,0,0:0:0:0:
232,176,142692,1,0,0:0:0:0:
128,77,143092,5,0,0:0:0:0:
77,201,143492,2,0,P|103:246|116:254,2,44.9999976158143
209,141,144292,1,0,0:0:0:0:
339,241,144692,6,4,P|259:304|167:311,1,179.999990463257
131,267,145292,1,0,0:0:0:0:
124,199,145492,2,4,P|232:139|289:145,1,179.999990463257
336,192,146092,1,0,0:0:0:0:
343,260,146292,2,4,P|246:257|169:201,1,179.999990463257
213,157,146892,1,0,0:0:0:0:
273,123,147092,2,4,P|369:202|401:256,1,179.999990463257
271,315,147892,1,0,0:0:0:0:
126,243,148292,6,4,P|155:182|231:159,1,134.999997997284
286,235,149092,1,0,0:0:0:0:
415,182,149492,2,0,P|358:140|329:134,2,67.499998998642
294,274,150292,1,0,0:0:0:0:
235,300,150492,1,0,0:0:0:0:
238,237,150692,1,8,0:0:0:0:
316,126,151092,5,0,0:0:0:0:
208,64,151492,2,4,L|136:99,2,67.499998998642
264,26,152092,1,0,0:0:0:0:
310,74,152292,1,0,0:0:0:0:
394,222,152692,2,4,P|339:278|266:298,1,134.999997997284
241,247,153292,1,0,0:0:0:0:
260,183,153492,2,4,P|328:269|324:312,1,134.999997997284
169,312,154292,5,0,0:0:0:0:
52,178,154692,2,4,L|-9:240,2,67.499998998642
108,202,155292,1,0,0:0:0:0:
97,138,155492,1,0,0:0:0:0:
227,25,155892,1,0,0:0:0:0:
29,125,156292,2,0,L|78:189,2,67.499998998642
82,89,156892,1,0,0:0:0:0:
143,103,157092,1,8,0:0:0:0:
326,190,157492,5,0,0:0:0:0:
262,289,157892,2,0,P|179:293|126:267,1,134.999997997284
99,155,158692,1,0,0:0:0:0:
227,99,159092,1,0,0:0:0:0:
196,224,159492,5,8,0:0:0:0:
243,271,159692,1,0,0:0:0:0:
260,207,159892,1,0,0:0:0:0:
196,224,160092,1,0,0:0:0:0:
243,271,160292,1,8,0:0:0:0:
385,212,160692,5,0,0:0:0:0:
298,111,161092,1,4,0:0:0:0:
197,219,161492,1,0,0:0:0:0:
304,309,161892,2,0,L|361:267,2,67.499998998642
238,328,162492,1,0,0:0:0:0:
188,284,162692,2,0,P|198:215|247:157,1,134.999997997284
358,222,163492,1,8,0:0:0:0:
322,60,163892,5,0,0:0:0:0:
203,161,164292,2,4,L|175:94,2,67.499998998642
336,198,165092,1,0,0:0:0:0:
268,289,165492,2,4,L|175:270,2,67.499998998642
337,275,166092,1,0,0:0:0:0:
369,211,166292,2,4,P|312:167|304:167,2,67.499998998642
263,312,167092,5,0,0:0:0:0:
160,238,167492,2,4,B|68:248|31:187|81:127|118:136|167:151|178:217|171:233,2,269.999995994568
301,207,168692,1,0,0:0:0:0:
217,75,169092,2,0,L|152:108,2,67.499998998642
276,48,169692,1,0,0:0:0:0:
270,113,169892,1,8,0:0:0:0:
352,298,170292,5,0,0:0:0:0:
172,273,170692,2,0,L|118:205,2,67.499998998642
271,141,171492,1,0,0:0:0:0:
99,85,171892,2,0,P|80:154|106:214,1,134.999997997284
281,275,172692,5,0,0:0:0:0:
281,275,172892,1,0,0:0:0:0:
281,275,173092,1,8,0:0:0:0:
366,128,173492,5,0,0:0:0:0:
235,154,173892,2,4,P|255:201|270:209,2,44.9999976158143
291,53,174692,1,0,0:0:0:0:
400,149,175092,2,0,P|365:210|336:224,1,89.9999952316285
206,186,175892,5,0,0:0:0:0:
206,186,176092,1,0,0:0:0:0:
206,186,176292,1,8,0:0:0:0:
107,284,176692,5,0,0:0:0:0:
243,343,177092,2,0,P|288:327|301:310,2,44.9999976158143
177,236,177892,1,0,0:0:0:0:
283,114,178292,1,0,0:0:0:0:
381,199,178692,1,0,0:0:0:0:
283,272,179092,2,0,L|222:245,2,44.9999976158143
335,172,179892,1,0,0:0:0:0:
222,105,180292,2,0,P|146:162|98:231,1,179.999990463257
199,311,181492,5,0,0:0:0:0:
337,242,181892,1,0,0:0:0:0:
240,123,182292,1,0,0:0:0:0:
240,123,182492,1,0,0:0:0:0:
240,123,182692,1,0,0:0:0:0:
131,190,183092,2,0,L|83:143,2,44.9999976158143
213,261,183892,5,0,0:0:0:0:
351,236,184292,1,0,0:0:0:0:
263,138,184692,2,0,L|300:92,2,44.9999976158143
128,184,185492,1,0,0:0:0:0:
128,184,185692,1,0,0:0:0:0:
128,184,185892,1,0,0:0:0:0:
189,281,186292,2,0,P|269:259|288:240,1,89.9999952316285
339,187,187092,5,0,0:0:0:0:
224,125,187492,1,0,0:0:0:0:
156,217,187892,2,0,L|96:184,2,44.9999976158143
282,188,188692,1,0,0:0:0:0:
179,119,189092,1,0,0:0:0:0:
101,190,189492,2,0,P|79:237|83:286,1,89.9999952316285
223,321,190292,5,0,0:0:0:0:
223,321,190492,1,0,0:0:0:0:
223,321,190692,1,0,0:0:0:0:
323,230,191092,5,0,0:0:0:0:
120,154,191492,1,0,0:0:0:0:
302,91,191892,2,0,L|256:50,2,44.9999976158143
335,157,192492,1,0,0:0:0:0:
282,209,192692,2,0,L|346:249,2,44.9999976158143
157,151,193492,5,0,0:0:0:0:
147,275,193892,2,0,P|102:296|95:297,2,44.9999976158143
257,200,194692,1,0,0:0:0:0:
147,90,195092,2,0,L|97:132,2,44.9999976158143
217,69,195692,1,0,0:0:0:0:
200,134,195892,5,0,0:0:0:0:
200,134,196092,1,0,0:0:0:0:
200,134,196292,1,0,0:0:0:0:
330,217,196692,2,0,L|349:163,2,44.9999976158143
271,256,197292,1,0,0:0:0:0:
256,188,197492,2,0,L|186:207,2,44.9999976158143
346,67,198492,5,0,0:0:0:0:
396,115,198692,1,0,0:0:0:0:
329,132,198892,1,0,0:0:0:0:
346,67,199092,5,0,0:0:0:0:
396,115,199292,1,0,0:0:0:0:
329,132,199492,1,0,0:0:0:0:
278,240,199892,5,0,0:0:0:0:
278,240,200092,2,0,L|207:258,1,44.9999976158143
148,179,200692,2,0,L|106:203,2,44.9999976158143
200,125,201292,1,0,0:0:0:0:
221,193,201492,2,0,L|280:168,2,44.9999976158143
154,165,202092,5,0,0:0:0:0:
211,118,202292,2,0,L|168:80,2,44.9999976158143
261,225,203092,1,0,0:0:0:0:
143,311,203492,2,0,L|70:293,2,44.9999976158143
400,49,205092,1,0,0:0:0:0:
104,137,205892,5,0,0:0:0:0:
283,248,206292,2,0,P|337:239|367:206,1,89.9999952316285
250,34,207092,1,0,0:0:0:0:
52,182,207492,1,0,0:0:0:0:
347,346,207892,1,0,0:0:0:0:
411,61,208292,1,0,0:0:0:0:
261,148,208692,5,0,0:0:0:0:
161,209,209092,2,0,P|142:255|141:268,2,44.9999976158143
373,181,209892,1,0,0:0:0:0:
210,65,210292,5,0,0:0:0:0:
210,65,210492,1,0,0:0:0:0:
210,65,210692,1,0,0:0:0:0:
65,305,211092,5,0,0:0:0:0:
65,305,211292,1,0,0:0:0:0:
65,305,211492,1,0,0:0:0:0:
224,259,211892,5,0,0:0:0:0:
346,158,212292,1,0,0:0:0:0:
220,126,212692,2,0,P|176:142|166:150,2,44.9999976158143
327,242,213492,1,0,0:0:0:0:
198,314,213892,2,0,P|156:291|152:283,2,44.9999976158143
337,129,214692,1,0,0:0:0:0:
168,55,215092,5,0,0:0:0:0:
81,207,215492,2,0,L|41:176,2,44.9999976158143
271,180,216292,1,0,0:0:0:0:
408,44,216692,1,4,0:0:0:0:
315,240,217092,5,0,0:0:0:0:
258,280,217292,1,0,0:0:0:0:
254,210,217492,1,0,0:0:0:0:
315,240,217692,5,0,0:0:0:0:
258,280,217892,1,0,0:0:0:0:
254,210,218092,1,0,0:0:0:0:
314,168,218292,5,0,0:0:0:0:
167,81,218692,1,0,0:0:0:0:
211,264,219092,2,0,L|140:228,2,65.2499985342026
437,202,219892,1,0,0:0:0:0:
211,32,220292,1,0,0:0:0:0:
101,186,220692,5,0,0:0:0:0:
101,186,220892,1,0,0:0:0:0:
101,186,221092,1,0,0:0:0:0:
295,238,221492,5,0,0:0:0:0:
350,93,221892,2,0,P|283:47|266:42,2,65.2499985342026
139,165,222692,1,0,0:0:0:0:
248,267,223092,2,0,P|322:216|340:164,1,130.499997068405
178,53,223892,5,0,0:0:0:0:
118,100,224092,1,0,0:0:0:0:
166,157,224292,1,0,0:0:0:0:
334,136,224692,5,0,0:0:0:0:
103,225,225092,1,0,0:0:0:0:
244,293,225492,2,0,P|292:247|301:228,2,65.2499985342026
138,139,226292,1,0,0:0:0:0:
301,60,226692,1,0,0:0:0:0:
452,273,227092,1,0,0:0:0:0:
38,328,227492,1,0,0:0:0:0:
181,138,227892,5,0,0:0:0:0:
377,107,228292,2,0,L|341:195,2,65.2499985342026
113,42,229092,1,0,0:0:0:0:
43,234,229492,2,0,B|86:285|116:309|145:311,1,130.499997068405
279,243,230292,5,0,0:0:0:0:
348,232,230492,1,0,0:0:0:0:
307,182,230692,1,0,0:0:0:0:
161,149,231092,1,0,0:0:0:0:
265,60,231492,5,4,0:0:0:0:
339,183,231892,2,0,P|376:142|377:133,2,67.499998998642
147,131,232692,1,0,0:0:0:0:
186,345,233092,2,4,P|288:306|313:277,1,134.999997997284
356,247,233692,1,0,0:0:0:0:
293,227,233892,1,0,0:0:0:0:
97,153,234292,5,0,0:0:0:0:
208,113,234692,2,0,P|152:64|131:60,2,67.499998998642
225,181,235292,1,0,0:0:0:0:
161,161,235492,1,0,0:0:0:0:
410,222,235892,2,4,P|359:126|339:111,1,134.999997997284
270,113,236492,1,0,0:0:0:0:
227,171,236692,2,4,P|239:238|267:306,1,134.999997997284
462,237,237492,5,0,0:0:0:0:
282,83,237892,2,4,P|136:120|63:170,2,224.999988079071
383,242,239092,1,0,0:0:0:0:
126,321,239492,2,0,P|157:242|168:233,2,67.499998998642
278,148,240292,5,8,0:0:0:0:
68,52,240692,1,0,0:0:0:0:
137,190,241092,1,0,0:0:0:0:
182,237,241292,1,0,0:0:0:0:
200,173,241492,1,0,0:0:0:0:
328,122,241892,5,0,0:0:0:0:
396,269,242292,1,0,0:0:0:0:
348,317,242492,1,0,0:0:0:0:
336,252,242692,1,0,0:0:0:0:
195,183,243092,5,0,0:0:0:0:
195,183,243292,1,0,0:0:0:0:
195,183,243492,1,8,0:0:0:0:
298,70,243892,5,0,0:0:0:0:
382,180,244292,2,4,L|414:121,2,67.499998998642
232,259,245092,1,0,0:0:0:0:
49,78,245492,1,0,0:0:0:0:
247,121,245892,5,0,0:0:0:0:
247,121,246092,1,0,0:0:0:0:
247,121,246292,1,8,0:0:0:0:
366,204,246692,5,0,0:0:0:0:
233,286,247092,1,0,0:0:0:0:
84,204,247492,2,4,P|129:115|181:101,1,134.999997997284
226,120,248092,1,0,0:0:0:0:
171,172,248292,1,0,0:0:0:0:
307,267,248692,5,0,0:0:0:0:
393,157,249092,2,4,P|351:96|341:93,2,67.499998998642
194,198,249892,1,0,0:0:0:0:
95,32,250292,5,0,0:0:0:0:
351,109,250692,2,4,B|372:92|404:75|396:129|382:161|332:243|331:236|298:181|289:90|297:14|356:109|370:149|350:111,2,251.999978958131
241,182,251892,1,0,0:0:0:0:
234,302,252292,2,0,P|292:253|295:243,2,67.499998998642
179,129,253092,1,8,0:0:0:0:
368,88,253492,5,0,0:0:0:0:
281,232,253892,2,0,P|356:241|364:238,2,67.499998998642
159,120,254692,1,0,0:0:0:0:
62,269,255092,1,0,0:0:0:0:
286,210,255492,5,0,0:0:0:0:
286,210,255692,1,0,0:0:0:0:
286,210,255892,1,8,0:0:0:0:
138,115,256292,1,0,0:0:0:0:
370,85,256692,5,0,0:0:0:0:
423,219,257092,2,4,P|400:274|392:281,2,44.9999976158143
309,152,257892,1,0,0:0:0:0:
139,273,258292,1,0,0:0:0:0:
214,69,258692,1,0,0:0:0:0:
318,192,259092,5,0,0:0:0:0:
318,192,259292,1,0,0:0:0:0:
318,192,259492,1,8,0:0:0:0:
142,273,259892,5,0,0:0:0:0:
68,130,260292,2,0,P|126:98|136:99,2,44.9999976158143
216,216,261092,1,0,0:0:0:0:
397,37,261492,1,0,0:0:0:0:
342,338,261892,1,0,0:0:0:0:
111,262,262292,5,0,0:0:0:0:
147,208,262492,1,0,0:0:0:0:
175,267,262692,1,8,0:0:0:0:
294,95,263092,5,0,0:0:0:0:
347,129,263292,1,0,0:0:0:0:
351,67,263492,1,8,0:0:0:0:
110,161,263892,5,0,0:0:0:0:
381,250,264292,2,0,P|414:199|406:170,2,89.9999952316285
249,109,265492,5,0,0:0:0:0:
57,206,265892,1,0,0:0:0:0:
299,345,266292,1,0,0:0:0:0:
388,45,266692,1,0,0:0:0:0:
219,117,267092,2,0,P|133:149|110:156,1,93.5999944696046
41,286,268292,5,0,0:0:0:0:
267,34,268692,1,0,0:0:0:0:
429,226,269092,1,0,0:0:0:0:
144,323,269492,2,0,P|130:285|130:273,1,46.7999972348023
233,213,270292,2,0,P|223:252|216:261,1,46.7999972348023
61,235,271092,5,0,0:0:0:0:
215,64,271492,1,0,0:0:0:0:
390,158,271892,2,0,P|386:205|351:256,1,93.5999944696046
148,299,273092,2,0,P|175:220|195:200,1,93.5999944696046
348,313,274692,5,0,0:0:0:0:
94,121,275492,1,0,0:0:0:0:
391,177,276292,2,0,P|367:211|362:215,2,46.7999972348023
294,93,277492,1,0,0:0:0:0:
256,192,278292,12,0,282392,0:0:0:0:
