osu file format v14

[General]
AudioFilename: audio.mp3
AudioLeadIn: 0
PreviewTime: 0
Countdown: 1
SampleSet: Soft
StackLeniency: 0.2
Mode: 0
LetterboxInBreaks: 0
WidescreenStoryboard: 0

[Editor]
Bookmarks: 19200,38400,67200,86400,115200,134400,153600
DistanceSpacing: 0.7
BeatDivisor: 4
GridSize: 4
TimelineZoom: 1.7

[Metadata]
Title:Ric Flair Drip
TitleUnicode:Ric Flair Drip
Artist:Offset & Metro Boomin
ArtistUnicode:Offset & Metro Boomin
Creator:Bullhax
Version:Gangsta
Source:
Tags:hip hop rap trap young metro without warning
BeatmapID:1516664
BeatmapSetID:718000

[Difficulty]
HPDrainRate:6
CircleSize:4.5
OverallDifficulty:8.4
ApproachRate:9
SliderMultiplier:2
SliderTickRate:2

[Events]
//Background and Video events
0,0,"rockstaa.jpg",0,0
//Break Periods
2,57500,61741
2,105800,109741
//Storyboard Layer 0 (Background)
//Storyboard Layer 1 (Fail)
//Storyboard Layer 2 (Pass)
//Storyboard Layer 3 (Foreground)
//Storyboard Sound Samples

[TimingPoints]
0,600,4,2,2,63,1,0
18000,-200,4,2,2,63,0,0
19200,-142.857142857143,4,2,2,63,0,0
21000,-500,4,2,2,63,0,0
21600,-166.666666666667,4,2,2,63,0,0
23400,-500,4,2,2,63,0,0
24000,-166.666666666667,4,2,2,63,0,0
25800,-500,4,2,2,63,0,0
38100,-142.857142857143,4,2,2,63,0,0
47100,-100,4,2,2,63,0,0
48000,-500,4,2,2,63,0,0
52500,-142.857142857143,4,2,2,63,0,0
52800,-500,4,2,2,63,0,0
55200,-142.857142857143,4,2,2,63,0,0
67200,-500,4,2,2,63,0,0
69600,-166.666666666667,4,2,2,63,0,0
69900,-142.857142857143,4,2,2,63,0,0
71400,-500,4,2,2,63,0,0
72000,-166.666666666667,4,2,2,63,0,0
72300,-142.857142857143,4,2,2,63,0,0
73800,-500,4,2,2,63,0,0
86400,-1000,4,2,3,63,0,0
94800,-500,4,2,2,63,0,0
95400,-142.857142857143,4,2,2,63,0,0
110400,-52.6315789473684,4,2,2,63,0,1
124800,-52.6315789473684,4,2,2,63,0,0
126000,-500,4,2,2,63,0,0
134400,-1000,4,2,2,63,0,0
139200,-52.6315789473684,4,2,2,63,0,1
145200,-500,4,2,2,63,0,1
145500,-52.6315789473684,4,2,2,63,0,1
145800,-500,4,2,2,63,0,1
146100,-500,4,2,2,63,0,1
153600,-500,4,2,2,63,0,0

[HitObjects]
63,71,0,5,0,0:0:0:0:
63,71,300,1,0,0:0:0:0:
35,198,600,1,8,0:0:0:0:
63,71,900,1,0,0:0:0:0:
63,71,1200,1,0,0:0:0:0:
63,71,1500,1,0,0:0:0:0:
35,198,1800,1,8,0:0:0:0:
63,71,2100,1,0,0:0:0:0:
173,289,2400,5,0,0:0:0:0:
173,289,2550,1,0,0:0:0:0:
173,289,2700,1,0,0:0:0:0:
145,162,3000,1,8,0:0:0:0:
173,289,3300,1,0,0:0:0:0:
173,289,3600,1,0,0:0:0:0:
173,289,3900,1,0,0:0:0:0:
145,162,4200,1,8,0:0:0:0:
173,289,4500,1,0,0:0:0:0:
282,83,4800,5,0,0:0:0:0:
282,83,5100,1,0,0:0:0:0:
254,210,5400,1,8,0:0:0:0:
282,83,5700,1,0,0:0:0:0:
282,83,6000,1,0,0:0:0:0:
282,83,6300,1,0,0:0:0:0:
254,210,6600,1,8,0:0:0:0:
282,83,6900,1,0,0:0:0:0:
392,294,7200,5,0,0:0:0:0:
392,294,7350,1,0,0:0:0:0:
392,294,7500,1,0,0:0:0:0:
364,167,7800,1,8,0:0:0:0:
392,294,8100,1,0,0:0:0:0:
392,294,8400,1,0,0:0:0:0:
392,294,8700,1,0,0:0:0:0:
364,167,9000,1,8,0:0:0:0:
392,294,9300,1,0,0:0:0:0:
63,314,9600,5,0,0:0:0:0:
63,314,9900,1,0,0:0:0:0:
154,322,10200,1,8,0:0:0:0:
63,314,10500,1,0,0:0:0:0:
63,314,10800,1,0,0:0:0:0:
63,314,11100,1,0,0:0:0:0:
154,322,11400,1,8,0:0:0:0:
63,314,11700,1,0,0:0:0:0:
349,333,12000,5,0,0:0:0:0:
349,333,12300,1,0,0:0:0:0:
258,341,12600,1,8,0:0:0:0:
349,333,12900,1,0,0:0:0:0:
349,333,13200,1,0,0:0:0:0:
349,333,13500,1,0,0:0:0:0:
258,341,13800,1,8,0:0:0:0:
117,224,14400,5,0,0:0:0:0:
117,224,14700,1,0,0:0:0:0:
208,232,15000,1,8,0:0:0:0:
117,224,15300,1,0,0:0:0:0:
117,224,15600,1,0,0:0:0:0:
117,224,15900,1,0,0:0:0:0:
208,232,16200,1,8,0:0:0:0:
117,224,16500,1,0,0:0:0:0:
213,183,16800,5,0,0:0:0:0:
111,263,17100,1,0,0:0:0:0:
207,275,17400,1,8,0:0:0:0:
122,166,17700,1,0,0:0:0:0:
217,61,18000,2,0,B|179:80|187:43|146:67,1,75
300,50,18600,1,8,0:0:0:0:
264,125,18750,1,0,0:0:0:0:
25,60,18900,1,0,0:0:0:0:
355,123,19200,5,0,0:0:0:0:
370,198,19350,1,0,0:0:0:0:
326,261,19500,1,0,0:0:0:0:
249,268,19650,1,0,0:0:0:0:
325,277,19800,1,8,0:0:0:0:
251,253,19950,1,0,0:0:0:0:
316,293,20100,1,0,0:0:0:0:
261,238,20250,1,0,0:0:0:0:
403,268,20400,1,0,0:0:0:0:
246,331,20700,1,0,0:0:0:0:
153,191,21000,2,0,L|183:188,1,29.9999990844727,8|0,0:0|0:0,0:0:0:0:
288,145,21600,6,0,L|246:140,1,29.9999990844727
374,175,21900,1,0,0:0:0:0:
385,251,22050,1,0,0:0:0:0:
394,174,22200,1,8,0:0:0:0:
363,244,22350,1,0,0:0:0:0:
412,184,22500,1,0,0:0:0:0:
348,228,22650,1,0,0:0:0:0:
439,112,22800,1,0,0:0:0:0:
422,326,23100,1,0,0:0:0:0:
173,236,23400,2,0,L|176:206,1,30,8|0,0:0|0:0,0:0:0:0:
144,82,24000,6,0,L|148:114,1,30
217,33,24300,1,0,0:0:0:0:
292,46,24450,1,0,0:0:0:0:
215,51,24600,1,8,0:0:0:0:
289,31,24750,1,0,0:0:0:0:
222,69,24900,1,0,0:0:0:0:
277,16,25050,1,0,0:0:0:0:
72,119,25200,1,0,0:0:0:0:
298,91,25500,1,0,0:0:0:0:
66,234,25800,2,0,L|67:198,1,30,8|0,0:0|0:0,0:0:0:0:
363,32,26400,5,0,0:0:0:0:
412,95,26550,1,0,0:0:0:0:
406,175,26700,1,0,0:0:0:0:
357,239,26850,1,0,0:0:0:0:
283,271,27000,1,8,0:0:0:0:
362,257,27150,1,0,0:0:0:0:
281,254,27300,1,0,0:0:0:0:
358,276,27450,1,0,0:0:0:0:
335,108,27600,1,0,0:0:0:0:
440,256,27900,1,0,0:0:0:0:
89,254,28200,2,0,L|126:257,1,30,8|0,0:0|0:0,0:0:0:0:
249,328,28800,5,0,0:0:0:0:
39,347,29100,1,0,0:0:0:0:
249,328,29400,1,8,0:0:0:0:
39,347,29700,1,0,0:0:0:0:
241,155,30000,2,0,L|242:173,1,10
68,314,30300,1,0,0:0:0:0:
74,315,30450,1,0,0:0:0:0:
80,316,30600,1,8,0:0:0:0:
425,323,30900,1,0,0:0:0:0:
86,314,31200,5,0,0:0:0:0:
92,312,31350,1,0,0:0:0:0:
98,310,31500,1,0,0:0:0:0:
104,308,31650,1,0,0:0:0:0:
110,306,31800,1,8,0:0:0:0:
116,304,31950,1,0,0:0:0:0:
122,302,32100,1,0,0:0:0:0:
128,300,32250,1,0,0:0:0:0:
151,146,32400,2,0,L|150:164,1,10
128,300,32700,1,0,0:0:0:0:
134,301,32850,1,0,0:0:0:0:
140,302,33000,1,8,0:0:0:0:
468,314,33300,1,0,0:0:0:0:
140,302,33600,5,0,0:0:0:0:
146,300,33750,1,0,0:0:0:0:
152,298,33900,1,0,0:0:0:0:
158,296,34050,1,0,0:0:0:0:
164,294,34200,1,8,0:0:0:0:
170,292,34350,1,0,0:0:0:0:
176,290,34500,1,0,0:0:0:0:
182,288,34650,1,0,0:0:0:0:
204,122,34800,2,0,L|205:140,1,10
182,288,35100,1,0,0:0:0:0:
188,289,35250,1,0,0:0:0:0:
194,290,35400,1,8,0:0:0:0:
482,290,35700,1,0,0:0:0:0:
194,290,36000,5,0,0:0:0:0:
200,288,36150,1,0,0:0:0:0:
206,286,36300,1,0,0:0:0:0:
212,284,36450,1,0,0:0:0:0:
218,282,36600,1,8,0:0:0:0:
224,280,36750,1,0,0:0:0:0:
230,278,36900,1,0,0:0:0:0:
236,276,37050,1,0,0:0:0:0:
272,77,37200,2,0,L|273:95,1,10
236,276,37500,1,0,0:0:0:0:
242,277,37650,1,0,0:0:0:0:
248,278,37800,1,8,0:0:0:0:
175,136,38100,2,0,L|211:140,2,23.3333326212565
93,108,38400,5,4,0:0:0:0:
107,187,38550,1,0,0:0:0:0:
181,218,38700,1,2,0:0:0:0:
118,268,38850,1,0,0:0:0:0:
128,347,39000,1,8,0:0:0:0:
118,268,39150,1,0,0:0:0:0:
42,238,39300,1,6,0:0:0:0:
107,187,39450,1,0,0:0:0:0:
20,79,39600,1,0,0:0:0:0:
193,298,39900,1,0,0:0:0:0:
160,49,40200,1,8,0:0:0:0:
241,85,40350,1,0,0:0:0:0:
322,121,40500,1,0,0:0:0:0:
403,157,40650,1,0,0:0:0:0:
396,70,40800,5,4,0:0:0:0:
414,239,40950,1,4,0:0:0:0:
250,169,41100,1,6,0:0:0:0:
332,208,41250,1,0,0:0:0:0:
339,296,41400,1,8,0:0:0:0:
258,357,41550,1,0,0:0:0:0:
414,239,41700,1,6,0:0:0:0:
252,261,41850,1,0,0:0:0:0:
250,169,42000,1,0,0:0:0:0:
250,169,42300,2,0,L|191:178,1,34.9999989318848
30,190,42600,1,8,0:0:0:0:
115,209,42750,1,0,0:0:0:0:
30,209,42900,1,2,0:0:0:0:
115,190,43050,1,0,0:0:0:0:
179,351,43200,5,4,0:0:0:0:
225,285,43350,1,0,0:0:0:0:
305,292,43500,1,2,0:0:0:0:
339,365,43650,1,0,0:0:0:0:
383,298,43800,1,8,0:0:0:0:
350,224,43950,1,0,0:0:0:0:
416,372,44100,1,6,0:0:0:0:
460,305,44250,1,0,0:0:0:0:
339,365,44400,1,0,0:0:0:0:
366,20,44700,1,0,0:0:0:0:
287,37,44850,1,0,0:0:0:0:
342,95,45000,1,8,0:0:0:0:
397,153,45150,1,0,0:0:0:0:
452,210,45300,1,0,0:0:0:0:
507,267,45450,1,0,0:0:0:0:
420,76,45600,5,4,0:0:0:0:
430,286,45750,1,4,0:0:0:0:
498,57,45900,1,6,0:0:0:0:
479,135,46050,1,0,0:0:0:0:
420,76,46200,1,8,0:0:0:0:
342,95,46350,1,0,0:0:0:0:
507,267,46500,1,6,0:0:0:0:
430,286,46650,1,0,0:0:0:0:
375,228,46800,1,0,0:0:0:0:
201,345,47100,2,0,P|190:309|193:274,1,66.6666666666667
201,215,47400,2,0,P|201:248|191:279,1,66.6666666666667,8|0,0:0|0:0,0:0:0:0:
63,298,47700,1,2,0:0:0:0:
324,311,48000,6,0,L|340:312,1,13.3333333333333,4|0,0:0|0:0,0:0:0:0:
416,311,48300,2,0,L|400:312,1,13.3333333333333
277,307,48600,2,0,L|293:308,1,13.3333333333333,8|0,0:0|0:0,0:0:0:0:
370,307,48900,2,0,L|353:308,1,13.3333333333333,4|0,0:0|0:0,0:0:0:0:
230,303,49200,2,0,L|246:304,1,13.3333333333333
323,303,49500,2,0,L|306:304,1,13.3333333333333
272,237,49800,2,0,L|289:235,1,13.3333333333333,10|0,0:0|0:0,0:0:0:0:
364,236,50100,1,0,0:0:0:0:
206,101,50400,6,0,P|196:101|188:103,1,13.3333333333333
116,102,50700,2,0,P|122:103|128:103,1,13.3333333333333
252,94,51000,2,0,P|244:94|237:95,1,13.3333333333333,10|0,0:0|0:0,0:0:0:0:
160,94,51300,2,0,P|166:95|172:95,1,13.3333333333333
297,87,51600,2,0,P|289:87|281:88,1,13.3333333333333
205,87,51900,2,0,P|213:89|220:88,1,13.3333333333333
367,62,52200,1,10,0:0:0:0:
309,248,52500,2,0,L|308:258,2,8.7499997329712
427,206,52800,6,0,L|428:218,1,13.3333333333333,4|0,0:0|0:0,0:0:0:0:
428,300,53100,2,0,L|428:287,1,13.3333333333333
425,159,53400,2,0,L|425:172,1,13.3333333333333,10|0,0:0|0:0,0:0:0:0:
425,252,53700,2,0,L|425:236,1,13.3333333333333,4|0,0:0|0:0,0:0:0:0:
421,112,54000,2,0,L|422:128,1,13.3333333333333
422,205,54300,2,0,L|423:186,1,13.3333333333333
414,35,54600,1,10,0:0:0:0:
414,352,54900,1,0,0:0:0:0:
167,131,55200,6,0,L|205:135,2,23.3333326212565
84,152,55500,2,0,L|46:156,2,23.3333326212565
109,75,55800,1,10,0:0:0:0:
80,320,56100,2,0,P|113:329|130:330,1,46.6666652425131
120,225,56400,2,0,L|122:254,2,23.3333326212565,2|0|0,0:0|0:0|0:0,0:0:0:0:
198,283,56700,2,0,P|231:274|248:273,1,46.6666652425131
317,316,57000,1,10,0:0:0:0:
200,192,57300,1,0,0:0:0:0:
139,130,62400,6,0,B|160:166|169:266|169:266|241:150|202:49|202:49|118:81|13:50|13:50|111:155|100:324|100:324,1,839.999974365235
339,79,67200,5,0,0:0:0:0:
375,150,67350,1,0,0:0:0:0:
335,220,67500,1,0,0:0:0:0:
254,217,67650,1,0,0:0:0:0:
208,150,67800,1,8,0:0:0:0:
236,225,67950,1,0,0:0:0:0:
230,144,68100,1,0,0:0:0:0:
216,223,68250,1,0,0:0:0:0:
418,79,68400,1,0,0:0:0:0:
284,288,68700,1,0,0:0:0:0:
170,67,69000,2,0,L|167:97,1,30,8|0,0:0|0:0,0:0:0:0:
141,218,69600,6,0,L|138:188,1,30
208,288,69900,1,0,0:0:0:0:
280,315,70050,1,0,0:0:0:0:
348,279,70200,1,8,0:0:0:0:
288,327,70350,1,0,0:0:0:0:
338,268,70500,1,0,0:0:0:0:
302,336,70650,1,0,0:0:0:0:
341,118,70800,1,0,0:0:0:0:
377,355,71100,1,0,0:0:0:0:
153,267,71400,2,0,L|184:266,1,30,8|0,0:0|0:0,0:0:0:0:
49,192,72000,6,0,L|80:191,1,30
147,89,72300,1,0,0:0:0:0:
215,123,72450,1,0,0:0:0:0:
291,115,72600,1,8,0:0:0:0:
352,68,72750,1,0,0:0:0:0:
304,128,72900,1,0,0:0:0:0:
337,58,73050,1,0,0:0:0:0:
311,296,73200,1,0,0:0:0:0:
213,44,73500,1,0,0:0:0:0:
480,85,73800,2,0,L|477:122,1,30,8|0,0:0|0:0,0:0:0:0:
389,35,74400,5,0,0:0:0:0:
328,82,74550,1,0,0:0:0:0:
252,94,74700,1,0,0:0:0:0:
176,78,74850,1,0,0:0:0:0:
113,32,75000,1,8,0:0:0:0:
163,90,75150,1,0,0:0:0:0:
130,20,75300,1,0,0:0:0:0:
140,96,75450,1,0,0:0:0:0:
389,35,75600,1,0,0:0:0:0:
317,281,75900,1,0,0:0:0:0:
140,96,76200,2,0,L|103:99,1,30,8|0,0:0|0:0,0:0:0:0:
58,340,76800,5,0,0:0:0:0:
34,136,77100,1,0,0:0:0:0:
58,340,77400,1,8,0:0:0:0:
34,136,77700,1,0,0:0:0:0:
255,335,78000,2,0,L|239:333,1,10
58,340,78300,1,0,0:0:0:0:
60,333,78450,1,0,0:0:0:0:
62,326,78600,1,8,0:0:0:0:
55,154,78900,1,0,0:0:0:0:
62,326,79200,5,0,0:0:0:0:
61,319,79350,1,0,0:0:0:0:
60,312,79500,1,0,0:0:0:0:
59,305,79650,1,0,0:0:0:0:
58,298,79800,1,8,0:0:0:0:
57,291,79950,1,0,0:0:0:0:
56,284,80100,1,0,0:0:0:0:
55,277,80250,1,0,0:0:0:0:
277,244,80400,2,0,L|267:245,1,10
55,277,80700,1,0,0:0:0:0:
57,270,80850,1,0,0:0:0:0:
59,263,81000,1,8,0:0:0:0:
44,51,81300,1,0,0:0:0:0:
59,263,81600,5,0,0:0:0:0:
57,256,81750,1,0,0:0:0:0:
55,249,81900,1,0,0:0:0:0:
53,242,82050,1,0,0:0:0:0:
51,235,82200,1,8,0:0:0:0:
49,228,82350,1,0,0:0:0:0:
47,221,82500,1,0,0:0:0:0:
45,214,82650,1,0,0:0:0:0:
306,175,82800,2,0,L|296:173,1,10
45,214,83100,1,0,0:0:0:0:
46,207,83250,1,0,0:0:0:0:
47,200,83400,1,8,0:0:0:0:
56,15,83700,1,0,0:0:0:0:
47,200,84000,5,0,0:0:0:0:
45,193,84150,1,0,0:0:0:0:
43,186,84300,1,0,0:0:0:0:
41,179,84450,1,0,0:0:0:0:
39,172,84600,1,8,0:0:0:0:
37,165,84750,1,0,0:0:0:0:
35,158,84900,1,0,0:0:0:0:
33,151,85050,1,0,0:0:0:0:
304,86,85200,2,0,L|294:87,1,10
33,151,85500,1,0,0:0:0:0:
35,144,85650,1,0,0:0:0:0:
37,137,85800,1,8,0:0:0:0:
116,118,85950,5,0,0:0:0:0:
57,64,86100,1,0,0:0:0:0:
276,345,86400,6,0,L|253:347,1,20,0|8,0:0|0:0,0:0:0:0:
395,334,87600,2,0,L|372:336,1,20,0|8,0:0|0:0,0:0:0:0:
454,233,88800,2,0,L|477:235,1,20,0|8,0:0|0:0,0:0:0:0:
335,222,90000,2,0,L|358:224,1,20,0|8,0:0|0:0,0:0:0:0:
110,95,91200,6,0,P|124:97|132:97,1,20,0|8,0:0|0:0,0:0:0:0:
0,69,92400,2,0,P|9:69|19:71,1,20,0|8,0:0|0:0,0:0:0:0:
132,195,93600,2,0,P|141:194|151:192,1,20,0|8,0:0|0:0,0:0:0:0:
0,175,94800,2,0,P|9:175|19:177,1,20
13,286,95400,2,0,B|51:282|51:282|81:298|81:298|126:293|126:293,1,104.999996795654
96,223,96000,5,0,0:0:0:0:
291,193,96300,2,0,L|288:161,2,23.3333326212565
408,182,96600,2,0,L|376:185,1,23.3333326212565,8|0,0:0|0:0,0:0:0:0:
350,268,96800,1,0,0:0:0:0:
341,271,96900,1,0,0:0:0:0:
331,271,97000,1,0,0:0:0:0:
425,317,97100,1,0,0:0:0:0:
424,326,97200,1,0,0:0:0:0:
421,335,97300,1,0,0:0:0:0:
415,342,97400,1,0,0:0:0:0:
407,348,97500,2,0,L|344:351,1,46.6666652425131
186,346,97800,2,0,L|249:349,1,46.6666652425131,8|0,0:0|0:0,0:0:0:0:
360,350,98100,2,0,L|297:347,1,46.6666652425131
103,330,98400,5,0,0:0:0:0:
189,158,98700,1,0,0:0:0:0:
196,163,98800,1,0,0:0:0:0:
198,171,98900,1,0,0:0:0:0:
200,179,99000,2,0,L|246:176,1,46.6666652425131,8|0,0:0|0:0,0:0:0:0:
436,192,99300,2,0,L|389:189,1,46.6666652425131
246,176,99600,2,0,L|292:178,1,46.6666652425131
436,192,99900,1,0,0:0:0:0:
444,195,100000,1,0,0:0:0:0:
453,196,100100,1,0,0:0:0:0:
462,195,100200,2,0,L|508:192,1,46.6666652425131,8|0,0:0|0:0,0:0:0:0:
339,180,100500,2,0,L|292:177,1,46.6666652425131
405,101,100800,5,0,0:0:0:0:
117,309,101100,1,0,0:0:0:0:
113,300,101200,1,0,0:0:0:0:
111,290,101300,1,0,0:0:0:0:
112,280,101400,2,0,L|114:233,1,46.6666652425131,8|0,0:0|0:0,0:0:0:0:
269,348,101700,1,0,0:0:0:0:
273,339,101800,1,0,0:0:0:0:
275,329,101900,1,0,0:0:0:0:
274,319,102000,2,0,L|271:272,1,46.6666652425131
197,65,102300,1,0,0:0:0:0:
193,74,102400,1,0,0:0:0:0:
191,84,102500,1,0,0:0:0:0:
192,94,102600,2,0,L|194:140,1,46.6666652425131,8|0,0:0|0:0,0:0:0:0:
190,310,102900,2,0,L|192:263,1,46.6666652425131
376,216,103200,6,0,L|374:203,2,11.6666663106283
457,233,103500,2,0,L|455:220,2,11.6666663106283
292,301,103700,1,0,0:0:0:0:
299,306,103800,1,8,0:0:0:0:
307,308,103900,1,0,0:0:0:0:
316,307,104000,1,0,0:0:0:0:
323,305,104100,2,0,L|369:307,1,46.6666652425131
214,304,104400,2,0,L|167:306,1,46.6666652425131
370,308,104700,2,0,L|416:305,1,46.6666652425131
167,306,105000,2,0,L|120:303,1,46.6666652425131,8|0,0:0|0:0,0:0:0:0:
416,305,105300,2,0,L|462:307,1,46.6666652425131
400,109,105600,5,0,0:0:0:0:
88,155,110400,6,0,P|154:190|268:147,1,189.999994926453,4|0,0:0|0:0,0:0:0:0:
352,55,110900,1,0,0:0:0:0:
334,88,111000,1,8,0:0:0:0:
341,125,111100,1,0,0:0:0:0:
368,151,111200,1,0,0:0:0:0:
403,165,111300,2,0,L|417:294,1,126.666663284302,4|0,0:0|0:0,0:0:0:0:
386,368,111600,1,0,0:0:0:0:
386,368,111900,1,0,0:0:0:0:
361,339,112000,1,0,0:0:0:0:
323,335,112100,1,0,0:0:0:0:
288,349,112200,2,0,P|221:374|161:352,1,126.666663284302,8|0,0:0|0:0,0:0:0:0:
223,286,112500,2,0,P|283:271|340:295,1,126.666663284302
134,275,112800,5,4,0:0:0:0:
187,135,112950,1,4,0:0:0:0:
223,286,113100,1,4,0:0:0:0:
223,286,113400,2,0,P|283:271|340:295,1,126.666663284302,8|0,0:0|0:0,0:0:0:0:
105,295,113700,2,0,P|165:309|222:285,1,126.666663284302,4|0,0:0|0:0,0:0:0:0:
61,151,114000,1,0,0:0:0:0:
95,166,114100,1,0,0:0:0:0:
132,161,114200,1,0,0:0:0:0:
167,147,114300,1,0,0:0:0:0:
202,134,114400,1,0,0:0:0:0:
234,153,114500,1,0,0:0:0:0:
235,190,114600,2,0,L|221:299,1,94.9999974632264,8|0,0:0|0:0,0:0:0:0:
365,143,114900,2,0,L|377:237,1,94.9999974632264
44,97,115200,5,4,0:0:0:0:
67,237,115350,1,0,0:0:0:0:
203,277,115500,1,2,0:0:0:0:
305,177,115650,1,0,0:0:0:0:
291,35,115800,1,8,0:0:0:0:
386,142,115950,1,0,0:0:0:0:
247,112,116100,1,6,0:0:0:0:
377,53,116250,1,0,0:0:0:0:
167,148,116400,1,0,0:0:0:0:
461,90,116700,1,0,0:0:0:0:
169,57,117000,2,0,P|84:118|112:222,1,189.999994926453,8|0,0:0|0:0,0:0:0:0:
159,238,117450,1,0,0:0:0:0:
305,26,117600,5,4,0:0:0:0:
310,214,117750,1,4,0:0:0:0:
305,26,117900,1,6,0:0:0:0:
417,113,118050,1,0,0:0:0:0:
419,255,118200,1,8,0:0:0:0:
309,345,118350,1,0,0:0:0:0:
166,352,118500,1,6,0:0:0:0:
308,360,118650,1,0,0:0:0:0:
90,64,118800,2,0,L|102:158,1,94.9999974632264
167,362,119100,2,0,L|154:267,1,94.9999974632264
221,9,119400,2,0,L|246:207,1,189.999994926453,8|0,0:0|0:0,0:0:0:0:
102,158,119850,1,0,0:0:0:0:
327,18,120000,6,0,L|339:112,1,94.9999974632264,4|0,0:0|0:0,0:0:0:0:
468,313,120300,1,2,0:0:0:0:
331,272,120450,1,0,0:0:0:0:
196,319,120600,1,8,0:0:0:0:
67,257,120750,1,0,0:0:0:0:
87,115,120900,1,6,0:0:0:0:
225,79,121050,1,0,0:0:0:0:
195,318,121200,2,0,L|183:224,1,94.9999974632264
434,74,121500,2,0,L|446:168,1,94.9999974632264
79,363,121800,2,0,L|55:168,1,189.999994926453,8|0,0:0|0:0,0:0:0:0:
83,71,122250,1,0,0:0:0:0:
326,249,122400,5,4,0:0:0:0:
306,27,122550,1,4,0:0:0:0:
326,249,122700,1,6,0:0:0:0:
465,217,122850,1,0,0:0:0:0:
336,154,123000,1,8,0:0:0:0:
201,200,123150,1,0,0:0:0:0:
154,334,123300,1,6,0:0:0:0:
178,193,123450,1,0,0:0:0:0:
477,311,123600,2,0,L|465:217,1,94.9999974632264
398,20,123900,2,0,L|410:114,1,94.9999974632264
393,326,124200,1,0,0:0:0:0:
393,326,124500,1,0,0:0:0:0:
413,39,124800,5,0,0:0:0:0:
239,45,125100,1,0,0:0:0:0:
405,57,125400,1,8,0:0:0:0:
228,33,125700,1,0,0:0:0:0:
364,243,126000,2,0,L|365:233,1,10
405,57,126300,1,0,0:0:0:0:
398,57,126450,1,0,0:0:0:0:
391,57,126600,1,8,0:0:0:0:
150,44,126900,1,0,0:0:0:0:
391,57,127200,5,0,0:0:0:0:
384,55,127350,1,0,0:0:0:0:
377,54,127500,1,0,0:0:0:0:
370,53,127650,1,0,0:0:0:0:
363,52,127800,1,8,0:0:0:0:
356,51,127950,1,0,0:0:0:0:
349,50,128100,1,0,0:0:0:0:
342,49,128250,1,0,0:0:0:0:
282,245,128400,2,0,L|280:235,1,10
342,49,128700,1,0,0:0:0:0:
335,50,128850,1,0,0:0:0:0:
328,51,129000,1,8,0:0:0:0:
48,34,129300,1,0,0:0:0:0:
328,51,129600,5,0,0:0:0:0:
321,49,129750,1,0,0:0:0:0:
314,47,129900,1,0,0:0:0:0:
307,45,130050,1,0,0:0:0:0:
300,43,130200,1,8,0:0:0:0:
293,41,130350,1,0,0:0:0:0:
286,39,130500,1,0,0:0:0:0:
279,37,130650,1,0,0:0:0:0:
192,275,130800,2,0,L|193:265,1,10
279,37,131100,1,0,0:0:0:0:
272,38,131250,1,0,0:0:0:0:
265,39,131400,1,8,0:0:0:0:
13,64,131700,1,0,0:0:0:0:
265,39,132000,5,0,0:0:0:0:
258,37,132150,1,0,0:0:0:0:
251,35,132300,1,0,0:0:0:0:
244,33,132450,1,0,0:0:0:0:
237,31,132600,1,8,0:0:0:0:
230,29,132750,1,0,0:0:0:0:
223,27,132900,1,0,0:0:0:0:
216,25,133050,1,0,0:0:0:0:
106,244,133200,2,0,L|104:234,1,10
216,25,133500,1,0,0:0:0:0:
209,27,133650,1,0,0:0:0:0:
202,29,133800,1,8,0:0:0:0:
292,215,134100,2,0,L|289:226,2,6.66666666666667
70,12,134400,6,0,L|72:32,1,20
90,130,135600,2,0,L|92:150,1,20
109,249,136800,2,0,L|111:269,1,20
131,360,138000,2,0,L|133:380,1,20
361,105,139200,6,0,L|480:90,1,94.9999974632264,4|0,0:0|0:0,0:0:0:0:
216,44,139500,1,2,0:0:0:0:
344,106,139650,1,0,0:0:0:0:
373,245,139800,1,8,0:0:0:0:
276,349,139950,1,0,0:0:0:0:
134,366,140100,1,6,0:0:0:0:
276,366,140250,1,0,0:0:0:0:
100,274,140400,2,0,L|-19:289,1,94.9999974632264
359,335,140700,2,0,L|453:323,1,94.9999974632264
100,274,141000,2,0,L|294:250,1,189.999994926453,8|0,0:0|0:0,0:0:0:0:
390,234,141450,1,0,0:0:0:0:
119,29,141600,5,4,0:0:0:0:
100,274,141750,1,4,0:0:0:0:
119,29,141900,1,6,0:0:0:0:
35,144,142050,1,0,0:0:0:0:
168,193,142200,1,8,0:0:0:0:
306,158,142350,1,0,0:0:0:0:
175,216,142500,1,6,0:0:0:0:
59,132,142650,1,0,0:0:0:0:
493,134,142800,2,0,L|398:145,1,94.9999974632264
146,112,143100,2,0,L|240:100,1,94.9999974632264
477,221,143400,2,0,L|288:244,1,189.999994926453,8|0,0:0|0:0,0:0:0:0:
203,258,143850,1,0,0:0:0:0:
334,58,144000,6,0,B|283:62|283:62|237:44,1,94.9999974632264,4|0,0:0|0:0,0:0:0:0:
60,116,144300,2,0,B|110:111|110:111|152:85,1,94.9999974632264,2|0,0:0|0:0,0:0:0:0:
313,154,144600,2,0,B|262:158|262:158|220:184,1,94.9999974632264,8|0,0:0|0:0,0:0:0:0:
23,213,144900,2,4,B|73:208|73:208|119:226,1,94.9999974632264,6|0,0:0|0:0,0:0:0:0:
360,355,145200,2,0,L|361:337,1,10
379,19,145500,1,0,0:0:0:0:
457,186,145650,1,0,0:0:0:0:
471,12,145800,2,0,L|471:21,1,10,8|0,0:0|0:0,0:0:0:0:
273,348,146100,2,0,L|272:330,1,10
471,17,146400,5,4,0:0:0:0:
444,210,146550,1,4,0:0:0:0:
471,38,146700,1,6,0:0:0:0:
348,226,146850,1,0,0:0:0:0:
476,56,147000,1,8,0:0:0:0:
259,196,147150,1,0,0:0:0:0:
482,75,147300,1,6,0:0:0:0:
199,128,147450,1,0,0:0:0:0:
287,292,147600,2,0,L|287:301,1,10
491,97,147900,1,0,0:0:0:0:
171,211,148050,1,0,0:0:0:0:
498,118,148200,2,0,L|497:127,1,10,8|0,0:0|0:0,0:0:0:0:
161,57,148500,2,0,L|161:66,1,10
415,348,148800,5,4,0:0:0:0:
321,167,148950,1,0,0:0:0:0:
420,328,149100,1,2,0:0:0:0:
243,189,149250,1,0,0:0:0:0:
425,303,149400,1,8,0:0:0:0:
200,259,149550,1,0,0:0:0:0:
429,280,149700,1,6,0:0:0:0:
201,343,149850,1,0,0:0:0:0:
432,266,150000,2,0,L|432:256,1,10
72,124,150300,1,0,0:0:0:0:
276,307,150450,1,0,0:0:0:0:
34,202,150600,2,0,L|43:202,1,10,8|0,0:0|0:0,0:0:0:0:
88,40,150900,2,0,L|78:40,1,10
296,198,151200,5,4,0:0:0:0:
383,272,151350,1,4,0:0:0:0:
205,191,151500,1,6,0:0:0:0:
401,274,151650,1,0,0:0:0:0:
120,229,151800,1,8,0:0:0:0:
419,277,151950,1,0,0:0:0:0:
66,304,152100,1,6,0:0:0:0:
437,280,152250,1,0,0:0:0:0:
35,221,152400,2,0,L|34:212,1,10
117,37,152700,1,0,0:0:0:0:
206,357,152850,1,0,0:0:0:0:
203,15,153000,1,8,0:0:0:0:
203,15,153300,2,0,L|211:13,2,6.66666666666667
