osu file format v14

[General]
AudioFilename: 12. Yesterday [Movie ver.].mp3
AudioLeadIn: 0
PreviewTime: 14567
Countdown: 0
SampleSet: Soft
StackLeniency: 0.4
Mode: 0
LetterboxInBreaks: 0
EpilepsyWarning: 1
WidescreenStoryboard: 1

[Editor]
DistanceSpacing: 1.1
BeatDivisor: 4
GridSize: 32
TimelineZoom: 2.3

[Metadata]
Title:Yesterday (Movie ver.)
TitleUnicode:イエスタデイ (Movie ver.)
Artist:Official HIGE DANdism
ArtistUnicode:Official髭男dism
Creator:gokugohan12468
Version:sinn's Light Insane
Source:HELLO WORLD
Tags:HIGEDAN Traveler ハロー・ワールド OST Original Soundtrack 楢崎誠 小笹大輔 藤原聡 松浦匡希 Satoshi Fujihara Daisuke Ozasa Makoto Narazaki Masaki Matsuura Koichi Tsutaya agehasprings [-Evil-] Evil AnreFM sinn Addy2607 appleeaterx Mint KittyAdventure 直実告白、両想いに キス! オフィシャルヒゲダンディズム short version size pop anime japanese jpop j-pop
BeatmapID:2457886
BeatmapSetID:1124845

[Difficulty]
HPDrainRate:5
CircleSize:3.5
OverallDifficulty:7
ApproachRate:8
SliderMultiplier:1.6
SliderTickRate:1

[Events]
//Background and Video events
0,0,"background.jpg",0,0
//Break Periods
//Storyboard Layer 0 (Background)
//Storyboard Layer 1 (Fail)
//Storyboard Layer 2 (Pass)
//Storyboard Layer 3 (Foreground)
//Storyboard Layer 4 (Overlay)
//Storyboard Sound Samples

[TimingPoints]
490,461.538461538462,4,2,1,60,1,0
1010,461.538461538462,4,2,1,60,1,0
12086,-90.9090909090909,4,2,1,60,0,0
13010,-83.3333333333333,4,2,1,60,0,0
13933,-100,4,2,1,60,0,0
14856,-166.666666666667,4,2,1,60,0,0
15779,-83.3333333333333,4,2,1,70,0,1
16240,-83.3333333333333,4,2,1,70,0,0
30433,-83.3333333333333,4,2,1,70,0,0
30548,-83.3333333333333,4,2,1,70,0,1
31010,-83.3333333333333,4,2,1,70,0,0
37817,-83.3333333333333,4,2,1,70,0,0
37933,-83.3333333333333,4,2,1,75,0,0
39663,-83.3333333333333,4,2,1,75,0,0
39779,-83.3333333333333,4,2,1,75,0,0
41510,-83.3333333333333,4,2,1,75,0,0
41625,-76.9230769230769,4,2,1,75,0,0
43933,-68.9655172413793,4,2,1,80,0,0
44394,-76.9230769230769,4,2,1,80,0,0
45202,-76.9230769230769,4,2,1,80,0,0
45317,-80,4,2,1,75,0,1
45779,-80,4,2,1,75,0,0
59971,-80,4,2,1,75,0,0
60086,-83.3333333333333,4,2,1,70,0,1
60548,-83.3333333333333,4,2,1,70,0,0
67356,-80,4,2,1,70,0,0
67471,-83.3333333333333,4,2,1,75,0,0
69202,-83.3333333333333,4,2,1,75,0,0
69317,-76.9230769230769,4,2,1,75,0,0
71048,-76.9230769230769,4,2,1,75,0,0
71163,-71.4285714285714,4,2,1,75,0,0
72894,-71.4285714285714,4,2,1,75,0,0
73010,-66.6666666666667,4,2,1,80,0,0
74740,-66.6666666666667,4,2,1,80,0,0
74856,-200,4,2,1,60,0,1
75317,-200,4,2,1,60,0,0

[Colours]
Combo1 : 0,128,255
Combo2 : 255,128,64
Combo3 : 255,255,128
Combo4 : 255,62,62
Combo5 : 128,255,128
Combo6 : 192,192,192
Combo7 : 128,128,128
Combo8 : 0,128,192

[HitObjects]
132,65,1010,70,0,P|155:103|154:150,1,80,2|0,0:0|0:0,0:0:0:0:
34,253,1471,2,0,P|55:214|96:191,1,80,2|0,0:0|0:0,0:0:0:0:
248,237,1933,2,0,P|203:238|163:214,1,80,2|0,0:0|0:0,0:0:0:0:
226,154,2394,1,2,0:0:0:0:
226,154,2625,1,0,0:0:0:0:
322,96,2856,6,0,B|429:94|375:143|475:140,1,160,2|2,0:0|0:0,0:0:0:0:
470,140,3548,1,0,0:0:0:0:
422,295,3779,2,0,P|355:256|358:157,1,160,2|2,0:0|0:0,0:0:0:0:
345,179,4471,1,0,0:0:0:0:
232,292,4702,102,0,B|187:322|187:322|82:296,1,160,2|2,0:0|0:0,0:0:0:0:
26,227,5394,1,0,0:0:0:0:
26,227,5625,1,2,0:0:0:0:
103,105,5856,2,0,P|125:145|116:194,1,80,2|0,0:0|0:0,0:0:0:0:
116,197,6202,1,2,0:0:0:0:
18,79,6548,6,0,P|72:22|152:30,1,160,2|2,0:0|0:0,0:0:0:0:
181,122,7240,1,0,0:0:0:0:
181,122,7471,2,0,L|93:102,1,80,2|0,0:0|0:0,0:0:0:0:
242,9,7933,2,0,P|263:47|259:86,1,80,2|0,0:0|0:0,0:0:0:0:
235,224,8394,102,0,P|289:162|369:172,2,160,2|2|2,1:2|0:0|1:2,0:0:0:0:
301,319,9548,1,0,0:0:0:0:
301,319,9779,2,0,P|319:287|317:236,1,80,2|0,0:0|0:0,0:0:0:0:
186,329,10240,6,0,P|105:313|73:238,2,160,2|2|2,1:2|0:0|1:2,0:0:0:0:
235,224,11394,1,0,0:0:0:0:
235,224,11625,2,0,P|198:224|155:251,1,80,2|0,0:0|0:0,0:0:0:0:
55,128,12086,102,0,B|165:129|106:83|224:79,1,176.000005371094,2|2,1:2|0:0,0:0:0:0:
370,211,12779,1,0,0:0:0:0:
370,211,13010,6,0,B|250:212|309:160|185:166,1,191.999994140625,2|2,1:2|0:0,0:0:0:0:
300,11,13702,1,0,0:0:0:0:
300,11,13933,102,0,P|362:47|349:129,1,160,2|2,0:0|0:0,0:0:0:0:
219,266,14625,1,0,0:0:0:0:
219,266,14856,6,0,B|184:254|184:254|172:237|172:237|132:223,1,95.9999970703126,2|2,0:0|0:0,0:0:0:0:
135,224,15779,38,0,B|202:208|202:208|234:173|234:173|312:152,1,191.999994140625,6|8,1:2|1:2,0:0:0:0:
444,198,16471,1,2,0:0:0:0:
366,319,16702,2,0,P|341:283|345:230,1,95.9999970703126,2|0,1:2|0:0,0:0:0:0:
417,108,17163,2,0,P|422:87|422:59,2,47.9999985351563,10|2|2,1:2|0:0|0:0,0:0:0:0:
343,232,17625,6,0,B|219:230|286:288|163:287,1,191.999994140625,2|8,1:2|1:2,0:0:0:0:
33,231,18317,1,2,0:0:0:0:
81,95,18548,2,0,P|155:100|180:209,1,191.999994140625,2|8,1:2|1:2,0:0:0:0:
87,307,19240,1,2,0:0:0:0:
12,185,19471,6,0,L|112:167,1,95.9999970703126,2|0,1:2|0:0,0:0:0:0:
264,238,19933,1,10,1:2:0:0:
184,200,20163,1,2,0:0:0:0:
284,58,20394,6,0,L|249:153,1,95.9999970703126,2|0,1:2|0:0,0:0:0:0:
111,250,20856,1,10,1:2:0:0:
184,200,21086,1,2,0:0:0:0:
290,337,21317,70,0,P|370:342|416:245,1,191.999994140625,2|8,1:2|1:2,0:0:0:0:
376,166,22010,1,2,0:0:0:0:
282,248,22240,2,0,B|210:228|210:228|180:192|180:192|111:171,1,191.999994140625,2|8,1:2|1:2,0:0:0:0:
19,147,22933,1,0,0:0:0:0:
74,315,23163,5,2,1:2:0:0:
136,255,23394,1,2,0:0:0:0:
166,336,23625,1,10,1:2:0:0:
53,230,23856,1,2,0:0:0:0:
204,202,24086,1,2,1:2:0:0:
74,315,24317,1,2,0:0:0:0:
120,147,24548,1,10,1:2:0:0:
166,336,24779,1,2,0:0:0:0:
332,235,25010,6,0,P|282:162|201:209,1,191.999994140625,2|10,1:2|1:2,0:0:0:0:
244,309,25702,1,2,0:0:0:0:
379,359,25933,2,0,P|412:278|404:169,1,191.999994140625,2|10,1:2|1:2,0:0:0:0:
350,74,26625,1,2,0:0:0:0:
203,201,26856,6,0,B|69:171|69:171|121:153,1,191.999994140625,6|12,1:2|1:2,0:0:0:0:
120,153,27548,1,2,0:0:0:0:
239,286,27779,70,0,L|52:242,1,191.999994140625,2|12,1:2|1:2,0:0:0:0:
52,242,28471,1,0,0:0:0:0:
189,356,28702,6,0,B|111:338|111:338|74:353|74:353|4:336,1,191.999994140625,0|12,1:0|1:2,0:0:0:0:
4,336,29394,1,2,0:0:0:0:
110,202,29625,1,10,0:0:0:0:
110,202,29740,1,8,0:0:0:0:
110,202,29856,2,0,P|116:231|112:254,1,47.9999985351563,2|0,0:0|0:0,0:0:0:0:
189,356,30086,2,0,P|183:327|187:304,1,47.9999985351563,10|0,0:0|0:0,0:0:0:0:
231,202,30317,1,10,1:2:0:0:
231,202,30433,1,10,1:2:0:0:
231,202,30548,6,0,B|285:229|327:205|327:205|340:161|402:147,1,191.999994140625,6|8,1:2|1:2,0:0:0:0:
512,232,31240,1,2,0:0:0:0:
440,357,31471,2,0,B|412:361|412:361|399:340|397:317|410:285,1,95.9999970703126,2|0,1:2|0:0,0:0:0:0:
469,165,31933,2,0,P|497:154|522:153,1,47.9999985351563,10|2,1:2|0:0,0:0:0:0:
512,232,32163,1,2,0:0:0:0:
394,148,32394,6,0,B|340:161|327:205|327:205|285:229|231:202,1,191.999994140625,2|8,1:2|1:2,0:0:0:0:
98,148,33086,1,2,0:0:0:0:
163,19,33317,2,0,B|227:9|227:9|259:41|266:83|246:130,1,191.999994140625,2|8,1:2|1:2,0:0:0:0:
163,245,34010,1,2,0:0:0:0:
27,200,34240,70,0,P|11:139|103:61,1,191.999994140625,2|10,1:2|1:2,0:0:0:0:
235,167,34933,1,2,0:0:0:0:
183,331,35163,2,0,B|67:329|131:277|4:278,1,191.999994140625,2|10,1:2|1:2,0:0:0:0:
130,158,35856,1,2,0:0:0:0:
250,281,36086,6,0,L|457:238,1,191.999994140625,2|8,1:2|1:2,0:0:0:0:
304,131,36779,1,2,0:0:0:0:
156,220,37010,2,0,B|120:179|120:179|152:37,1,191.999994140625,2|8,1:2|1:2,0:0:0:0:
247,188,37702,1,2,0:0:0:0:
354,52,37933,6,0,L|504:25,2,143.999995605469,6|2|2,1:2|0:0|0:0,0:0:0:0:
242,143,38856,2,0,B|188:130|188:130|164:106|164:106|112:92,2,143.999995605469,2|2|2,1:2|0:0|0:0,0:0:0:0:
378,250,39779,6,0,P|402:319|360:371,2,143.999995605469,6|2|2,1:2|0:0|0:0,0:0:0:0:
266,306,40702,2,0,P|223:327|173:316,1,95.9999970703126,2|0,1:2|0:0,0:0:0:0:
191,146,41163,2,0,L|212:245,1,95.9999970703126,8|2,1:2|0:0,0:0:0:0:
266,306,41510,1,2,0:0:0:0:
266,306,41625,70,0,B|297:268|297:268|262:97,1,207.999990478516,6|12,1:2|1:2,0:0:0:0:
265,112,42317,1,2,0:0:0:0:
107,21,42548,2,0,L|153:231,1,207.999990478516,2|12,1:2|1:2,0:0:0:0:
151,224,43240,1,2,0:0:0:0:
31,368,43471,6,0,B|69:331|69:331|224:300,1,207.999990478516,2|12,1:2|1:2,0:0:0:0:
428,369,44163,1,10,0:0:0:0:
428,369,44279,1,8,0:0:0:0:
428,369,44394,1,10,0:0:0:0:
374,190,44625,1,6,3:0:0:0:
279,352,44856,2,0,L|329:338,1,51.999997619629,10|8,0:0|1:2,0:0:0:0:
496,251,45086,1,10,1:2:0:0:
496,251,45202,1,10,1:2:0:0:
496,251,45317,86,0,B|424:231|424:231|396:197|396:197|313:174,1,200,6|10,1:2|1:2,0:0:0:0:
213,284,46010,2,0,L|116:311,1,100,2|2,0:0|1:2,0:0:0:0:
12,202,46471,1,0,0:0:0:0:
12,202,46702,2,0,P|57:174|102:177,1,100,10|2,1:2|0:0,0:0:0:0:
213,284,47163,101,0,1:0:0:0:
268,144,47394,1,2,0:0:0:0:
404,262,47625,2,0,L|301:233,1,100,10|0,1:2|0:0,0:0:0:0:
163,195,48086,5,2,1:2:0:0:
355,139,48317,1,0,0:0:0:0:
315,335,48548,1,10,1:2:0:0:
246,147,48779,1,2,0:0:0:0:
117,300,49010,102,0,B|63:288|63:288|40:240|46:200|91:153,1,200,0|10,1:0|1:2,0:0:0:0:
182,39,49702,2,0,B|254:56|254:56|286:92|286:92|364:109,1,200,2|2,0:0|0:0,0:0:0:0:
501,11,50394,2,0,P|463:42|452:94,1,100,10|2,1:2|0:0,0:0:0:0:
488,215,50856,6,0,L|386:193,1,100,0|2,1:0|0:0,0:0:0:0:
311,321,51317,2,0,L|209:343,1,100,10|2,1:2|0:0,0:0:0:0:
78,276,51779,1,2,1:2:0:0:
202,191,52010,1,2,0:0:0:0:
123,352,52240,1,10,1:2:0:0:
32,196,52471,1,2,0:0:0:0:
213,342,52702,102,0,L|408:299,1,200,6|10,1:2|1:2,0:0:0:0:
407,120,53394,2,0,P|309:155|313:248,1,200,2|2,0:0|0:0,0:0:0:0:
487,240,54086,2,0,P|446:212|393:206,1,100,10|2,1:2|0:0,0:0:0:0:
254,316,54548,6,0,B|200:348|200:348|63:307,1,200,2|10,1:2|1:2,0:0:0:0:
75,129,55240,2,0,P|169:160|181:260,1,200,2|0,0:0|0:0,0:0:0:0:
5,233,55933,2,0,L|103:216,1,100,8|0,1:2|0:0,0:0:0:0:
276,267,56394,102,0,P|276:170|220:81,1,200,6|14,1:2|1:2,0:0:0:0:
103,215,57086,1,2,0:0:0:0:
229,341,57317,2,0,P|274:354|328:339,1,100,0|2,1:0|0:0,0:0:0:0:
466,228,57779,2,0,P|421:215|367:230,1,100,14|2,1:2|0:0,0:0:0:0:
229,341,58240,6,0,P|157:334|124:214,1,200,2|14,1:2|1:2,0:0:0:0:
202,100,58933,1,0,0:0:0:0:
200,258,59163,1,10,0:0:0:0:
200,258,59279,1,8,0:0:0:0:
200,258,59394,2,0,L|261:252,1,50,8|0,0:0|0:0,0:0:0:0:
359,152,59625,2,0,L|299:157,1,50,14|0,1:2|0:0,0:0:0:0:
338,327,59856,1,10,1:2:0:0:
338,327,59971,1,10,1:2:0:0:
338,327,60086,6,0,B|375:291|375:291|358:150,1,191.999994140625,6|8,1:2|1:2,0:0:0:0:
296,21,60779,1,2,0:0:0:0:
232,150,61010,2,0,L|112:162,1,95.9999970703126,2|0,1:2|0:0,0:0:0:0:
47,84,61471,2,0,L|0:88,2,47.9999985351563,10|2|2,1:2|0:0|0:0,0:0:0:0:
145,18,61933,6,0,P|217:45|216:171,1,191.999994140625,2|8,1:2|1:2,0:0:0:0:
142,262,62625,1,2,0:0:0:0:
66,141,62856,2,0,P|110:113|159:109,1,95.9999970703126,2|0,1:2|0:0,0:0:0:0:
238,224,63317,2,0,P|277:250|324:256,1,95.9999970703126,8|2,1:2|0:0,0:0:0:0:
495,292,63779,6,0,B|379:302|440:357|317:351,1,191.999994140625,2|10,1:2|1:2,0:0:0:0:
229,316,64471,1,2,0:0:0:0:
119,376,64702,2,0,B|86:330|86:330|117:193,1,191.999994140625,2|10,1:2|1:2,0:0:0:0:
224,102,65394,1,2,0:0:0:0:
224,102,65625,6,0,L|182:300,1,191.999994140625,2|8,1:2|1:2,0:0:0:0:
279,379,66317,1,2,0:0:0:0:
279,379,66548,2,0,P|304:342|353:328,1,95.9999970703126,2|0,1:2|0:0,0:0:0:0:
460,265,67010,2,0,P|415:261|379:225,1,95.9999970703126,8|2,1:2|0:0,0:0:0:0:
413,47,67471,70,0,P|444:113|443:187,2,143.999995605469,6|2|2,1:2|0:0|0:0,0:0:0:0:
305,109,68394,2,0,P|233:121|162:101,2,143.999995605469,2|2|2,1:2|0:0|0:0,0:0:0:0:
375,225,69317,6,0,P|385:273|308:249,2,155.999992858887,6|2|2,1:2|0:0|0:0,0:0:0:0:
231,261,70240,2,0,P|246:320|275:352,1,103.999995239258,2|0,1:2|0:0,0:0:0:0:
375,225,70702,1,8,1:2:0:0:
230,143,70933,1,2,0:0:0:0:
230,143,71048,1,2,0:0:0:0:
230,143,71163,6,0,B|149:160|149:160|113:202|113:202|19:223,1,223.999993164063,6|12,1:2|1:2,0:0:0:0:
29,220,71856,1,2,0:0:0:0:
185,355,72086,2,0,P|276:337|288:213,1,223.999993164063,0|12,1:0|1:2,0:0:0:0:
293,221,72779,1,2,0:0:0:0:
153,63,73010,6,0,B|-9:96|-9:96|32:99|65:119,1,240.000009155274,2|12,1:2|1:2,0:0:0:0:
61,117,73702,1,2,0:0:0:0:
11,298,73933,1,10,0:0:0:0:
11,298,74048,1,8,0:0:0:0:
11,298,74163,1,2,0:0:0:0:
183,244,74394,1,10,0:0:0:0:
85,211,74625,1,10,1:2:0:0:
85,211,74740,1,10,1:2:0:0:
85,211,74856,70,0,L|107:295,1,80,10|2,1:2|0:0,0:0:0:0:
174,329,75548,1,2,1:2:0:0:
256,192,75779,5,10,0:0:0:0:
256,192,75894,12,2,78317,1:2:0:0:
316,139,78548,38,0,P|334:129|359:122,2,40,2|2|2,0:0|0:0|0:0,0:0:0:0:
256,192,79240,1,2,1:2:0:0:
309,252,79471,2,0,P|319:270|326:295,2,40,10|2|2,0:0|0:0|0:0,0:0:0:0:
256,192,80163,1,2,1:2:0:0:
196,245,80394,2,0,P|177:255|153:262,2,40,2|2|2,1:2|0:0|0:0,0:0:0:0:
256,192,81086,1,2,1:2:0:0:
203,131,81317,2,0,P|193:113|186:89,2,40,10|2|2,0:0|0:0|1:2,0:0:0:0:
256,192,82010,5,2,1:2:0:0:
