osu file format v14

[General]
AudioFilename: 12. Yesterday [Movie ver.].mp3
AudioLeadIn: 0
PreviewTime: 14567
Countdown: 0
SampleSet: Soft
StackLeniency: 0.4
Mode: 0
LetterboxInBreaks: 0
EpilepsyWarning: 1
WidescreenStoryboard: 1

[Editor]
Bookmarks: 30548,45317,60086,74856
DistanceSpacing: 1.1
BeatDivisor: 4
GridSize: 32
TimelineZoom: 2.3

[Metadata]
Title:Yesterday (Movie ver.)
TitleUnicode:イエスタデイ (Movie ver.)
Artist:Official HIGE DANdism
ArtistUnicode:Official髭男dism
Creator:gokugohan12468
Version:Mint's Tomorrow
Source:HELLO WORLD
Tags:HIGEDAN Traveler ハロー・ワールド OST Original Soundtrack 楢崎誠 小笹大輔 藤原聡 松浦匡希 Satoshi Fujihara Daisuke Ozasa Makoto Narazaki Masaki Matsuura Koichi Tsutaya agehasprings [-Evil-] Evil AnreFM sinn Addy2607 appleeaterx Mint KittyAdventure 直実告白、両想いに キス! オフィシャルヒゲダンディズム short version size pop anime japanese jpop j-pop
BeatmapID:2542146
BeatmapSetID:1124845

[Difficulty]
HPDrainRate:5.5
CircleSize:4.4
OverallDifficulty:8
ApproachRate:8.8
SliderMultiplier:1.7
SliderTickRate:2

[Events]
//Background and Video events
0,0,"background.jpg",0,0
//Break Periods
//Storyboard Layer 0 (Background)
//Storyboard Layer 1 (Fail)
//Storyboard Layer 2 (Pass)
//Storyboard Layer 3 (Foreground)
//Storyboard Layer 4 (Overlay)
//Storyboard Sound Samples

[TimingPoints]
490,461.538461538462,4,2,1,60,1,0
1010,461.538461538462,4,2,1,60,1,0
1010,-133.333333333333,4,2,1,60,0,0
8394,-113.636363636364,4,2,1,60,0,0
13933,-133.333333333333,4,2,1,60,0,0
15779,-100,4,2,1,70,0,1
16240,-100,4,2,1,70,0,0
30548,-100,4,2,1,70,0,1
31010,-100,4,2,1,70,0,0
37933,-100,4,2,1,75,0,0
43933,-100,4,2,1,80,0,0
45317,-100,4,2,1,75,0,1
45779,-100,4,2,1,75,0,0
46240,-100,4,2,1,75,0,0
48086,-100,4,2,1,75,0,0
60086,-100,4,2,1,70,0,1
60548,-100,4,2,1,70,0,0
67471,-100,4,2,1,75,0,0
73010,-100,4,2,1,80,0,0
74856,-133.333333333333,4,2,1,60,0,1
75317,-133.333333333333,4,2,1,60,0,0

[Colours]
Combo1 : 0,128,255
Combo2 : 255,128,64
Combo3 : 255,255,128
Combo4 : 255,62,62
Combo5 : 128,255,128
Combo6 : 192,192,192
Combo7 : 128,128,128
Combo8 : 0,128,192

[HitObjects]
25,321,1010,69,2,0:0:0:0:
93,359,1240,1,0,0:0:0:0:
173,343,1471,1,2,0:0:0:0:
213,273,1702,1,0,0:0:0:0:
180,349,1933,5,2,0:0:0:0:
220,279,2164,1,0,0:0:0:0:
300,263,2395,1,2,0:0:0:0:
368,301,2625,1,0,0:0:0:0:
442,227,2856,101,2,0:0:0:0:
440,237,3086,1,0,0:0:0:0:
439,248,3317,1,2,0:0:0:0:
438,258,3548,1,0,0:0:0:0:
321,50,3779,5,2,0:0:0:0:
323,60,4009,1,0,0:0:0:0:
324,71,4240,1,2,0:0:0:0:
325,81,4471,1,0,0:0:0:0:
417,74,4702,101,2,0:0:0:0:
387,150,4933,1,0,0:0:0:0:
309,169,5163,1,2,0:0:0:0:
244,121,5394,1,0,0:0:0:0:
304,180,5625,5,2,0:0:0:0:
161,102,5856,2,0,P|168:51|198:4,1,95.6250036478044,2|2,0:0|0:0,0:0:0:0:
28,182,6548,102,0,P|97:177|174:291,1,191.250007295609,2|0,0:0|0:0,0:0:0:0:
100,304,7471,1,2,0:0:0:0:
27,278,7702,1,0,0:0:0:0:
101,313,7933,1,2,0:0:0:0:
28,287,8164,1,0,0:0:0:0:
183,349,8394,6,0,L|266:335,1,74.8000022827149,2|0,1:2|0:0,0:0:0:0:
345,375,8856,2,0,P|353:341|344:299,1,74.8000022827149,0|0,1:0|0:0,0:0:0:0:
474,281,9317,2,0,P|466:244|474:208,1,74.8000022827149,2|0,1:2|0:0,0:0:0:0:
305,173,9779,2,0,P|313:139|304:97,1,74.8000022827149,0|0,1:0|0:0,0:0:0:0:
16,102,10240,101,2,1:2:0:0:
35,190,10471,1,0,0:0:0:0:
24,109,10702,1,0,1:0:0:0:
43,197,10933,1,0,0:0:0:0:
185,138,11163,5,2,1:2:0:0:
166,236,11394,1,0,0:0:0:0:
177,145,11625,1,0,1:0:0:0:
158,243,11856,1,0,0:0:0:0:
108,89,12086,102,0,P|142:63|179:58,1,74.8000022827149,2|0,1:2|0:0,0:0:0:0:
251,19,12548,2,0,P|293:24|323:47,1,74.8000022827149,0|0,1:0|0:0,0:0:0:0:
417,270,13010,6,0,P|377:253|354:224,1,74.8000022827149,2|0,1:2|0:0,0:0:0:0:
271,176,13472,2,0,P|254:136|259:99,1,74.8000022827149,0|0,1:0|0:0,0:0:0:0:
414,14,13933,102,0,L|404:80,1,63.7500024318696,2|0,0:0|0:0,0:0:0:0:
470,131,14394,2,0,L|460:197,1,63.7500024318696,2|0,0:0|0:0,0:0:0:0:
251,19,14856,5,2,0:0:0:0:
28,234,15317,1,2,0:0:0:0:
29,226,15432,1,2,0:0:0:0:
30,218,15547,1,2,0:0:0:0:
32,210,15663,1,2,0:0:0:0:
14,174,15779,38,0,B|127:157|66:211|191:191,1,170,6|8,1:2|1:2,0:0:0:0:
170,15,16471,1,2,0:0:0:0:
170,15,16586,1,2,0:0:0:0:
170,15,16702,2,0,P|146:74|150:97,1,85,2|0,1:2|0:0,0:0:0:0:
265,237,17163,1,8,1:2:0:0:
309,36,17394,1,0,0:0:0:0:
512,112,17625,6,0,B|477:77|477:77|414:59|368:109,1,170,2|8,1:2|1:2,0:0:0:0:
265,237,18317,1,2,0:0:0:0:
339,313,18548,2,0,L|432:300,1,85,2|0,1:2|0:0,0:0:0:0:
417,227,18894,1,2,0:0:0:0:
417,227,19010,2,0,P|455:230|499:273,1,85,8|2,1:2|0:0,0:0:0:0:
186,363,19471,6,0,B|78:377|133:324|12:345,1,170,2|10,1:2|1:2,0:0:0:0:
56,91,20163,1,2,0:0:0:0:
56,91,20279,1,2,0:0:0:0:
56,91,20394,2,0,P|18:135|32:207,1,127.5,2|0,1:2|0:0,0:0:0:0:
96,241,20856,2,0,L|188:224,1,85,10|2,1:2|0:0,0:0:0:0:
253,47,21317,6,0,P|271:90|275:131,1,85,2|0,1:2|0:0,0:0:0:0:
477,195,21779,2,0,P|459:238|455:279,1,85,8|2,1:2|0:0,0:0:0:0:
468,355,22125,1,2,0:0:0:0:
468,355,22240,2,0,L|376:340,1,85,2|0,1:2|0:0,0:0:0:0:
207,180,22702,2,0,L|228:317,1,127.5,8|0,1:2|0:0,0:0:0:0:
165,363,23163,70,0,P|123:365|80:340,1,85,2|2,1:2|0:0,0:0:0:0:
113,123,23625,1,10,1:2:0:0:
0,244,23856,1,2,0:0:0:0:
0,244,23971,1,2,0:0:0:0:
0,244,24086,2,0,P|37:225|79:226,1,85,2|2,1:2|0:0,0:0:0:0:
154,268,24433,1,2,0:0:0:0:
154,268,24548,2,0,L|247:257,1,85,10|2,1:2|0:0,0:0:0:0:
506,315,25010,6,0,B|487:351|487:351|423:380|369:325,1,170,2|10,1:2|1:2,0:0:0:0:
266,164,25702,1,2,0:0:0:0:
266,164,25817,1,2,0:0:0:0:
266,164,25933,2,0,P|315:130|391:149,1,127.5,2|0,1:2|0:0,0:0:0:0:
450,175,26394,2,0,L|435:273,1,85,10|2,1:2|0:0,0:0:0:0:
102,365,26856,5,6,1:2:0:0:
102,365,27086,1,0,0:0:0:0:
288,267,27317,5,12,1:2:0:0:
288,267,27548,1,2,0:0:0:0:
58,155,27779,70,0,P|33:190|33:236,1,85,2|2,1:2|0:0,0:0:0:0:
95,282,28125,1,2,0:0:0:0:
95,282,28240,2,0,L|154:270,1,42.5,12|0,1:2|0:0,0:0:0:0:
196,215,28471,1,0,0:0:0:0:
457,52,28702,6,0,L|372:39,1,85,0|0,1:0|0:0,0:0:0:0:
196,215,29163,1,12,1:2:0:0:
368,129,29394,1,2,0:0:0:0:
162,62,29625,1,10,0:0:0:0:
136,94,29740,1,8,0:0:0:0:
145,135,29855,1,2,0:0:0:0:
372,39,30086,1,10,0:0:0:0:
196,215,30317,1,10,1:2:0:0:
240,257,30433,1,10,1:2:0:0:
217,310,30548,6,0,B|104:323|171:267|36:285,1,170,6|8,1:2|1:2,0:0:0:0:
21,98,31240,1,2,0:0:0:0:
21,98,31356,1,2,0:0:0:0:
21,98,31471,2,0,P|10:145|21:197,1,85,2|0,1:2|0:0,0:0:0:0:
241,112,31933,1,8,1:2:0:0:
74,2,32163,1,0,0:0:0:0:
115,225,32394,6,0,B|140:185|140:185|210:171|252:228,1,170,2|8,1:2|1:2,0:0:0:0:
378,370,33086,1,2,0:0:0:0:
465,310,33318,2,0,L|454:222,1,85,2|0,1:2|0:0,0:0:0:0:
511,168,33664,1,2,0:0:0:0:
511,168,33779,2,0,P|459:145|427:152,1,85,8|2,1:2|0:0,0:0:0:0:
260,350,34240,70,0,P|180:367|112:305,1,170,2|10,1:2|1:2,0:0:0:0:
0,192,34933,1,2,0:0:0:0:
0,192,35048,1,2,0:0:0:0:
0,192,35163,2,0,P|49:158|118:171,1,127.5,2|0,1:2|0:0,0:0:0:0:
179,213,35625,2,0,L|276:201,1,85,10|2,1:2|0:0,0:0:0:0:
345,359,36086,6,0,P|352:317|344:267,1,85,2|0,1:2|0:0,0:0:0:0:
494,181,36548,2,0,P|488:138|495:97,1,85,8|2,1:2|0:0,0:0:0:0:
506,23,36894,1,2,0:0:0:0:
506,23,37010,2,0,L|416:34,1,85,2|0,1:2|0:0,0:0:0:0:
310,150,37471,1,8,1:2:0:0:
257,8,37702,1,2,0:0:0:0:
24,142,37933,6,0,L|123:125,1,85,6|0,1:2|0:0,0:0:0:0:
133,49,38279,2,0,P|175:81|184:118,1,85,2|0,0:0|0:0,0:0:0:0:
163,189,38625,2,0,P|147:208|157:225,1,42.5,2|0,0:0|0:0,0:0:0:0:
17,372,38856,6,0,P|52:340|119:341,1,85,2|0,1:2|0:0,0:0:0:0:
176,304,39202,2,0,P|220:304|270:354,1,85,2|0,0:0|0:0,0:0:0:0:
334,362,39548,2,0,P|337:378|358:362,1,42.5,2|0,0:0|0:0,0:0:0:0:
494,241,39779,70,0,L|398:220,1,85,6|0,1:2|0:0,0:0:0:0:
327,274,40125,2,0,P|313:233|327:184,1,85,2|0,0:0|0:0,0:0:0:0:
379,102,40471,2,0,P|400:109|384:125,1,42.5,2|0,0:0|0:0,0:0:0:0:
220,207,40702,6,0,P|162:185|87:205,1,127.5,2|0,1:2|0:0,0:0:0:0:
32,243,41163,1,8,1:2:0:0:
11,21,41394,1,2,0:0:0:0:
46,41,41509,1,2,0:0:0:0:
49,82,41624,5,6,1:2:0:0:
118,277,41856,1,0,0:0:0:0:
127,29,42086,5,12,1:2:0:0:
50,328,42317,1,2,0:0:0:0:
99,197,42548,70,0,P|155:173|235:188,1,127.5,2|0,1:2|0:0,0:0:0:0:
290,222,43010,2,0,L|353:217,1,42.5,12|0,1:2|0:0,0:0:0:0:
397,160,43240,1,2,0:0:0:0:
240,367,43471,6,0,P|224:322|238:282,1,85,2|0,1:2|0:0,0:0:0:0:
487,190,43933,1,12,1:2:0:0:
354,35,44163,1,10,0:0:0:0:
323,62,44278,1,8,0:0:0:0:
329,103,44393,1,10,0:0:0:0:
487,13,44625,1,6,3:0:0:0:
397,160,44856,1,10,0:0:0:0:
399,206,44971,1,8,1:2:0:0:
370,236,45086,1,10,1:2:0:0:
329,244,45202,1,10,1:2:0:0:
290,222,45317,86,0,L|156:205,1,127.5,6|0,1:2|0:0,0:0:0:0:
105,153,45779,1,10,1:2:0:0:
26,363,46010,1,2,0:0:0:0:
26,363,46125,1,2,0:0:0:0:
26,363,46240,2,0,P|76:372|153:324,1,127.5,2|0,1:2|0:0,0:0:0:0:
214,309,46702,2,0,L|303:320,1,85,10|2,1:2|0:0,0:0:0:0:
512,158,47163,102,0,L|423:147,1,85,0|2,1:0|0:0,0:0:0:0:
303,25,47625,2,0,P|313:67|311:117,1,85,10|0,1:2|0:0,0:0:0:0:
152,250,48086,1,2,1:2:0:0:
183,102,48317,1,0,0:0:0:0:
303,202,48548,1,10,1:2:0:0:
86,168,48779,1,2,0:0:0:0:
86,168,48894,1,2,0:0:0:0:
86,168,49010,6,0,P|86:108|77:68,1,85,0|0,1:0|0:0,0:0:0:0:
298,286,49471,2,0,P|298:226|307:186,1,85,10|2,1:2|0:0,0:0:0:0:
64,369,49933,2,0,P|64:309|55:269,1,85,0|2,1:0|0:0,0:0:0:0:
265,113,50394,1,10,1:2:0:0:
295,103,50509,1,2,0:0:0:0:
326,105,50624,1,2,0:0:0:0:
354,120,50740,1,2,0:0:0:0:
374,144,50856,102,0,P|373:83|385:39,1,85,0|2,1:0|0:0,0:0:0:0:
302,201,51317,1,10,1:2:0:0:
502,303,51548,2,0,B|402:317|437:264|333:284,1,170,2|2,0:0|0:0,0:0:0:0:
263,371,52240,1,10,1:2:0:0:
216,199,52471,1,2,0:0:0:0:
24,327,52702,6,0,B|56:373|56:373|114:390|164:344,1,170,6|10,1:2|1:2,0:0:0:0:
116,211,53394,2,0,L|20:230,1,85,2|0,0:0|1:0,0:0:0:0:
100,70,53856,1,2,0:0:0:0:
100,70,53971,1,2,0:0:0:0:
100,70,54086,2,0,L|196:51,1,85,10|2,1:2|0:0,0:0:0:0:
392,20,54548,102,0,P|469:40|492:85,1,127.5,2|0,1:2|0:0,0:0:0:0:
460,151,55010,1,10,1:2:0:0:
282,97,55240,1,2,0:0:0:0:
282,97,55356,1,2,0:0:0:0:
282,97,55471,2,0,P|281:49|303:7,1,85,2|0,1:2|0:0,0:0:0:0:
390,216,55933,2,0,L|288:196,1,85,8|0,1:2|0:0,0:0:0:0:
56,57,56394,5,6,1:2:0:0:
56,57,56625,1,0,0:0:0:0:
206,238,56856,101,14,1:2:0:0:
206,238,57086,1,2,0:0:0:0:
51,153,57317,6,0,P|22:195|31:232,1,85,0|2,1:0|0:0,0:0:0:0:
90,276,57663,1,2,0:0:0:0:
90,276,57779,2,0,L|78:327,1,42.5,14|0,1:2|0:0,0:0:0:0:
139,376,58010,1,2,0:0:0:0:
387,307,58240,102,0,L|374:214,1,85,2|0,1:2|0:0,0:0:0:0:
388,42,58702,1,14,1:2:0:0:
292,254,58933,1,0,0:0:0:0:
300,48,59163,1,10,0:0:0:0:
309,89,59278,1,8,0:0:0:0:
336,121,59393,1,8,0:0:0:0:
375,137,59509,1,0,0:0:0:0:
417,133,59624,1,14,1:2:0:0:
296,357,59856,1,10,1:2:0:0:
321,303,59971,1,10,1:2:0:0:
292,254,60086,22,0,B|187:242|235:289|123:279,1,170,6|8,1:2|1:2,0:0:0:0:
158,98,60779,1,2,0:0:0:0:
158,98,60894,1,2,0:0:0:0:
158,98,61010,2,0,P|148:138|153:186,1,85,2|0,1:2|0:0,0:0:0:0:
292,254,61471,1,8,1:2:0:0:
338,37,61702,1,0,0:0:0:0:
505,190,61933,6,0,B|485:234|485:234|425:259|372:207,1,170,2|8,1:2|1:2,0:0:0:0:
338,37,62625,1,2,0:0:0:0:
253,89,62856,2,0,L|163:76,1,85,2|0,1:2|0:0,0:0:0:0:
111,16,63202,1,2,0:0:0:0:
111,16,63317,2,0,P|88:58|90:99,1,85,8|2,1:2|0:0,0:0:0:0:
309,156,63779,6,0,B|410:167|366:117|481:143,1,170,2|10,1:2|1:2,0:0:0:0:
506,333,64471,1,2,0:0:0:0:
506,333,64586,1,2,0:0:0:0:
506,333,64702,2,0,P|447:342|381:286,1,127.5,2|0,1:2|0:0,0:0:0:0:
335,248,65163,2,0,L|247:260,1,85,10|2,1:2|0:0,0:0:0:0:
154,381,65625,6,0,P|149:330|161:288,1,85,2|0,1:2|0:0,0:0:0:0:
10,181,66086,2,0,P|18:139|12:97,1,85,8|2,1:2|0:0,0:0:0:0:
9,19,66433,1,2,0:0:0:0:
9,19,66548,2,0,L|100:34,1,85,2|0,1:2|0:0,0:0:0:0:
223,135,67010,1,8,1:2:0:0:
473,49,67240,1,2,0:0:0:0:
473,49,67356,1,2,0:0:0:0:
473,49,67471,70,0,L|382:34,1,85,6|0,1:2|0:0,0:0:0:0:
315,8,67817,2,0,P|297:50|299:99,1,85,2|0,0:0|0:0,0:0:0:0:
366,141,68163,2,0,P|378:124|407:135,1,42.5,2|0,0:0|0:0,0:0:0:0:
508,236,68394,6,0,P|473:212|413:212,1,85,2|0,1:2|0:0,0:0:0:0:
375,278,68740,2,0,P|333:285|290:328,1,85,2|0,0:0|0:0,0:0:0:0:
235,367,69086,2,0,P|211:368|221:346,1,42.5,2|2,0:0|0:0,0:0:0:0:
52,235,69317,6,0,L|139:221,1,85,6|0,1:2|0:0,0:0:0:0:
226,271,69663,2,0,P|237:227|223:167,1,85,2|0,0:0|0:0,0:0:0:0:
162,114,70010,2,0,P|137:115|138:127,1,42.5,2|0,0:0|0:0,0:0:0:0:
332,196,70240,6,0,P|398:180|463:197,1,127.5,2|0,1:2|0:0,0:0:0:0:
511,259,70702,1,8,1:2:0:0:
455,35,70933,1,2,0:0:0:0:
429,67,71048,1,2,0:0:0:0:
438,107,71163,69,6,1:2:0:0:
223,120,71394,1,0,0:0:0:0:
454,192,71625,5,12,1:2:0:0:
196,37,71856,1,2,0:0:0:0:
310,74,72086,6,0,P|327:114|317:163,1,85,0|2,1:0|0:0,0:0:0:0:
255,205,72433,1,2,0:0:0:0:
255,205,72548,2,0,L|199:217,1,42.5,12|0,1:2|0:0,0:0:0:0:
136,187,72779,1,2,0:0:0:0:
19,382,73010,6,0,P|2:342|12:293,1,85,2|0,1:2|0:0,0:0:0:0:
197,133,73471,1,12,1:2:0:0:
1,219,73702,1,2,0:0:0:0:
42,221,73817,1,2,0:0:0:0:
77,245,73932,1,10,0:0:0:0:
93,284,74048,1,8,0:0:0:0:
86,325,74163,2,0,L|139:315,2,42.5,2|0|10,0:0|0:0|0:0,0:0:0:0:
49,131,74625,1,10,1:2:0:0:
19,78,74740,1,10,1:2:0:0:
53,33,74856,70,0,B|181:7|111:69|252:46,1,191.250007295609,6|2,1:2|1:2,0:0:0:0:
398,13,75779,2,0,L|388:76,1,63.7500024318696,10|0,0:0|0:0,0:0:0:0:
338,140,76240,1,2,0:0:0:0:
361,216,76471,1,2,0:0:0:0:
329,137,76702,5,2,1:2:0:0:
352,213,76933,1,2,0:0:0:0:
296,283,77163,1,2,0:0:0:0:
216,294,77394,1,2,0:0:0:0:
79,245,77625,5,10,0:0:0:0:
163,232,77856,1,2,0:0:0:0:
15,200,78086,5,2,1:2:0:0:
216,294,78317,1,2,1:2:0:0:
171,220,78548,6,0,L|164:151,2,63.7500024318696,2|2|2,0:0|0:0|0:0,0:0:0:0:
173,141,79240,1,2,1:2:0:0:
41,113,79471,5,10,0:0:0:0:
73,40,79702,1,2,0:0:0:0:
153,23,79933,1,2,0:0:0:0:
220,71,80163,1,2,1:2:0:0:
325,22,80394,101,2,1:2:0:0:
357,95,80625,1,2,0:0:0:0:
437,112,80856,1,2,0:0:0:0:
504,64,81086,1,2,1:2:0:0:
439,124,81317,5,10,0:0:0:0:
359,115,81548,1,2,0:0:0:0:
509,72,81779,101,2,1:2:0:0:
288,159,82009,1,2,1:2:0:0:
