osu file format v14

[General]
AudioFilename: 12. Yesterday [Movie ver.].mp3
AudioLeadIn: 0
PreviewTime: 14567
Countdown: 0
SampleSet: Soft
StackLeniency: 0.4
Mode: 0
LetterboxInBreaks: 0
EpilepsyWarning: 1
WidescreenStoryboard: 1

[Editor]
DistanceSpacing: 1.1
BeatDivisor: 4
GridSize: 32
TimelineZoom: 2.3

[Metadata]
Title:Yesterday (Movie ver.)
TitleUnicode:イエスタデイ (Movie ver.)
Artist:Official HIGE DANdism
ArtistUnicode:Official髭男dism
Creator:gokugohan12468
Version:Insane
Source:HELLO WORLD
Tags:HIGEDAN Traveler ハロー・ワールド OST Original Soundtrack 楢崎誠 小笹大輔 藤原聡 松浦匡希 Satoshi Fujihara Daisuke Ozasa Makoto Narazaki Masaki Matsuura Koichi Tsutaya agehasprings [-Evil-] Evil AnreFM sinn Addy2607 appleeaterx Mint KittyAdventure 直実告白、両想いに キス! オフィシャルヒゲダンディズム short version size pop anime japanese jpop j-pop
BeatmapID:2350363
BeatmapSetID:1124845

[Difficulty]
HPDrainRate:5.5
CircleSize:4
OverallDifficulty:7.8
ApproachRate:8.5
SliderMultiplier:1.7
SliderTickRate:2

[Events]
//Background and Video events
0,0,"background.jpg",0,0
//Break Periods
//Storyboard Layer 0 (Background)
//Storyboard Layer 1 (Fail)
//Storyboard Layer 2 (Pass)
//Storyboard Layer 3 (Foreground)
//Storyboard Layer 4 (Overlay)
//Storyboard Sound Samples

[TimingPoints]
490,461.538461538462,4,2,1,60,1,0
1010,461.538461538462,4,2,1,60,1,0
15779,-90.9090909090909,4,2,1,70,0,1
16240,-90.9090909090909,4,2,1,70,0,0
30433,-90.9090909090909,4,2,1,70,0,0
30548,-90.9090909090909,4,2,1,70,0,1
31010,-90.9090909090909,4,2,1,70,0,0
37817,-90.9090909090909,4,2,1,70,0,0
37933,-90.9090909090909,4,2,1,75,0,0
39663,-90.9090909090909,4,2,1,75,0,0
39779,-86.9565217391304,4,2,1,75,0,0
41510,-86.9565217391304,4,2,1,75,0,0
41625,-83.3333333333333,4,2,1,75,0,0
43356,-83.3333333333333,4,2,1,75,0,0
43471,-90.9090909090909,4,2,1,75,0,0
43933,-66.6666666666667,4,2,1,80,0,0
44394,-90.9090909090909,4,2,1,80,0,0
45202,-90.9090909090909,4,2,1,80,0,0
45317,-83.3333333333333,4,2,1,75,0,1
45779,-83.3333333333333,4,2,1,75,0,0
59971,-83.3333333333333,4,2,1,75,0,0
60086,-90.9090909090909,4,2,1,70,0,1
60548,-90.9090909090909,4,2,1,70,0,0
67356,-90.9090909090909,4,2,1,70,0,0
67471,-86.9565217391304,4,2,1,75,0,0
69202,-86.9565217391304,4,2,1,75,0,0
69317,-83.3333333333333,4,2,1,75,0,0
71048,-83.3333333333333,4,2,1,75,0,0
71163,-80,4,2,1,75,0,0
72894,-80,4,2,1,75,0,0
73010,-76.9230769230769,4,2,1,80,0,0
74740,-76.9230769230769,4,2,1,80,0,0
74856,-200,4,2,1,60,0,1
75317,-200,4,2,1,60,0,0
82010,-200,4,2,1,60,0,0

[Colours]
Combo1 : 0,128,255
Combo2 : 255,128,64
Combo3 : 255,255,128
Combo4 : 255,62,62
Combo5 : 128,255,128
Combo6 : 192,192,192
Combo7 : 128,128,128
Combo8 : 0,128,192

[HitObjects]
30,83,1010,70,0,L|200:100,1,170,2|2,0:0|0:0,0:0:0:0:
292,57,1702,1,0,0:0:0:0:
334,153,1933,2,0,P|343:197|331:235,1,85,2|0,0:0|0:0,0:0:0:0:
259,307,2394,2,0,P|218:319|177:310,1,85,2|0,0:0|0:0,0:0:0:0:
85,197,2856,6,0,P|160:230|178:310,1,170,2|2,0:0|0:0,0:0:0:0:
87,290,3548,1,0,0:0:0:0:
0,92,3779,2,0,B|67:85|67:85|104:106|104:106|163:99,1,170,2|2,0:0|0:0,0:0:0:0:
233,26,4471,1,0,0:0:0:0:
425,116,4702,102,0,B|358:109|358:109|321:130|321:130|261:123,2,170,2|2|2,0:0|0:0|0:0,0:0:0:0:
376,207,5856,1,2,0:0:0:0:
348,347,6202,1,2,0:0:0:0:
270,226,6548,6,0,B|167:206|218:279|106:264,1,170,2|2,0:0|0:0,0:0:0:0:
26,304,7240,1,0,0:0:0:0:
54,153,7471,2,0,P|95:151|129:175,1,85,2|0,0:0|0:0,0:0:0:0:
251,318,7933,2,0,P|292:320|326:296,1,85,2|0,0:0|0:0,0:0:0:0:
317,85,8394,102,0,P|260:143|269:225,1,170,2|0,1:2|1:0,0:0:0:0:
420,239,9086,1,0,0:0:0:0:
497,181,9317,2,0,P|424:145|347:174,1,170,2|0,1:2|1:0,0:0:0:0:
420,330,10010,1,0,0:0:0:0:
190,279,10240,6,0,P|263:315|340:286,1,170,2|0,1:2|1:0,0:0:0:0:
318,85,10933,1,0,0:0:0:0:
166,184,11163,2,0,P|103:238|102:321,1,170,2|0,1:2|1:0,0:0:0:0:
235,350,11856,1,0,0:0:0:0:
381,370,12086,102,0,L|369:200,1,170,2|0,1:2|1:0,0:0:0:0:
363,16,12779,1,0,0:0:0:0:
242,88,13010,2,0,L|370:201,1,170,2|0,1:2|1:0,0:0:0:0:
491,259,13702,1,0,0:0:0:0:
497,87,13933,6,0,L|370:200,1,170,2|2,0:0|0:0,0:0:0:0:
256,263,14625,1,0,0:0:0:0:
359,335,14856,2,0,P|398:356|442:353,1,85,2|0,0:0|0:0,0:0:0:0:
256,263,15317,2,0,P|213:261|177:282,1,85,2|0,0:0|0:0,0:0:0:0:
20,97,15779,38,0,B|86:92|86:92|133:116|133:116|209:109,1,187.000005706787,6|8,1:2|1:2,0:0:0:0:
349,46,16471,1,2,0:0:0:0:
346,194,16702,2,0,B|299:275|299:275|345:367,1,187.000005706787,2|8,1:2|1:2,0:0:0:0:
427,279,17394,1,0,0:0:0:0:
221,208,17625,6,0,B|108:185|157:255|39:227,1,187.000005706787,2|8,1:2|1:2,0:0:0:0:
190,318,18317,1,2,0:0:0:0:
159,47,18548,2,0,P|76:50|84:133,1,187.000005706787,2|8,1:2|1:2,0:0:0:0:
320,100,19240,1,2,0:0:0:0:
190,318,19471,6,0,B|182:250|182:250|202:198|202:198|192:135,1,187.000005706787,2|10,1:2|1:2,0:0:0:0:
277,259,20163,1,2,0:0:0:0:
94,318,20394,2,0,B|86:250|86:250|106:198|106:198|97:136,1,187.000005706787,2|10,1:2|1:2,0:0:0:0:
5,186,21086,1,2,0:0:0:0:
190,318,21317,6,0,P|263:356|357:319,1,187.000005706787,2|8,1:2|1:2,0:0:0:0:
425,192,22010,1,2,0:0:0:0:
316,107,22240,2,0,B|259:138|259:138|277:259,1,187.000005706787,2|8,1:2|1:2,0:0:0:0:
425,192,22933,1,0,0:0:0:0:
316,107,23163,69,2,1:2:0:0:
158,55,23394,1,2,0:0:0:0:
256,190,23625,1,10,1:2:0:0:
256,23,23856,1,2,0:0:0:0:
158,158,24086,1,2,1:2:0:0:
315,108,24317,1,2,0:0:0:0:
60,126,24548,1,10,1:2:0:0:
180,255,24779,1,2,0:0:0:0:
315,108,25010,6,0,B|361:75|410:99|410:99|422:147|471:163,1,187.000005706787,2|10,1:2|1:2,0:0:0:0:
501,73,25702,1,2,0:0:0:0:
256,190,25933,2,0,B|210:157|161:181|161:181|149:229|100:245,1,187.000005706787,2|10,1:2|1:2,0:0:0:0:
70,155,26625,1,2,0:0:0:0:
323,307,26856,6,0,B|327:246|327:246|369:187|324:128,1,187.000005706787,6|12,1:2|1:2,0:0:0:0:
200,47,27548,1,2,0:0:0:0:
106,242,27779,2,0,B|208:259|208:259|256:190,1,187.000005706787,2|12,1:2|1:2,0:0:0:0:
70,155,28471,1,0,0:0:0:0:
234,346,28702,6,0,L|342:356,1,93.5000028533936,0|0,1:0|0:0,0:0:0:0:
163,146,29163,2,0,L|70:155,1,93.5000028533936,12|2,1:2|0:0,0:0:0:0:
324,54,29625,1,10,0:0:0:0:
324,54,29740,2,0,L|319:104,1,46.7500014266968,8|2,0:0|0:0,0:0:0:0:
192,252,30086,1,10,0:0:0:0:
498,133,30317,1,10,1:2:0:0:
498,133,30433,1,10,1:2:0:0:
498,133,30548,70,0,B|452:100|403:124|403:124|391:172|342:188,1,187.000005706787,6|8,1:2|1:2,0:0:0:0:
192,252,31240,1,2,0:0:0:0:
313,355,31471,2,0,B|337:320|323:280|323:280|342:265|342:265|323:216|349:185,1,187.000005706787,2|8,1:2|1:2,0:0:0:0:
231,114,32163,1,0,0:0:0:0:
38,201,32394,6,0,P|103:264|193:252,1,187.000005706787,2|8,1:2|1:2,0:0:0:0:
349,185,33086,1,2,0:0:0:0:
208,16,33317,2,0,P|137:72|135:162,1,187.000005706787,2|8,1:2|1:2,0:0:0:0:
356,57,34010,1,2,0:0:0:0:
469,277,34240,6,0,B|409:260|409:260|359:287|359:287|292:271,1,187.000005706787,2|10,1:2|1:2,0:0:0:0:
127,344,34933,1,2,0:0:0:0:
134,161,35163,2,0,P|135:73|208:16,1,187.000005706787,2|10,1:2|1:2,0:0:0:0:
362,117,35856,1,2,0:0:0:0:
225,221,36086,6,0,L|39:201,1,187.000005706787,2|8,1:2|1:2,0:0:0:0:
240,361,36779,1,2,0:0:0:0:
351,263,37010,2,0,P|439:280|505:220,1,187.000005706787,2|8,1:2|1:2,0:0:0:0:
362,113,37702,1,2,0:0:0:0:
225,221,37933,70,0,L|240:361,2,140.25000428009,6|2|2,1:2|0:0|0:0,0:0:0:0:
184,136,38856,2,0,P|136:184|135:252,2,140.25000428009,2|2|2,1:2|0:0|0:0,0:0:0:0:
236,58,39663,1,0,0:0:0:0:
235,57,39779,6,0,P|165:43|104:80,2,146.62500279665,6|2|2,1:2|0:0|0:0,0:0:0:0:
196,233,40702,2,0,L|185:136,1,97.7500018644333,2|0,1:2|0:0,0:0:0:0:
347,246,41163,2,0,L|335:343,1,97.7500018644333,8|2,1:2|0:0,0:0:0:0:
428,305,41510,1,2,0:0:0:0:
427,305,41625,6,0,P|496:234|477:137,1,203.999993774414,6|12,1:2|1:2,0:0:0:0:
322,51,42317,1,2,0:0:0:0:
222,183,42548,2,0,L|120:169,1,101.999996887207,2|0,1:2|0:0,0:0:0:0:
13,308,43010,1,12,1:2:0:0:
188,329,43240,1,2,0:0:0:0:
105,81,43471,6,0,P|62:97|37:135,1,93.5000028533936,2|0,1:2|0:0,0:0:0:0:
278,272,43933,2,0,L|404:254,1,127.500004863739,12|10,1:2|0:0,0:0:0:0:
457,180,44279,1,8,0:0:0:0:
457,180,44394,1,10,0:0:0:0:
250,36,44625,1,6,3:0:0:0:
278,272,44856,2,0,L|290:316,1,46.7500014266968,10|8,0:0|1:2,0:0:0:0:
197,319,45086,1,10,1:2:0:0:
197,319,45202,1,10,1:2:0:0:
196,319,45317,54,0,P|99:328|41:250,1,203.999993774414,6|10,1:2|1:2,0:0:0:0:
99,110,46010,1,2,0:0:0:0:
224,192,46240,2,0,L|325:179,1,101.999996887207,2|0,1:2|0:0,0:0:0:0:
500,123,46702,1,10,1:2:0:0:
375,12,46933,1,2,0:0:0:0:
325,179,47163,101,0,1:0:0:0:
396,106,47394,1,2,0:0:0:0:
157,130,47625,2,0,P|135:176|142:226,1,101.999996887207,10|0,1:2|0:0,0:0:0:0:
414,300,48086,2,0,P|436:254|429:204,1,101.999996887207,2|0,1:2|0:0,0:0:0:0:
70,279,48548,2,0,P|110:310|160:311,1,101.999996887207,10|2,1:2|0:0,0:0:0:0:
225,67,49010,6,0,P|129:44|59:112,1,203.999993774414,0|10,1:0|1:2,0:0:0:0:
254,192,49702,1,2,0:0:0:0:
375,123,49933,2,0,L|362:21,1,101.999996887207,0|2,1:0|0:0,0:0:0:0:
254,192,50394,2,0,B|229:242|229:242|247:284,1,101.999996887207,10|2,1:2|0:0,0:0:0:0:
469,111,50856,102,0,L|456:9,1,101.999996887207,0|2,1:0|0:0,0:0:0:0:
242,105,51317,2,0,P|194:119|166:161,1,101.999996887207,10|2,1:2|0:0,0:0:0:0:
255,374,51779,1,2,1:2:0:0:
254,192,52010,1,2,0:0:0:0:
361,339,52240,1,10,1:2:0:0:
189,283,52471,1,2,0:0:0:0:
360,226,52702,6,0,P|457:208|501:120,1,203.999993774414,6|10,1:2|1:2,0:0:0:0:
354,44,53394,1,2,0:0:0:0:
254,192,53625,2,0,L|264:293,1,101.999996887207,0|2,1:0|0:0,0:0:0:0:
106,358,54086,1,10,1:2:0:0:
68,189,54317,1,2,0:0:0:0:
264,293,54548,102,0,L|365:282,1,101.999996887207,2|0,1:2|0:0,0:0:0:0:
298,96,55010,2,0,L|197:86,1,101.999996887207,10|2,1:2|0:0,0:0:0:0:
410,359,55471,2,0,P|442:321|449:271,1,101.999996887207,2|0,1:2|0:0,0:0:0:0:
145,9,55933,2,0,P|112:48|108:98,1,101.999996887207,8|0,1:2|0:0,0:0:0:0:
348,163,56394,6,0,P|294:81|196:85,1,203.999993774414,6|14,1:2|1:2,0:0:0:0:
57,239,57086,1,2,0:0:0:0:
230,355,57317,2,0,L|221:253,1,101.999996887207,0|2,1:0|0:0,0:0:0:0:
97,44,57779,2,0,L|105:145,1,101.999996887207,14|2,1:2|0:0,0:0:0:0:
326,302,58240,102,0,P|374:319|423:309,1,101.999996887207,2|0,1:2|0:0,0:0:0:0:
309,77,58702,2,0,P|259:66|211:83,1,101.999996887207,14|0,1:2|0:0,0:0:0:0:
170,258,59163,1,10,0:0:0:0:
170,258,59279,1,8,0:0:0:0:
170,258,59394,2,0,L|230:252,1,50.9999984436036,8|0,0:0|0:0,0:0:0:0:
246,167,59625,2,0,L|306:161,1,50.9999984436036,14|0,1:2|0:0,0:0:0:0:
361,240,59856,1,10,1:2:0:0:
361,240,59971,1,10,1:2:0:0:
361,240,60086,22,0,B|454:258|454:258|508:183,1,187.000005706787,6|8,1:2|1:2,0:0:0:0:
377,60,60779,1,2,0:0:0:0:
246,167,61010,2,0,L|153:153,1,93.5000028533936,2|0,1:2|0:0,0:0:0:0:
156,348,61471,2,0,L|248:334,1,93.5000028533936,8|0,1:2|0:0,0:0:0:0:
156,65,61933,6,0,P|76:105|72:194,1,187.000005706787,2|8,1:2|1:2,0:0:0:0:
156,348,62625,1,2,0:0:0:0:
240,164,62856,2,0,P|198:145|152:153,1,93.5000028533936,2|0,1:2|0:0,0:0:0:0:
346,252,63317,2,0,P|392:259|434:240,1,93.5000028533936,8|2,1:2|0:0,0:0:0:0:
240,164,63779,6,0,L|247:350,1,187.000005706787,2|10,1:2|1:2,0:0:0:0:
57,281,64471,1,2,0:0:0:0:
158,122,64702,2,0,P|189:87|234:75,1,93.5000028533936,2|0,1:2|0:0,0:0:0:0:
346,253,65163,2,0,P|302:241|271:207,1,93.5000028533936,10|2,1:2|0:0,0:0:0:0:
368,43,65625,6,0,L|358:136,1,93.5000028533936,2|0,1:2|0:0,0:0:0:0:
186,357,66086,2,0,L|176:264,1,93.5000028533936,8|2,1:2|0:0,0:0:0:0:
46,111,66548,2,0,P|83:85|129:84,1,93.5000028533936,2|0,1:2|0:0,0:0:0:0:
449,268,67010,2,0,P|412:294|366:295,1,93.5000028533936,8|2,1:2|0:0,0:0:0:0:
229,169,67471,70,0,L|243:24,2,146.62500279665,6|2|2,1:2|0:0|0:0,0:0:0:0:
167,234,68394,2,0,P|236:254|298:219,2,146.62500279665,2|2|2,1:2|0:0|0:0,0:0:0:0:
83,164,69202,1,2,0:0:0:0:
83,164,69317,6,0,L|74:316,2,152.999995330811,6|2|2,1:2|0:0|0:0,0:0:0:0:
208,39,70240,2,0,P|234:83|228:133,1,101.999996887207,2|0,1:2|0:0,0:0:0:0:
432,181,70702,2,0,P|383:175|340:201,1,101.999996887207,8|2,1:2|0:0,0:0:0:0:
246,246,71048,1,2,0:0:0:0:
245,246,71163,6,0,P|346:242|389:333,1,212.5,6|12,1:2|1:2,0:0:0:0:
134,362,71856,1,2,0:0:0:0:
9,120,72086,2,0,B|143:86|81:173|212:137,1,212.5,0|12,1:0|1:2,0:0:0:0:
420,95,72779,1,2,0:0:0:0:
335,20,73010,6,0,B|299:62|299:62|326:225,1,220.999989883423,2|12,1:2|1:2,0:0:0:0:
442,372,73702,2,0,L|433:317,1,55.2499974708558,2|0,0:0|0:0,0:0:0:0:
345,329,73933,1,10,0:0:0:0:
345,329,74048,2,0,L|353:383,1,55.2499974708558,8|2,0:0|0:0,0:0:0:0:
486,235,74394,1,10,0:0:0:0:
255,345,74625,1,10,1:2:0:0:
255,345,74740,1,10,1:2:0:0:
255,345,74856,70,0,B|228:288|274:176|382:259|487:196|492:98|417:8|345:2|284:36|252:97|252:97|213:33|150:4|71:24|1:113|68:296|213:184|239:285|239:285|233:263|72:224|155:339|13:289|13:289|32:289|46:277,1,1317.5,6|2,1:2|1:2,0:0:0:0:
