osu file format v14

[General]
AudioFilename: 12. Yesterday [Movie ver.].mp3
AudioLeadIn: 0
PreviewTime: 14567
Countdown: 0
SampleSet: Soft
StackLeniency: 0.4
Mode: 0
LetterboxInBreaks: 0
EpilepsyWarning: 1
WidescreenStoryboard: 1

[Editor]
DistanceSpacing: 0.8
BeatDivisor: 4
GridSize: 32
TimelineZoom: 2.3

[Metadata]
Title:Yesterday (Movie ver.)
TitleUnicode:イエスタデイ (Movie ver.)
Artist:Official HIGE DANdism
ArtistUnicode:Official髭男dism
Creator:gokugohan12468
Version:Easy
Source:HELLO WORLD
Tags:HIGEDAN Traveler ハロー・ワールド OST Original Soundtrack 楢崎誠 小笹大輔 藤原聡 松浦匡希 Satoshi Fujihara Daisuke Ozasa Makoto Narazaki Masaki Matsuura Koichi Tsutaya agehasprings [-Evil-] Evil AnreFM sinn Addy2607 appleeaterx Mint KittyAdventure 直実告白、両想いに キス! オフィシャルヒゲダンディズム short version size pop anime japanese jpop j-pop
BeatmapID:2389969
BeatmapSetID:1124845

[Difficulty]
HPDrainRate:2
CircleSize:3
OverallDifficulty:2
ApproachRate:3
SliderMultiplier:1.2
SliderTickRate:2

[Events]
//Background and Video events
0,0,"background.jpg",0,0
//Break Periods
//Storyboard Layer 0 (Background)
//Storyboard Layer 1 (Fail)
//Storyboard Layer 2 (Pass)
//Storyboard Layer 3 (Foreground)
//Storyboard Layer 4 (Overlay)
//Storyboard Sound Samples

[TimingPoints]
490,461.538461538462,4,2,1,60,1,0
1010,461.538461538462,4,2,1,60,1,0
15779,-100,4,2,1,70,0,1
16240,-100,4,2,1,70,0,0
30433,-100,4,2,1,70,0,0
30548,-100,4,2,1,70,0,1
31010,-100,4,2,1,70,0,0
37817,-100,4,2,1,70,0,0
37933,-100,4,2,1,75,0,0
39663,-100,4,2,1,75,0,0
39779,-100,4,2,1,75,0,0
41510,-100,4,2,1,75,0,0
41625,-100,4,2,1,75,0,0
43356,-100,4,2,1,75,0,0
43471,-100,4,2,1,75,0,0
43933,-100,4,2,1,80,0,0
44394,-100,4,2,1,80,0,0
45202,-100,4,2,1,80,0,0
45317,-100,4,2,1,75,0,1
45779,-100,4,2,1,75,0,0
59971,-100,4,2,1,75,0,0
60086,-100,4,2,1,70,0,1
60548,-100,4,2,1,70,0,0
67356,-100,4,2,1,70,0,0
67471,-100,4,2,1,75,0,0
69202,-100,4,2,1,75,0,0
69317,-100,4,2,1,75,0,0
71048,-100,4,2,1,75,0,0
71163,-100,4,2,1,75,0,0
72894,-100,4,2,1,75,0,0
73010,-100,4,2,1,80,0,0
74740,-100,4,2,1,80,0,0
74856,-100,4,2,1,60,0,1
75317,-100,4,2,1,60,0,0
82010,-100,4,2,1,60,0,0

[Colours]
Combo1 : 0,128,255
Combo2 : 255,128,64
Combo3 : 255,255,128
Combo4 : 255,62,62
Combo5 : 128,255,128
Combo6 : 192,192,192
Combo7 : 128,128,128
Combo8 : 0,128,192

[HitObjects]
65,195,1010,70,0,P|114:191|165:143,1,120,2|2,0:0|0:0,0:0:0:0:
245,93,1933,2,0,B|325:82|292:127|364:115,1,120,2|2,0:0|0:0,0:0:0:0:
452,97,2856,2,0,L|434:231,1,120,2|2,0:0|0:0,0:0:0:0:
358,272,3779,2,0,B|302:297|302:297|240:280,1,120,2|2,0:0|0:0,0:0:0:0:
164,334,4702,6,0,P|97:336|17:199,1,240,2|2,0:0|0:0,0:0:0:0:
172,90,6548,2,0,L|160:226,2,120,2|2|2,0:0|0:0|0:0,0:0:0:0:
254,40,7933,1,2,0:0:0:0:
317,111,8394,102,0,P|366:127|438:98,1,120,2|0,1:2|1:0,0:0:0:0:
503,166,9317,2,0,P|487:215|516:287,1,120,2|0,1:2|1:0,0:0:0:0:
431,336,10240,2,0,B|376:328|376:328|367:333|367:333|307:325,1,120,2|0,1:2|1:0,0:0:0:0:
251,252,11163,2,0,B|197:259|197:259|188:254|188:254|133:262,1,120,2|0,1:2|1:0,0:0:0:0:
58,322,12086,6,0,P|36:268|54:210,1,120,2|0,1:2|1:0,0:0:0:0:
53,114,13010,2,0,L|177:129,1,120,2|0,1:2|1:0,0:0:0:0:
252,75,13933,2,0,B|397:109|330:10|485:45,1,240,2|2,0:0|0:0,0:0:0:0:
502,136,15317,1,2,0:0:0:0:
410,165,15779,38,0,L|424:291,1,120,6|8,1:2|1:2,0:0:0:0:
348,345,16702,2,0,P|294:351|242:313,1,120,2|8,1:2|1:2,0:0:0:0:
165,257,17625,2,0,P|219:263|271:225,1,120,2|8,1:2|1:2,0:0:0:0:
199,161,18548,2,0,L|187:33,1,120,2|8,1:2|1:2,0:0:0:0:
279,13,19471,6,0,P|332:14|415:167,1,240,2|2,1:2|1:2,0:0:0:0:
476,234,20856,1,10,1:2:0:0:
382,254,21317,2,0,B|250:221|289:333|156:301,1,240,2|2,1:2|1:2,0:0:0:0:
75,349,22702,1,8,1:2:0:0:
8,279,23163,6,0,P|20:224|79:199,1,120,2|10,1:2|1:2,0:0:0:0:
99,106,24086,2,0,P|148:102|193:162,1,120,2|10,1:2|1:2,0:0:0:0:
277,194,25010,2,0,L|412:176,2,120,2|10|2,1:2|1:2|1:2,0:0:0:0:
231,278,26394,1,10,1:2:0:0:
310,331,26856,6,0,P|404:358|486:241,1,240,6|2,1:2|1:2,0:0:0:0:
412,199,28240,1,12,1:2:0:0:
502,165,28702,2,0,L|512:40,1,120,0|12,1:0|1:2,0:0:0:0:
417,27,29625,2,0,P|368:34|318:99,1,120,10|10,0:0|0:0,0:0:0:0:
243,139,30548,70,0,L|123:127,1,120,6|8,1:2|1:2,0:0:0:0:
28,138,31471,2,0,L|77:247,1,120,2|8,1:2|1:2,0:0:0:0:
132,326,32394,2,0,L|202:228,1,120,2|8,1:2|1:2,0:0:0:0:
298,229,33317,2,0,L|368:326,1,120,2|8,1:2|1:2,0:0:0:0:
431,253,34240,6,0,P|483:198|416:63,1,240,2|2,1:2|1:2,0:0:0:0:
333,30,35625,1,10,1:2:0:0:
249,77,36086,2,0,B|106:117|166:10|16:49,1,240,2|2,1:2|1:2,0:0:0:0:
64,133,37471,1,8,1:2:0:0:
2,206,37933,6,0,P|72:176|197:280,1,240,6|2,1:2|1:2,0:0:0:0:
270,320,39317,1,8,1:2:0:0:
320,238,39779,2,0,P|382:239|466:87,1,240,6|2,1:2|1:2,0:0:0:0:
400,38,41163,1,8,1:2:0:0:
317,87,41625,6,0,L|194:84,1,120,6|12,1:2|1:2,0:0:0:0:
117,30,42548,2,0,P|53:37|14:82,1,120,2|12,1:2|1:2,0:0:0:0:
71,154,43471,2,0,P|135:161|174:206,1,120,2|12,1:2|1:2,0:0:0:0:
249,255,44394,2,0,P|313:248|352:203,1,120,10|10,0:0|0:0,0:0:0:0:
440,240,45317,54,0,L|451:114,1,120,6|10,1:2|1:2,0:0:0:0:
393,43,46240,2,0,P|350:32|283:68,1,120,2|10,1:2|1:2,0:0:0:0:
211,126,47163,2,0,P|168:137|101:101,1,120,0|10,1:0|1:2,0:0:0:0:
21,154,48086,2,0,P|32:197|-4:264,1,120,2|10,1:2|1:2,0:0:0:0:
57,337,49010,102,0,L|182:329,1,120,0|10,1:0|1:2,0:0:0:0:
255,274,49933,2,0,L|374:281,1,120,0|10,1:0|1:2,0:0:0:0:
447,219,50856,2,0,P|451:150|312:97,1,240,0|2,1:0|1:2,0:0:0:0:
254,20,52240,1,10,1:2:0:0:
195,96,52702,6,0,P|83:108|61:218,1,240,6|0,1:2|1:0,0:0:0:0:
38,311,54086,1,10,1:2:0:0:
132,292,54548,2,0,L|251:296,1,120,2|10,1:2|1:2,0:0:0:0:
280,204,55471,2,0,L|399:200,1,120,2|8,1:2|1:2,0:0:0:0:
472,137,56394,102,0,P|438:46|300:50,1,240,6|0,1:2|1:0,0:0:0:0:
217,14,57779,1,14,1:2:0:0:
230,108,58240,2,0,L|104:103,1,120,2|14,1:2|1:2,0:0:0:0:
29,50,59163,2,0,P|0:99|25:163,1,120,10|14,0:0|1:2,0:0:0:0:
102,201,60086,22,0,P|119:256|90:306,1,120,6|8,1:2|1:2,0:0:0:0:
178,346,61010,2,0,P|245:346|280:300,1,120,2|8,1:2|1:2,0:0:0:0:
258,214,61933,2,0,L|383:226,1,120,2|8,1:2|1:2,0:0:0:0:
388,130,62856,2,0,L|268:118,1,120,2|8,1:2|1:2,0:0:0:0:
202,48,63779,6,0,B|81:53|81:53|35:165,1,240,2|2,1:2|1:2,0:0:0:0:
112,220,65163,1,10,1:2:0:0:
42,286,65625,2,0,B|142:272|142:272|173:286|173:286|278:272,1,240,2|2,1:2|1:2,0:0:0:0:
358,322,67010,1,8,1:2:0:0:
428,256,67471,6,0,P|456:173|363:63,1,240,6|2,1:2|1:2,0:0:0:0:
276,33,68856,1,8,1:2:0:0:
288,128,69317,2,0,B|138:94|205:193|60:159,1,240,6|2,1:2|1:2,0:0:0:0:
6,238,70702,1,8,1:2:0:0:
76,302,71163,6,0,P|118:330|189:313,1,120,6|12,1:2|1:2,0:0:0:0:
277,334,72086,2,0,L|269:210,1,120,0|12,1:0|1:2,0:0:0:0:
330,139,73010,2,0,B|277:113|277:113|212:131,1,120,2|12,1:2|1:2,0:0:0:0:
177,216,73933,2,0,B|97:205|130:250|58:238,1,120,10|10,0:0|0:0,0:0:0:0:
15,155,74856,69,6,1:2:0:0:
256,192,74971,12,2,82010,1:2:0:0:
