osu file format v14

[General]
AudioFilename: 12. Yesterday [Movie ver.].mp3
AudioLeadIn: 0
PreviewTime: 14567
Countdown: 0
SampleSet: Soft
StackLeniency: 0.4
Mode: 0
LetterboxInBreaks: 0
EpilepsyWarning: 1
WidescreenStoryboard: 1

[Editor]
DistanceSpacing: 0.7
BeatDivisor: 8
GridSize: 32
TimelineZoom: 2.3

[Metadata]
Title:Yesterday (Movie ver.)
TitleUnicode:イエスタデイ (Movie ver.)
Artist:Official HIGE DANdism
ArtistUnicode:Official髭男dism
Creator:gokugohan12468
Version:Addy's Insane
Source:HELLO WORLD
Tags:HIGEDAN Traveler ハロー・ワールド OST Original Soundtrack 楢崎誠 小笹大輔 藤原聡 松浦匡希 Satoshi Fujihara Daisuke Ozasa Makoto Narazaki Masaki Matsuura Koichi Tsutaya agehasprings [-Evil-] Evil AnreFM sinn Addy2607 appleeaterx Mint KittyAdventure 直実告白、両想いに キス! オフィシャルヒゲダンディズム short version size pop anime japanese jpop j-pop
BeatmapID:2598205
BeatmapSetID:1124845

[Difficulty]
HPDrainRate:5.5
CircleSize:3.8
OverallDifficulty:7.5
ApproachRate:8.5
SliderMultiplier:1.8
SliderTickRate:2

[Events]
//Background and Video events
0,0,"background.jpg",0,0
//Break Periods
//Storyboard Layer 0 (Background)
//Storyboard Layer 1 (Fail)
//Storyboard Layer 2 (Pass)
//Storyboard Layer 3 (Foreground)
//Storyboard Layer 4 (Overlay)
//Storyboard Sound Samples

[TimingPoints]
490,461.538461538462,4,2,1,60,1,0
490,-153.846153846154,4,2,1,60,0,0
1010,461.538461538462,4,2,1,60,1,0
1010,-133.333333333333,4,2,1,60,0,0
8394,-117.647058823529,4,2,1,60,0,0
15779,-100,4,2,1,70,0,1
16240,-100,4,2,1,70,0,0
30433,-100,4,2,1,70,0,0
30548,-100,4,2,1,70,0,1
31010,-100,4,2,1,70,0,0
37817,-100,4,2,1,70,0,0
37933,-100,4,2,1,75,0,0
39663,-100,4,2,1,75,0,0
39779,-86.9565217391304,4,2,1,75,0,0
41510,-86.9565217391304,4,2,1,75,0,0
41625,-83.3333333333333,4,2,1,75,0,0
43356,-83.3333333333333,4,2,1,75,0,0
43471,-90.9090909090909,4,2,1,75,0,0
43933,-66.6666666666667,4,2,1,80,0,0
44394,-90.9090909090909,4,2,1,80,0,0
45202,-90.9090909090909,4,2,1,80,0,0
45317,-83.3333333333333,4,2,1,75,0,1
45779,-83.3333333333333,4,2,1,75,0,0
59971,-83.3333333333333,4,2,1,75,0,0
60086,-90.9090909090909,4,2,1,70,0,1
60548,-90.9090909090909,4,2,1,70,0,0
67356,-90.9090909090909,4,2,1,70,0,0
67471,-86.9565217391304,4,2,1,75,0,0
69202,-86.9565217391304,4,2,1,75,0,0
69317,-83.3333333333333,4,2,1,75,0,0
71048,-83.3333333333333,4,2,1,75,0,0
71163,-80,4,2,1,75,0,0
72894,-80,4,2,1,75,0,0
73010,-76.9230769230769,4,2,1,80,0,0
74740,-76.9230769230769,4,2,1,80,0,0
74856,-200,4,2,1,60,0,1
75317,-200,4,2,1,60,0,0
82010,-200,4,2,1,60,0,0

[Colours]
Combo1 : 0,128,255
Combo2 : 255,128,64
Combo3 : 255,255,128
Combo4 : 255,62,62
Combo5 : 128,255,128
Combo6 : 192,192,192
Combo7 : 128,128,128
Combo8 : 0,128,192

[HitObjects]
333,99,1010,70,0,L|412:93,1,67.5000025749208,2|0,0:0|0:0,0:0:0:0:
379,173,1471,2,0,L|458:167,1,67.5000025749208,2|0,0:0|0:0,0:0:0:0:
271,150,1933,2,0,L|192:144,1,67.5000025749208,2|0,0:0|0:0,0:0:0:0:
225,224,2394,2,0,L|146:218,1,67.5000025749208,2|0,0:0|0:0,0:0:0:0:
268,309,2856,6,0,P|326:335|393:311,1,135.000005149842,2|2,0:0|0:0,0:0:0:0:
390,312,3548,1,0,0:0:0:0:
394,141,3779,2,0,P|342:178|329:248,1,135.000005149842,2|2,0:0|0:0,0:0:0:0:
330,245,4471,1,0,0:0:0:0:
488,136,4702,102,0,L|492:66,1,67.5000025749208,2|0,0:0|0:0,0:0:0:0:
405,87,5163,2,0,L|409:17,1,67.5000025749208,2|0,0:0|0:0,0:0:0:0:
319,131,5625,1,2,0:0:0:0:
195,43,5856,2,0,P|241:29|295:51,1,101.250003862381,2|2,0:0|0:0,0:0:0:0:
158,121,6548,6,0,L|88:118,1,67.5000025749208,2|0,0:0|0:0,0:0:0:0:
206,194,7010,2,0,L|276:191,1,67.5000025749208
111,208,7471,2,0,L|41:205,1,67.5000025749208,2|0,0:0|0:0,0:0:0:0:
159,281,7933,2,0,L|229:278,1,67.5000025749208,2|0,0:0|0:0,0:0:0:0:
433,332,8394,102,0,P|360:366|289:328,1,153.000002918243,2|0,1:2|1:0,0:0:0:0:
297,338,9086,1,0,0:0:0:0:
293,172,9317,2,0,P|358:218|361:298,1,153.000002918243,2|0,1:2|1:0,0:0:0:0:
366,285,10010,1,0,0:0:0:0:
250,341,10240,6,0,B|217:354|183:343|183:343|163:357|163:357|131:344|92:357,1,153.000002918243,2|0,1:2|1:0,0:0:0:0:
103,353,10933,1,0,0:0:0:0:
0,236,11163,2,0,B|66:242|66:242|85:258|85:258|156:262,1,153.000002918243,2|0,1:2|1:0,0:0:0:0:
147,262,11856,1,0,0:0:0:0:
258,117,12086,102,0,P|191:100|127:157,1,153.000002918243,2|0,1:2|1:0,0:0:0:0:
129,149,12779,1,0,0:0:0:0:
307,199,13010,2,0,P|351:146|329:63,1,153.000002918243,2|0,1:2|1:0,0:0:0:0:
334,68,13702,1,0,0:0:0:0:
246,280,13933,6,0,P|337:284|426:179,1,229.500004377365,2|0,0:0|0:0,0:0:0:0:
220,11,14856,1,2,0:0:0:0:
219,24,15317,1,2,0:0:0:0:
127,338,15779,38,0,L|21:332,1,90,6|0,1:2|0:0,0:0:0:0:
148,217,16240,2,0,L|254:211,1,90,8|2,1:2|0:0,0:0:0:0:
122,358,16702,1,2,1:2:0:0:
78,133,16933,1,2,0:0:0:0:
78,133,17048,1,2,0:0:0:0:
78,133,17163,2,0,L|184:127,1,90,8|0,1:2|0:0,0:0:0:0:
446,83,17625,6,0,P|378:11|303:27,1,180,2|8,1:2|1:2,0:0:0:0:
306,24,18317,1,2,0:0:0:0:
405,155,18548,2,0,B|453:177|497:153|497:153|483:204|504:241,1,180,2|8,1:2|1:2,0:0:0:0:
501,235,19240,1,2,0:0:0:0:
330,112,19471,6,0,L|231:126,1,90,2|0,1:2|0:0,0:0:0:0:
216,151,19817,1,2,0:0:0:0:
216,151,19933,1,10,1:2:0:0:
309,219,20163,1,2,0:0:0:0:
259,35,20394,6,0,L|160:49,1,90,2|0,1:2|0:0,0:0:0:0:
145,74,20740,1,2,0:0:0:0:
145,74,20856,1,10,1:2:0:0:
216,151,21086,1,2,0:0:0:0:
27,15,21317,70,0,P|100:47|112:138,1,180,2|8,1:2|1:2,0:0:0:0:
45,224,22010,1,2,0:0:0:0:
200,318,22240,2,0,B|130:313|130:313|95:340|95:340|18:334,1,180,2|8,1:2|1:2,0:0:0:0:
156,213,22933,1,0,0:0:0:0:
314,365,23163,6,0,L|327:259,1,90,2|2,1:2|0:0,0:0:0:0:
456,212,23625,2,0,L|443:318,1,90,10|2,1:2|0:0,0:0:0:0:
298,351,24086,2,0,L|311:245,1,90,2|2,1:2|0:0,0:0:0:0:
433,224,24548,2,0,L|420:330,1,90,10|2,1:2|0:0,0:0:0:0:
394,129,25010,6,0,P|441:118|494:145,1,90,2|0,1:2|0:0,0:0:0:0:
342,202,25471,2,0,P|308:166|305:107,1,90,10|2,1:2|0:0,0:0:0:0:
396,0,25933,2,0,P|382:46|332:78,1,90,2|0,1:2|0:0,0:0:0:0:
185,54,26394,2,0,P|232:43|285:69,1,90,10|2,1:2|0:0,0:0:0:0:
177,158,26856,6,0,B|85:138|100:219|2:192,1,180,6|12,1:2|1:2,0:0:0:0:
95,74,27548,1,2,0:0:0:0:
270,323,27779,2,0,P|186:317|151:236,1,180,2|12,1:2|1:2,0:0:0:0:
234,116,28471,1,0,0:0:0:0:
362,358,28702,70,0,B|368:286|368:286|354:257|354:257|360:177,1,180,0|12,1:0|1:2,0:0:0:0:
469,114,29394,1,2,0:0:0:0:
469,114,29510,1,2,0:0:0:0:
469,114,29625,2,0,L|466:166,2,45,10|8|2,0:0|0:0|0:0,0:0:0:0:
336,17,30086,1,10,0:0:0:0:
207,111,30317,1,10,1:2:0:0:
207,111,30433,1,10,1:2:0:0:
207,111,30548,6,0,B|117:105|139:182|27:157,1,180,6|8,1:2|1:2,0:0:0:0:
149,34,31240,1,2,0:0:0:0:
201,208,31471,2,0,L|290:200,1,90,2|0,1:2|0:0,0:0:0:0:
99,115,31933,1,8,1:2:0:0:
99,115,32049,1,2,0:0:0:0:
99,115,32164,1,2,0:0:0:0:
19,295,32394,6,0,B|123:284|87:366|199:341,1,180,2|8,1:2|1:2,0:0:0:0:
263,175,33086,1,2,0:0:0:0:
366,338,33317,2,0,L|264:332,1,90,2|0,1:2|0:0,0:0:0:0:
397,247,33779,2,0,L|499:241,1,90,8|2,1:2|0:0,0:0:0:0:
331,96,34240,6,0,P|293:82|245:102,1,90,2|0,1:2|0:0,0:0:0:0:
227,127,34586,1,2,0:0:0:0:
227,127,34702,1,10,1:2:0:0:
214,222,34933,1,2,0:0:0:0:
37,41,35163,70,0,P|75:27|123:47,1,90,2|0,1:2|0:0,0:0:0:0:
141,72,35509,1,2,0:0:0:0:
141,72,35625,1,10,1:2:0:0:
154,167,35856,1,2,0:0:0:0:
20,257,36086,6,0,P|68:183|154:167,1,180,2|8,1:2|1:2,0:0:0:0:
284,249,36779,1,2,0:0:0:0:
117,325,37010,2,0,P|101:273|187:296,1,180,2|8,1:2|1:2,0:0:0:0:
37,368,37702,1,2,0:0:0:0:
18,187,37933,6,0,B|27:127|27:127|0:96|14:51,2,135,6|2|2,1:2|0:0|0:0,0:0:0:0:
204,51,38856,2,0,P|139:33|89:76,2,135,2|2|2,1:2|0:0|0:0,0:0:0:0:
364,200,39779,6,0,B|435:199|435:199|444:183|444:183|520:179,2,155.250002961159,6|2|2,1:2|0:0|0:0,0:0:0:0:
196,332,40702,2,0,P|253:357|350:270,1,207.000003948212,2|8,1:2|1:2,0:0:0:0:
134,174,41394,1,2,0:0:0:0:
134,174,41510,1,2,0:0:0:0:
134,174,41625,70,0,L|18:185,1,107.999996704102,6|0,1:2|0:0,0:0:0:0:
188,65,42086,2,0,L|304:76,1,107.999996704102,12|2,1:2|0:0,0:0:0:0:
158,255,42548,1,2,1:2:0:0:
96,101,42779,1,0,0:0:0:0:
32,327,43010,1,12,1:2:0:0:
162,176,43240,1,2,0:0:0:0:
312,331,43471,6,0,B|222:297|213:394|120:354,1,198.000006042481,2|12,1:2|1:2,0:0:0:0:
17,184,44163,1,10,0:0:0:0:
17,184,44279,1,8,0:0:0:0:
17,184,44394,2,0,L|20:250,1,49.5000015106202,10|0,0:0|0:0,0:0:0:0:
161,283,44625,2,0,L|164:217,1,49.5000015106202,6|0,3:0|0:0,0:0:0:0:
101,89,44856,2,0,L|104:155,1,49.5000015106202,10|8,0:0|1:2,0:0:0:0:
245,188,45086,2,0,L|248:122,1,49.5000015106202,10|10,1:2|1:2,0:0:0:0:
175,54,45317,86,0,P|104:6|19:97,1,215.999993408203,6|10,1:2|1:2,0:0:0:0:
139,176,46010,1,2,0:0:0:0:
255,29,46240,2,0,L|362:42,1,107.999996704102,2|0,1:2|0:0,0:0:0:0:
480,128,46702,2,0,L|373:141,1,107.999996704102,10|2,1:2|0:0,0:0:0:0:
261,247,47163,102,0,P|308:262|363:233,1,107.999996704102,0|2,1:0|0:0,0:0:0:0:
214,168,47625,2,0,P|177:201|175:263,1,107.999996704102,10|0,1:2|0:0,0:0:0:0:
304,169,48086,1,2,1:2:0:0:
196,34,48317,1,0,0:0:0:0:
80,188,48548,1,10,1:2:0:0:
242,109,48779,1,2,0:0:0:0:
23,28,49010,6,0,L|14:151,1,107.999996704102,0|0,1:0|0:0,0:0:0:0:
172,257,49471,2,0,L|163:134,1,107.999996704102,10|2,1:2|0:0,0:0:0:0:
2,315,49933,2,0,P|62:334|108:308,1,107.999996704102,0|2,1:0|0:0,0:0:0:0:
270,257,50394,2,0,P|210:238|164:264,1,107.999996704102,10|2,1:2|0:0,0:0:0:0:
348,352,50856,102,0,B|362:263|362:263|348:224|348:224|365:135,1,215.999993408203,0|10,1:0|1:2,0:0:0:0:
270,257,51548,1,2,0:0:0:0:
236,40,51779,2,0,P|302:29|344:57,1,107.999996704102,0|2,1:0|0:0,0:0:0:0:
195,111,52240,2,0,P|152:59|155:8,1,107.999996704102,10|2,1:2|0:0,0:0:0:0:
485,157,52702,6,0,B|468:96|499:25|499:25|467:1|407:16,1,215.999993408203,6|10,1:2|1:2,0:0:0:0:
287,132,53394,2,0,L|403:149,1,107.999996704102,2|0,0:0|1:0,0:0:0:0:
498,250,53856,1,2,0:0:0:0:
360,100,54086,1,10,1:2:0:0:
512,221,54317,1,2,0:0:0:0:
318,299,54548,102,0,B|209:266|223:376|107:332,1,215.999993408203,2|10,1:2|1:2,0:0:0:0:
5,288,55240,1,2,0:0:0:0:
87,168,55471,2,0,P|137:196|155:262,1,107.999996704102,2|0,1:2|0:0,0:0:0:0:
8,195,55933,2,0,P|7:137|55:89,1,107.999996704102,8|0,1:2|0:0,0:0:0:0:
270,102,56394,5,6,1:2:0:0:
117,25,56625,1,0,0:0:0:0:
349,6,56856,1,14,1:2:0:0:
154,104,57086,1,2,0:0:0:0:
414,161,57317,2,0,L|421:49,1,107.999996704102,0|2,1:0|0:0,0:0:0:0:
213,152,57779,2,0,L|220:264,1,107.999996704102,14|2,1:2|0:0,0:0:0:0:
479,232,58240,102,0,P|412:199|378:211,1,107.999996704102,2|0,1:2|0:0,0:0:0:0:
348,358,58702,2,0,P|410:316|416:281,1,107.999996704102,14|0,1:2|0:0,0:0:0:0:
287,130,59163,1,10,0:0:0:0:
249,133,59279,1,8,0:0:0:0:
211,139,59394,1,8,0:0:0:0:
173,145,59510,1,0,0:0:0:0:
135,150,59625,1,14,1:2:0:0:
48,348,59856,1,10,1:2:0:0:
48,348,59971,1,10,1:2:0:0:
48,348,60086,22,0,B|105:355|141:325|141:325|181:363|249:343,1,198.000006042481,6|8,1:2|1:2,0:0:0:0:
304,260,60779,1,2,0:0:0:0:
131,119,61010,2,0,P|77:146|69:272,1,198.000006042481,2|8,1:2|1:2,0:0:0:0:
147,213,61702,1,0,0:0:0:0:
54,41,61933,6,0,P|156:21|226:87,1,198.000006042481,2|8,1:2|1:2,0:0:0:0:
255,193,62625,1,2,0:0:0:0:
396,36,62856,2,0,L|287:29,1,99.0000030212403,2|0,1:2|0:0,0:0:0:0:
407,142,63317,2,0,L|516:135,1,99.0000030212403,8|2,1:2|0:0,0:0:0:0:
322,125,63779,6,0,B|341:203|341:203|325:245|325:245|338:319,1,198.000006042481,2|10,1:2|1:2,0:0:0:0:
444,275,64471,1,2,0:0:0:0:
255,193,64702,2,0,P|190:162|80:222,1,198.000006042481,2|10,1:2|1:2,0:0:0:0:
208,349,65394,1,2,0:0:0:0:
208,349,65510,1,2,0:0:0:0:
208,349,65625,6,0,P|235:295|139:292,1,198.000006042481,2|8,1:2|1:2,0:0:0:0:
297,367,66317,1,2,0:0:0:0:
419,215,66548,2,0,L|433:321,1,99.0000030212403,2|0,1:2|0:0,0:0:0:0:
314,239,67010,2,0,L|328:133,1,99.0000030212403,8|2,1:2|0:0,0:0:0:0:
255,42,67471,70,0,B|332:15|332:15|417:57,2,155.250002961159,6|2|2,1:2|0:0|0:0,0:0:0:0:
158,94,68394,2,0,B|75:82|91:151|-3:126,2,155.250002961159,2|2|2,1:2|0:0|0:0,0:0:0:0:
234,271,69317,6,0,P|185:269|144:177,2,161.999995056153,6|2|2,1:2|0:0|0:0,0:0:0:0:
399,190,70240,2,0,B|358:134|291:136|291:136|268:186|211:195,1,215.999993408203,2|8,1:2|1:2,0:0:0:0:
396,51,70933,1,2,0:0:0:0:
396,51,71048,1,2,0:0:0:0:
396,51,71163,5,6,1:2:0:0:
495,252,71394,1,0,0:0:0:0:
332,120,71625,1,12,1:2:0:0:
306,318,71856,1,2,0:0:0:0:
130,132,72086,2,0,B|180:84|180:84|340:122,1,225,0|12,1:0|1:2,0:0:0:0:
209,239,72779,1,2,0:0:0:0:
28,70,73010,6,0,L|35:190,1,116.999994644165,2|0,1:2|0:0,0:0:0:0:
240,315,73471,2,0,L|247:195,1,116.999994644165,12|2,1:2|0:0,0:0:0:0:
230,160,73817,1,2,0:0:0:0:
230,160,73933,1,10,0:0:0:0:
119,322,74163,1,2,0:0:0:0:
351,233,74394,1,10,0:0:0:0:
351,233,74510,1,2,0:0:0:0:
351,233,74625,1,10,1:2:0:0:
131,108,74856,85,6,1:2:0:0:
256,192,74971,12,2,82010,1:2:0:0:
