osu file format v14

[General]
AudioFilename: audio.mp3
AudioLeadIn: 0
PreviewTime: 14510
Countdown: 0
SampleSet: Soft
StackLeniency: 0.4
Mode: 0
LetterboxInBreaks: 0
EpilepsyWarning: 1
WidescreenStoryboard: 1

[Editor]
DistanceSpacing: 1.4
BeatDivisor: 2
GridSize: 8
TimelineZoom: 1.3

[Metadata]
Title:Yesterday (Movie ver.)
TitleUnicode:イエスタデイ (Movie ver.)
Artist:Official HIGE DANdism
ArtistUnicode:Official髭男dism
Creator:Shiwakaze
Version:midori's Easy
Source:HELLO WORLD
Tags:HIGEDAN Traveler ハロー・ワールド OST Original Soundtrack 楢崎誠 小笹大輔 藤原聡 松浦匡希 Satoshi Fujihara Daisuke Ozasa Makoto Narazaki Masaki Matsuura Koichi Tsutaya KittyAdventure gokugohan12468 Kyouren LeCandy Airiesu Mujina midorijeon 直実告白、両想いに キス! オフィシャルヒゲダンディズム short version size pop anime japanese jpop j-pop
BeatmapID:3528021
BeatmapSetID:1724021

[Difficulty]
HPDrainRate:2
CircleSize:2.5
OverallDifficulty:2
ApproachRate:3
SliderMultiplier:1
SliderTickRate:1

[Events]
//Background and Video events
0,0,"background.jpg",0,0
//Break Periods
//Storyboard Layer 0 (Background)
//Storyboard Layer 1 (Fail)
//Storyboard Layer 2 (Pass)
//Storyboard Layer 3 (Foreground)
//Storyboard Layer 4 (Overlay)
//Storyboard Sound Samples

[TimingPoints]
1010,461.538461538462,4,2,1,50,1,0
8394,-100,4,2,1,60,0,0
15779,-100,4,2,4,80,0,0
16702,-100,4,2,2,80,0,0
30548,-100,4,2,4,80,0,0
31471,-100,4,2,2,80,0,0
45317,-100,4,2,4,80,0,0
46240,-100,4,2,2,80,0,0
46702,-100,4,2,22,80,0,0
47163,-100,4,2,2,80,0,0
47625,-100,4,2,23,80,0,0
48086,-100,4,2,25,80,0,0
48548,-100,4,2,22,80,0,0
49010,-100,4,2,2,80,0,0
50394,-100,4,2,27,80,0,0
50856,-100,4,2,2,80,0,0
51779,-100,4,2,28,80,0,0
52240,-100,4,2,24,80,0,0
52702,-100,4,2,2,80,0,0
53163,-100,4,2,28,80,0,0
53625,-100,4,2,25,80,0,0
54086,-100,4,2,27,80,0,0
55240,-100,4,2,25,80,0,0
55933,-100,4,2,2,80,0,0
56856,-100,4,2,28,80,0,0
57317,-100,4,2,25,80,0,0
57779,-100,4,2,27,80,0,0
59163,-100,4,2,23,80,0,0
59625,-100,4,2,2,80,0,0
60086,-100,4,2,4,80,0,0
61010,-100,4,2,2,80,0,0
74856,-100,4,2,3,60,0,0

[Colours]
Combo1 : 0,128,255
Combo2 : 255,128,64
Combo3 : 255,255,128
Combo4 : 255,62,62
Combo5 : 128,128,128
Combo6 : 0,128,192

[HitObjects]
128,71,1010,6,0,B|177:50|222:79|222:79|269:107|318:87,1,200,6|0,0:0|0:0,0:0:0:0:
402,31,2394,1,0,0:0:0:0:
491,74,2856,2,0,L|471:297,1,200,2|2,0:0|0:0,0:0:0:0:
464,372,4240,1,0,0:0:0:0:
382,314,4702,6,0,B|325:309|293:348|293:348|268:304|212:299,1,200,2|0,0:0|0:0,0:0:0:0:
122,343,6086,1,0,0:0:0:0:
39,287,6548,2,0,B|31:204|31:204|49:175|49:175|42:93,1,200,2|2,0:0|0:0,0:0:0:0:
123,34,7933,1,0,0:0:0:0:
222,42,8394,6,0,L|321:50,1,100,6|0,1:2|1:0,0:0:0:0:
421,59,9317,2,0,L|412:158,1,100,2|0,1:2|1:0,0:0:0:0:
403,258,10240,2,0,L|303:249,1,100,2|0,1:2|1:0,0:0:0:0:
203,240,11163,2,0,L|211:140,1,100,2|0,1:2|1:0,0:0:0:0:
256,192,12086,12,2,13933,0:0:0:0:
473,273,15779,6,0,B|390:265|390:265|361:283|361:283|279:276,1,200,6|2,1:2|1:2,0:0:0:0:
187,317,17163,1,10,0:0:0:0:
105,259,17625,2,0,P|94:210|106:162,1,100,2|8,1:2|0:0,0:0:0:0:
58,74,18548,2,0,P|107:63|155:75,1,100,2|8,1:2|0:0,0:0:0:0:
205,160,19471,6,0,L|308:150,1,100,2|10,1:2|0:0,0:0:0:0:
403,142,20394,1,2,1:2:0:0:
412,241,20856,1,10,0:0:0:0:
421,340,21317,2,0,B|370:319|323:347|323:347|278:376|229:355,1,200,2|2,1:2|1:2,0:0:0:0:
144,302,22702,1,10,0:0:0:0:
45,311,23163,6,0,L|35:207,1,100,6|10,1:2|0:0,0:0:0:0:
125,165,24086,2,0,L|133:65,1,100,2|10,1:2|0:0,0:0:0:0:
215,122,25010,2,0,P|264:128|311:112,1,100,2|10,1:2|0:0,0:0:0:0:
379,40,25933,2,0,P|428:33|475:49,1,100,2|10,1:2|0:0,0:0:0:0:
417,130,26856,2,0,B|409:213|409:213|427:242|427:242|420:324,1,200,6|2,1:2|1:2,0:0:0:0:
319,315,28240,1,12,0:0:0:0:
231,268,28702,2,0,P|181:261|134:277,2,100,2|12|10,1:2|0:0|0:0,0:0:0:0:
319,315,30086,1,10,0:0:0:0:
310,215,30548,6,0,L|292:15,1,200,6|2,1:2|1:2,0:0:0:0:
192,23,31933,1,10,0:0:0:0:
92,31,32394,2,0,P|85:80|101:127,1,100,2|8,1:2|0:0,0:0:0:0:
171,197,33317,2,0,P|186:243|180:293,1,100,2|8,1:2|0:0,0:0:0:0:
265,346,34240,6,0,L|368:336,1,100,2|10,1:2|0:0,0:0:0:0:
463,328,35163,1,2,1:2:0:0:
454,229,35625,1,10,0:0:0:0:
445,130,36086,2,0,B|388:135|356:96|356:96|331:140|275:145,1,200,2|2,1:2|1:2,0:0:0:0:
173,139,37472,1,8,0:0:0:0:
73,148,37933,6,0,L|63:48,2,100,6|8|2,1:2|0:0|1:2,0:0:0:0:
31,238,39317,1,8,0:0:0:0:
84,323,39779,2,0,B|134:302|181:330|181:330|226:359|275:338,1,200,6|2,1:2|1:2,0:0:0:0:
369,303,41163,1,8,0:0:0:0:
450,244,41625,6,0,L|440:140,1,100,6|14,1:2|0:2,0:0:0:0:
432,44,42548,1,2,1:2:0:0:
332,52,43009,1,14,0:0:0:0:
250,109,43471,2,0,L|146:99,1,100,2|12,1:2|0:0,0:0:0:0:
66,44,44394,2,0,P|51:90|57:140,1,100,10|10,0:0|0:0,0:0:0:0:
119,218,45317,6,0,B|202:210|202:210|231:228|231:228|313:221,1,200,6|0,1:2|1:2,0:0:0:0:
395,163,46702,1,10,0:0:0:0:
484,204,47163,2,0,P|490:253|474:300,1,100,0|10,1:0|0:0,0:0:0:0:
391,355,48086,2,0,L|287:345,1,100,2|10,1:2|0:0,0:0:0:0:
249,254,49010,6,0,L|49:273,1,200,2|0,1:2|1:0,0:0:0:0:
39,173,50394,1,10,0:0:0:0:
28,73,50856,2,0,L|227:53,1,200,0|2,1:0|1:2,0:0:0:0:
317,94,52240,1,10,0:0:0:0:
399,36,52702,6,0,P|415:82|409:132,1,100,4|10,1:2|0:0,0:0:0:0:
328,192,53625,2,0,L|338:296,1,100,0|10,1:0|0:0,0:0:0:0:
277,371,54548,2,0,P|343:338|414:357,2,150,2|2|8,1:2|0:0|0:0,0:0:0:0:
234,280,56394,6,0,L|134:290,1,100,6|14,1:2|0:0,0:0:0:0:
33,300,57317,2,0,L|21:200,1,100,0|14,1:0|0:0,0:0:0:0:
14,101,58240,2,0,L|112:89,1,100,2|14,1:2|0:0,0:0:0:0:
172,169,59163,2,0,P|218:185|268:179,1,100,10|10,0:0|0:0,0:0:0:0:
323,262,60086,6,0,B|329:178|329:178|352:153|352:153|359:71,1,200,6|2,1:2|1:2,0:0:0:0:
285,3,61471,1,8,0:0:0:0:
228,85,61933,2,0,P|182:101|132:95,1,100,2|8,1:2|0:0,0:0:0:0:
33,77,62856,2,0,L|45:176,1,100,2|8,1:2|0:0,0:0:0:0:
59,275,63779,6,0,L|158:262,1,100,2|10,1:2|0:0,0:0:0:0:
232,329,64702,1,2,1:2:0:0:
333,334,65163,1,10,0:0:0:0:
433,340,65625,2,0,P|476:300|428:173,1,200,2|2,1:2|1:2,0:0:0:0:
345,150,67010,1,8,0:0:0:0:
268,214,67471,6,0,P|252:260|258:310,2,100,6|8|2,1:2|0:0|1:2,0:0:0:0:
345,150,68856,1,8,0:0:0:0:
265,90,69317,2,0,B|215:69|168:97|168:97|123:126|74:105,1,200,6|2,1:2|1:2,0:0:0:0:
21,190,70702,1,8,0:0:0:0:
12,289,71163,6,0,L|116:299,1,100,6|14,1:2|0:2,0:0:0:0:
173,376,72086,1,2,1:2:0:0:
273,368,72547,1,14,0:0:0:0:
372,354,73010,2,0,P|378:304|362:257,1,100,2|12,1:2|0:0,0:0:0:0:
373,158,73933,2,0,L|269:168,1,100,10|10,0:0|0:0,0:0:0:0:
220,252,74856,6,0,L|0:230,1,200,6|10,1:2|0:0,0:0:0:0:
127,63,76702,2,0,B|184:58|216:97|216:97|241:53|297:48,1,200,2|10,1:2|0:0,0:0:0:0:
385,97,78086,1,2,1:2:0:0:
484,86,78548,2,0,P|530:168|475:246,1,200,2|10,1:2|0:0,0:0:0:0:
284,304,80394,6,0,B|234:283|187:311|187:311|142:340|93:319,1,200,2|10,1:2|0:0,0:0:0:0:
24,246,81779,1,2,1:2:0:0:
