osu file format v14

[General]
AudioFilename: audio.mp3
AudioLeadIn: 0
PreviewTime: 14510
Countdown: 0
SampleSet: Soft
StackLeniency: 0.2
Mode: 0
LetterboxInBreaks: 0
EpilepsyWarning: 1
WidescreenStoryboard: 1

[Editor]
Bookmarks: 45779,59163
DistanceSpacing: 1
BeatDivisor: 4
GridSize: 32
TimelineZoom: 2.3

[Metadata]
Title:Yesterday (Movie ver.)
TitleUnicode:イエスタデイ (Movie ver.)
Artist:Official HIGE DANdism
ArtistUnicode:Official髭男dism
Creator:Shiwakaze
Version:Kyouren's Yesterday
Source:HELLO WORLD
Tags:HIGEDAN Traveler ハロー・ワールド OST Original Soundtrack 楢崎誠 小笹大輔 藤原聡 松浦匡希 Satoshi Fujihara Daisuke Ozasa Makoto Narazaki Masaki Matsuura Koichi Tsutaya KittyAdventure gokugohan12468 Kyouren LeCandy Airiesu Mujina midorijeon 直実告白、両想いに キス! オフィシャルヒゲダンディズム short version size pop anime japanese jpop j-pop
BeatmapID:3527902
BeatmapSetID:1724021

[Difficulty]
HPDrainRate:5.5
CircleSize:4.4
OverallDifficulty:8
ApproachRate:8.8
SliderMultiplier:1.7
SliderTickRate:1

[Events]
//Background and Video events
0,0,"background.jpg",0,0
//Break Periods
//Storyboard Layer 0 (Background)
//Storyboard Layer 1 (Fail)
//Storyboard Layer 2 (Pass)
//Storyboard Layer 3 (Foreground)
//Storyboard Layer 4 (Overlay)
//Storyboard Sound Samples

[TimingPoints]
1010,461.538461538462,4,2,1,50,1,0
1010,-166.666666666667,4,2,1,50,0,0
1702,-166.666666666667,4,2,2,50,0,0
1933,-166.666666666667,4,2,1,50,0,0
2625,-166.666666666667,4,2,2,50,0,0
2856,-166.666666666667,4,2,1,50,0,0
3548,-166.666666666667,4,2,2,50,0,0
3779,-166.666666666667,4,2,1,50,0,0
4471,-166.666666666667,4,2,2,50,0,0
4702,-166.666666666667,4,2,1,50,0,0
5856,-166.666666666667,4,2,2,50,0,0
6086,-166.666666666667,4,2,1,50,0,0
6202,-166.666666666667,4,2,2,50,0,0
6548,-166.666666666667,4,2,1,50,0,0
8163,-166.666666666667,4,2,2,50,0,0
8394,-133.333333333333,4,2,1,60,0,0
13933,-200,4,2,1,60,0,0
14625,-200,4,2,2,60,0,0
15779,-100,4,2,4,80,0,0
16240,-100,4,2,2,80,0,0
30548,-100,4,2,4,80,0,0
31010,-100,4,2,2,80,0,0
45317,-100,4,2,4,80,0,0
45663,-100,4,2,2,80,0,0
45779,-90.9090909090909,4,2,20,80,0,0
46010,-90.9090909090909,4,2,21,80,0,0
46125,-100,4,2,2,80,0,0
46240,-90.9090909090909,4,2,2,80,0,0
46702,-90.9090909090909,4,2,22,80,0,0
46933,-90.9090909090909,4,2,23,80,0,0
47163,-90.9090909090909,4,2,2,80,0,0
47394,-90.9090909090909,4,2,24,80,0,0
47510,-90.9090909090909,4,2,2,80,0,0
47625,-90.9090909090909,4,2,23,80,0,0
48086,-90.9090909090909,4,2,25,80,0,0
48317,-90.9090909090909,4,2,24,80,0,0
48433,-90.9090909090909,4,2,2,80,0,0
48548,-90.9090909090909,4,2,22,80,0,0
48779,-90.9090909090909,4,2,26,80,0,0
48894,-90.9090909090909,4,2,2,80,0,0
49471,-90.9090909090909,4,2,22,80,0,0
49702,-90.9090909090909,4,2,26,80,0,0
49933,-90.9090909090909,4,2,2,80,0,0
50163,-90.9090909090909,4,2,25,80,0,0
50394,-90.9090909090909,4,2,27,80,0,0
50510,-90.9090909090909,4,2,2,80,0,0
50625,-90.9090909090909,4,2,27,80,0,0
50740,-90.9090909090909,4,2,2,80,0,0
51086,-90.9090909090909,4,2,25,80,0,0
51202,-90.9090909090909,4,2,2,80,0,0
51317,-90.9090909090909,4,2,25,80,0,0
51548,-90.9090909090909,4,2,28,80,0,0
51663,-90.9090909090909,4,2,2,80,0,0
51779,-90.9090909090909,4,2,28,80,0,0
52010,-90.9090909090909,4,2,27,80,0,0
52240,-90.9090909090909,4,2,24,80,0,0
52471,-90.9090909090909,4,2,25,80,0,0
52702,-90.9090909090909,4,2,2,80,0,0
53163,-90.9090909090909,4,2,28,80,0,0
53394,-90.9090909090909,4,2,25,80,0,0
53510,-90.9090909090909,4,2,2,80,0,0
53856,-90.9090909090909,4,2,27,80,0,0
53971,-90.9090909090909,4,2,2,80,0,0
54086,-90.9090909090909,4,2,27,80,0,0
54317,-90.9090909090909,4,2,28,80,0,0
54433,-90.9090909090909,4,2,2,80,0,0
54548,-90.9090909090909,4,2,27,80,0,0
55010,-90.9090909090909,4,2,25,80,0,0
55240,-90.9090909090909,4,2,25,80,0,0
55356,-90.9090909090909,4,2,2,80,0,0
55471,-90.9090909090909,4,2,27,80,0,0
55702,-90.9090909090909,4,2,2,80,0,0
56625,-90.9090909090909,4,2,29,80,0,0
56856,-90.9090909090909,4,2,28,80,0,0
57086,-90.9090909090909,4,2,25,80,0,0
57548,-90.9090909090909,4,2,27,80,0,0
57663,-90.9090909090909,4,2,2,80,0,0
57779,-90.9090909090909,4,2,27,80,0,0
58010,-90.9090909090909,4,2,28,80,0,0
58240,-90.9090909090909,4,2,27,80,0,0
58933,-90.9090909090909,4,2,22,80,0,0
59163,-90.9090909090909,4,2,23,80,0,0
59279,-90.9090909090909,4,2,2,80,0,0
60086,-90.9090909090909,4,2,4,80,0,0
60548,-90.9090909090909,4,2,2,80,0,0
74856,-125,4,2,3,60,0,0

[Colours]
Combo1 : 0,128,255
Combo2 : 255,128,64
Combo3 : 255,255,128
Combo4 : 255,62,62
Combo5 : 128,128,128
Combo6 : 0,128,192

[HitObjects]
70,45,1010,6,0,L|66:146,1,101.999996887207,6|0,0:0|0:0,0:0:0:0:
35,230,1702,1,0,0:0:0:0:
115,215,1933,2,0,B|169:209|162:231|215:224,1,101.999996887207
195,145,2625,1,0,0:0:0:0:
255,300,2856,6,0,P|299:275|349:280,1,101.999996887207,2|0,0:0|0:0,0:0:0:0:
415,325,3548,1,0,0:0:0:0:
390,210,3779,2,0,P|434:234|484:229,1,101.999996887207,2|0,0:0|0:0,0:0:0:0:
450,155,4471,1,0,0:0:0:0:
390,100,4702,6,0,B|336:94|343:116|290:109,2,101.999996887207,2|0|0,0:0|0:0|0:0,0:0:0:0:
220,65,5856,2,0,P|205:44|187:26,1,50.9999984436036,2|2,0:0|0:0,0:0:0:0:
179,21,6202,1,2,0:0:0:0:
171,19,6317,1,2,0:0:0:0:
195,145,6548,6,0,P|145:138|99:160,1,101.999996887207,2|0,0:0|0:0,0:0:0:0:
265,185,7471,2,0,P|256:234|274:281,1,101.999996887207,2|0,0:0|0:0,0:0:0:0:
345,325,8163,1,2,0:0:0:0:
198,371,8394,6,0,P|196:339|185:309,1,63.7500024318696,6|0,1:2|0:0,0:0:0:0:
275,281,8856,2,0,P|276:249|287:219,1,63.7500024318696,0|0,1:0|0:0,0:0:0:0:
350,160,9317,2,0,L|413:168,1,63.7500024318696,2|0,1:2|0:0,0:0:0:0:
234,126,9779,2,0,L|170:134,1,63.7500024318696,0|0,1:0|0:0,0:0:0:0:
315,375,10240,6,0,P|324:344|320:313,1,63.7500024318696,2|0,1:2|0:0,0:0:0:0:
235,305,10702,2,0,P|225:335|229:366,1,63.7500024318696,0|0,1:0|0:0,0:0:0:0:
265,180,11163,6,0,P|254:149|234:125,1,63.7500024318696,2|0,1:2|0:0,0:0:0:0:
160,171,11625,2,0,P|170:202|191:226,1,63.7500024318696,0|0,1:0|0:0,0:0:0:0:
335,225,12086,6,0,P|355:200|365:170,1,63.7500024318696,2|0,1:2|0:0,0:0:0:0:
295,126,12548,2,0,P|274:150|265:181,1,63.7500024318696,0|0,1:2|0:0,0:0:0:0:
320,305,13010,2,0,P|347:321|379:324,1,63.7500024318696,2|0,1:2|0:0,0:0:0:0:
424,189,13471,2,0,P|397:173|366:170,1,63.7500024318696,0|0,1:2|0:0,0:0:0:0:
255,15,13933,6,0,L|252:99,1,85,2|0,0:0|0:0,0:0:0:0:
252,100,14625,1,2,0:0:0:0:
330,80,14856,5,2,0:0:0:0:
160,171,15317,1,2,0:0:0:0:
160,181,15433,1,2,0:0:0:0:
161,192,15548,1,2,0:0:0:0:
162,202,15663,1,2,0:0:0:0:
100,255,15779,6,0,P|180:241|237:300,1,170,6|8,1:2|0:0,0:0:0:0:
380,360,16471,1,2,0:0:0:0:
385,365,16586,1,2,0:0:0:0:
390,370,16702,2,0,P|424:346|431:305,1,85,2|0,1:2|0:0,0:0:0:0:
310,123,17163,1,10,0:0:0:0:
275,145,17279,1,2,0:0:0:0:
267,186,17394,1,2,0:0:0:0:
350,195,17625,6,0,B|447:186|408:153|509:143,1,170,2|8,1:2|0:0,0:0:0:0:
365,40,18317,1,2,0:0:0:0:
440,75,18548,2,0,B|460:40|460:40|441:0,1,85,2|2,1:2|0:0,0:0:0:0:
365,40,18894,1,2,0:0:0:0:
352,46,19010,2,0,L|360:158,1,85,10|2,0:0|0:0,0:0:0:0:
45,115,19471,6,0,P|94:50|175:57,1,170,2|10,1:2|0:0,0:0:0:0:
185,220,20163,1,2,0:0:0:0:
175,220,20279,1,2,0:0:0:0:
165,225,20394,2,0,P|148:186|155:145,1,85,2|2,1:2|0:0,0:0:0:0:
255,130,20740,1,2,0:0:0:0:
265,135,20856,2,0,P|281:173|274:214,1,85,10|2,0:0|0:0,0:0:0:0:
255,295,21202,5,2,0:0:0:0:
250,305,21317,2,0,P|332:299|397:351,1,170,2|8,1:2|0:0,0:0:0:0:
510,200,22010,2,0,P|498:217|492:237,1,42.5,2|2,0:0|0:0,0:0:0:0:
415,255,22240,2,0,P|393:219|393:177,1,85,2|2,1:2|0:0,0:0:0:0:
445,120,22586,1,2,0:0:0:0:
450,115,22702,2,0,P|449:73|427:37,1,85,10|0,0:0|0:0,0:0:0:0:
225,45,23163,5,6,1:2:0:0:
255,190,23394,1,2,0:0:0:0:
373,97,23625,1,10,0:0:0:0:
182,128,23856,5,2,0:0:0:0:
171,125,23971,1,2,0:0:0:0:
160,122,24086,1,2,1:2:0:0:
255,280,24317,1,2,0:0:0:0:
266,277,24433,1,2,0:0:0:0:
277,274,24548,1,10,0:0:0:0:
105,360,24779,5,2,0:0:0:0:
25,340,25010,2,0,P|82:282|161:303,1,170,2|10,1:2|0:0,0:0:0:0:
255,190,25702,1,0,0:0:0:0:
189,43,25933,2,0,L|182:128,1,85,2|2,1:2|0:0,0:0:0:0:
115,170,26279,1,2,0:0:0:0:
110,175,26394,2,0,P|68:175|33:152,1,85,10|0,0:0|0:0,0:0:0:0:
255,190,26856,6,0,P|325:147|407:163,1,170,6|12,1:2|0:0,0:0:0:0:
498,32,27548,1,2,0:0:0:0:
492,28,27663,1,2,0:0:0:0:
485,25,27779,2,0,P|465:61|473:102,1,85,2|2,1:2|0:0,0:0:0:0:
407,163,28125,1,2,0:0:0:0:
400,155,28240,2,0,P|359:146|322:166,1,85,12|2,0:0|0:0,0:0:0:0:
270,105,28586,1,2,0:0:0:0:
265,100,28702,6,0,P|271:57|277:15,1,85,2|0,1:2|0:0,0:0:0:0:
145,225,29163,1,12,0:0:0:0:
65,205,29394,2,0,P|70:184|84:168,1,42.5,2|2,0:0|0:0,0:0:0:0:
164,146,29625,1,10,0:0:0:0:
200,167,29740,1,10,0:0:0:0:
222,203,29856,1,2,1:2:0:0:
122,304,30086,1,10,0:0:0:0:
300,240,30317,5,10,0:0:0:0:
345,245,30433,1,10,0:0:0:0:
380,205,30548,2,0,B|394:107|348:137|363:38,1,170,6|8,1:2|0:0,0:0:0:0:
495,15,31240,1,2,0:0:0:0:
502,18,31356,1,2,0:0:0:0:
505,25,31471,2,0,P|485:61|445:69,1,85,2|0,1:2|0:0,0:0:0:0:
215,110,31933,1,10,0:0:0:0:
256,108,32048,1,2,0:0:0:0:
283,139,32163,1,2,0:0:0:0:
230,360,32394,6,0,B|225:279|225:279|222:278|222:278|217:191,1,170,2|8,1:2|0:0,0:0:0:0:
300,245,33086,1,2,0:0:0:0:
150,320,33317,2,0,B|109:332|109:332|77:304,1,85,2|2,1:2|0:0,0:0:0:0:
5,280,33663,1,2,0:0:0:0:
10,270,33779,2,0,L|1:185,1,85,10|2,0:0|0:0,0:0:0:0:
5,25,34240,6,0,P|87:26|135:92,1,170,2|10,1:2|0:0,0:0:0:0:
170,250,34933,1,2,0:0:0:0:
160,245,35048,1,2,0:0:0:0:
150,240,35163,2,0,P|149:198|176:166,1,85,2|2,1:2|0:0,0:0:0:0:
255,185,35510,1,2,0:0:0:0:
257,193,35625,1,10,0:0:0:0:
290,20,35856,2,0,L|293:62,1,42.5,2|2,0:0|0:0,0:0:0:0:
215,40,36086,6,0,B|313:26|283:72|381:56,1,170,2|8,1:2|0:0,0:0:0:0:
493,197,36779,1,2,0:0:0:0:
495,190,36894,1,2,0:0:0:0:
500,180,37010,2,0,L|415:184,1,85,2|0,1:2|0:0,0:0:0:0:
290,280,37471,1,8,0:0:0:0:
255,130,37702,1,2,0:0:0:0:
53,237,37933,6,0,L|138:241,1,85,6|0,1:2|0:0,0:0:0:0:
195,295,38279,2,0,P|213:257|209:215,1,85,2|0,0:0|0:0,0:0:0:0:
150,120,38625,2,0,L|142:161,1,42.5,2|0,0:0|0:0,0:0:0:0:
209,215,38856,6,0,L|225:131,1,85,2|0,1:2|0:0,0:0:0:0:
134,36,39202,2,0,L|150:120,1,85,2|0,0:0|0:0,0:0:0:0:
218,52,39548,2,0,L|210:11,1,42.5,2|2,0:0|0:0,0:0:0:0:
290,85,39779,6,0,L|370:112,1,85,6|0,1:2|0:0,0:0:0:0:
290,242,40125,2,0,L|210:215,1,85,2|0,0:0|0:0,0:0:0:0:
295,165,40471,2,0,L|343:181,1,42.5,2|0,0:0|0:0,0:0:0:0:
300,330,40702,6,0,L|220:303,1,85,2|2,1:2|0:0,0:0:0:0:
145,320,41048,1,2,0:0:0:0:
143,327,41163,1,10,0:0:0:0:
11,195,41394,5,2,0:0:0:0:
52,190,41510,1,2,0:0:0:0:
77,158,41625,1,6,1:2:0:0:
205,40,41856,1,0,0:0:0:0:
105,60,42086,1,14,0:2:0:0:
280,110,42317,1,2,0:0:0:0:
235,205,42548,6,0,P|297:200|346:238,1,127.5,2|0,1:2|0:0,0:0:0:0:
425,265,43010,2,0,P|422:243|425:223,1,42.5,14|0,0:0|0:0,0:0:0:0:
477,163,43240,1,2,0:0:0:0:
280,27,43471,6,0,P|289:68|280:110,1,85,2|0,1:2|0:0,0:0:0:0:
60,195,43933,1,12,0:0:0:0:
130,0,44163,1,10,0:0:0:0:
132,10,44279,1,10,0:0:0:0:
134,19,44394,1,10,0:0:0:0:
253,197,44625,1,10,0:3:0:0:
25,105,44856,5,10,0:0:0:0:
67,102,44971,1,10,0:3:0:0:
107,116,45086,1,10,0:3:0:0:
146,131,45202,1,6,0:3:0:0:
188,130,45317,6,0,P|152:180|170:240,1,127.5,6|0,1:2|0:0,0:0:0:0:
240,280,45779,1,10,0:0:0:0:
450,180,46010,1,2,0:0:0:0:
449,171,46125,1,2,0:0:0:0:
455,160,46240,2,0,B|379:164|401:134|317:139,1,140.25000428009,2|0,1:2|0:0,0:0:0:0:
260,80,46702,1,10,0:0:0:0:
375,230,46933,2,0,P|367:276|363:322,1,93.5000028533936,2|0,0:0|1:0,0:0:0:0:
190,130,47394,5,2,0:0:0:0:
175,165,47510,1,2,0:0:0:0:
190,200,47625,2,0,B|106:195|128:225|52:220,1,140.25000428009,10|0,0:0|0:0,0:0:0:0:
14,158,48086,1,2,1:2:0:0:
160,280,48317,1,2,0:0:0:0:
158,292,48433,1,2,0:0:0:0:
156,304,48548,1,10,0:0:0:0:
290,230,48779,1,2,0:0:0:0:
305,185,48894,1,2,0:0:0:0:
265,160,49010,6,0,P|261:113|258:66,1,93.5000028533936,2|0,1:2|0:0,0:0:0:0:
485,165,49471,2,0,P|446:190|407:217,1,93.5000028533936,10|2,0:0|0:0,0:0:0:0:
385,0,49933,2,0,P|427:20|469:40,1,93.5000028533936,0|2,1:0|0:0,0:0:0:0:
258,66,50394,1,10,0:0:0:0:
291,56,50510,1,2,0:0:0:0:
326,60,50625,1,2,0:0:0:0:
356,77,50740,1,2,0:0:0:0:
377,105,50856,1,0,1:0:0:0:
215,215,51086,5,2,0:0:0:0:
188,182,51202,1,2,0:0:0:0:
205,140,51317,1,10,0:0:0:0:
408,217,51548,5,2,0:0:0:0:
395,265,51663,1,2,0:0:0:0:
350,275,51779,1,2,1:2:0:0:
205,140,52010,1,2,0:0:0:0:
330,195,52240,1,10,0:0:0:0:
145,270,52471,1,2,0:0:0:0:
175,55,52702,6,0,B|254:48|230:79|312:70,1,140.25000428009,4|0,1:2|0:0,0:0:0:0:
370,15,53163,1,10,0:0:0:0:
505,190,53394,1,2,0:0:0:0:
505,180,53510,1,2,0:0:0:0:
510,170,53625,2,0,P|465:160|424:181,1,93.5000028533936,2|2,1:2|0:0,0:0:0:0:
360,230,53971,1,2,0:0:0:0:
355,240,54086,2,0,L|362:333,1,93.5000028533936,10|2,0:0|0:0,0:0:0:0:
290,365,54433,1,2,0:0:0:0:
285,355,54548,6,0,B|206:348|230:379|148:370,1,140.25000428009,2|0,1:2|0:0,0:0:0:0:
72,338,55010,1,10,0:0:0:0:
85,105,55240,1,2,0:0:0:0:
78,102,55355,1,2,0:0:0:0:
70,100,55471,2,0,P|36:130|35:176,1,93.5000028533936,2|2,1:2|0:0,0:0:0:0:
100,215,55817,1,2,0:0:0:0:
105,220,55933,2,0,L|197:208,1,93.5000028533936,10|2,0:0|0:0,0:0:0:0:
283,108,56394,5,6,1:2:0:0:
253,303,56625,1,2,0:0:0:0:
445,230,56856,1,14,0:0:0:0:
253,303,57086,1,2,0:0:0:0:
445,230,57317,6,0,B|400:226|400:226|400:228|400:228|353:223,1,93.5000028533936,0|2,1:0|0:0,0:0:0:0:
385,145,57663,1,2,0:0:0:0:
390,140,57779,2,0,L|436:142,1,46.7500014266968,14|0,0:0|0:0,0:0:0:0:
495,85,58010,1,2,0:0:0:0:
255,15,58240,6,0,B|259:60|259:60|257:60|257:60|262:107,1,93.5000028533936,2|0,1:2|0:0,0:0:0:0:
115,215,58702,1,14,0:0:0:0:
150,15,58933,1,2,0:0:0:0:
205,170,59163,5,10,0:0:0:0:
175,134,59279,1,10,0:3:0:0:
132,115,59394,1,10,0:3:0:0:
86,118,59510,1,6,0:3:0:0:
46,140,59625,1,10,0:0:0:0:
260,260,59856,5,10,0:0:0:0:
305,275,59971,1,10,0:0:0:0:
345,245,60086,2,0,P|434:233|496:298,1,187.000005706787,6|8,1:2|0:0,0:0:0:0:
300,170,60779,1,2,0:0:0:0:
295,160,60894,1,2,0:0:0:0:
300,150,61010,2,0,P|329:115|375:110,1,93.5000028533936,2|0,1:2|0:0,0:0:0:0:
200,10,61471,1,10,0:0:0:0:
165,40,61586,1,2,0:0:0:0:
172,88,61702,1,2,0:0:0:0:
110,190,61933,6,0,P|25:164|12:77,1,187.000005706787,2|8,1:2|0:0,0:0:0:0:
85,110,62625,1,2,0:0:0:0:
180,235,62856,2,0,L|170:327,1,93.5000028533936,2|2,1:2|0:0,0:0:0:0:
240,370,63202,1,2,0:0:0:0:
250,365,63317,2,0,L|254:318,1,46.7500014266968,10|0,0:0|0:0,0:0:0:0:
320,275,63548,1,2,0:0:0:0:
500,195,63779,6,0,B|427:190|452:159|368:150,1,140.25000428009,2|0,1:2|0:0,0:0:0:0:
300,110,64240,1,10,0:0:0:0:
320,275,64471,1,2,0:0:0:0:
325,270,64586,1,2,0:0:0:0:
330,265,64702,2,0,P|320:221|276:211,1,93.5000028533936,2|2,1:2|0:0,0:0:0:0:
210,170,65048,1,2,0:0:0:0:
200,175,65163,1,10,0:0:0:0:
30,130,65394,1,2,0:0:0:0:
120,250,65625,6,0,B|109:169|109:169|118:145|118:145|108:65,1,187.000005706787,2|8,1:2|0:0,0:0:0:0:
315,15,66317,1,2,0:0:0:0:
319,30,66433,1,2,0:0:0:0:
310,45,66548,1,2,1:2:0:0:
220,115,66779,1,0,0:0:0:0:
108,66,67010,1,8,0:0:0:0:
15,240,67240,1,2,0:0:0:0:
17,233,67356,1,2,0:0:0:0:
15,220,67471,6,0,L|107:233,1,93.5000028533936,6|0,1:2|0:0,0:0:0:0:
140,155,67817,2,0,L|47:141,1,93.5000028533936,2|0,0:0|0:0,0:0:0:0:
108,66,68163,2,0,L|154:72,1,46.7500014266968,2|0,0:0|0:0,0:0:0:0:
225,25,68394,6,0,P|270:24|307:52,1,93.5000028533936,2|0,1:2|0:0,0:0:0:0:
405,115,68740,2,0,P|359:114|322:142,1,93.5000028533936,2|0,0:0|0:0,0:0:0:0:
390,235,69086,2,0,P|393:212|389:189,1,46.7500014266968,2|2,0:0|0:0,0:0:0:0:
265,200,69317,6,0,L|172:186,1,93.5000028533936,6|0,1:2|0:0,0:0:0:0:
30,265,69663,2,0,L|123:251,1,93.5000028533936,2|0,0:0|0:0,0:0:0:0:
102,128,70010,2,0,L|95:174,1,46.7500014266968,2|0,0:0|0:0,0:0:0:0:
185,360,70240,6,0,L|198:267,1,93.5000028533936,2|2,1:2|0:0,0:0:0:0:
173,186,70586,1,2,0:0:0:0:
174,176,70702,1,10,0:0:0:0:
40,10,70933,5,2,0:0:0:0:
20,50,71048,1,2,0:0:0:0:
45,90,71163,1,6,1:2:0:0:
240,65,71394,1,0,0:0:0:0:
135,45,71625,1,14,0:2:0:0:
280,155,71856,1,2,0:0:0:0:
300,200,71971,1,2,0:0:0:0:
280,240,72086,6,0,B|364:234|343:268|417:260,1,140.25000428009,2|0,1:2|0:0,0:0:0:0:
480,210,72548,2,0,P|482:186|475:164,1,46.7500014266968,14|0,0:0|0:0,0:0:0:0:
415,110,72779,1,2,0:0:0:0:
240,65,73010,5,2,1:2:0:0:
340,45,73240,1,0,0:0:0:0:
220,160,73471,1,12,0:0:0:0:
150,20,73702,5,2,0:0:0:0:
105,6,73817,1,2,0:0:0:0:
61,19,73933,1,10,0:0:0:0:
31,53,74048,1,10,0:0:0:0:
24,99,74163,2,0,L|31:145,1,46.7500014266968,2|2,1:2|0:0,0:0:0:0:
85,200,74394,1,10,0:0:0:0:
20,370,74625,5,10,0:0:0:0:
22,358,74740,1,10,0:0:0:0:
15,335,74856,2,0,B|92:328|76:369|145:360,1,136,6|0,1:2|3:0,0:0:0:0:
320,290,75548,1,2,1:2:0:0:
260,230,75779,2,0,P|227:238|208:265,1,68,10|0,0:0|0:0,0:0:0:0:
400,280,76240,5,0,3:2:0:0:
410,145,76471,1,2,1:2:0:0:
397,273,76702,1,2,1:2:0:0:
255,15,76933,5,0,0:0:0:0:
245,95,77163,1,0,3:2:0:0:
260,10,77394,1,2,1:2:0:0:
235,175,77625,1,10,0:0:0:0:
40,10,77856,5,0,3:0:0:0:
135,80,78086,1,2,1:2:0:0:
20,125,78317,1,0,1:0:0:0:
30,355,78548,5,2,1:2:0:0:
60,280,78779,1,0,0:0:0:0:
135,260,79010,1,0,3:0:0:0:
200,305,79240,1,2,1:2:0:0:
455,335,79471,5,10,0:0:0:0:
475,255,79702,1,0,0:0:0:0:
430,190,79933,1,0,3:0:0:0:
350,180,80164,1,2,1:2:0:0:
290,235,80394,1,2,1:2:0:0:
70,140,80625,5,0,0:0:0:0:
60,60,80856,1,0,3:0:0:0:
140,50,81086,1,2,1:2:0:0:
150,130,81317,1,10,0:0:0:0:
495,140,81548,5,0,3:0:0:0:
455,5,81779,1,2,1:2:0:0:
350,100,82010,1,2,1:2:0:0:
