osu file format v14

[General]
AudioFilename: audio.mp3
AudioLeadIn: 0
PreviewTime: 14510
Countdown: 0
SampleSet: Soft
StackLeniency: 0.7
Mode: 2
LetterboxInBreaks: 0
WidescreenStoryboard: 1

[Editor]
DistanceSpacing: 1.1
BeatDivisor: 4
GridSize: 32
TimelineZoom: 2.4

[Metadata]
Title:Yesterday (Movie ver.)
TitleUnicode:イエスタデイ (Movie ver.)
Artist:Official HIGE DANdism
ArtistUnicode:Official髭男dism
Creator:Nokashi
Version:Platter
Source:HELLO WORLD
Tags:HIGEDAN Traveler ハロー・ワールド OST Original Soundtrack 楢崎誠 小笹大輔 藤原聡 松浦匡希 Satoshi Fujihara Daisuke Ozasa Makoto Narazaki Masaki Matsuura Koichi Tsutaya 直実告白、両想いに キス! オフィシャルヒゲダンディズム short version size pop anime japanese jpop j-pop gokugohan12468 traveller
BeatmapID:2664593
BeatmapSetID:1282124

[Difficulty]
HPDrainRate:5
CircleSize:3.4
OverallDifficulty:7.8
ApproachRate:7.8
SliderMultiplier:1.8
SliderTickRate:2

[Events]
//Background and Video events
0,0,"background.jpg",0,0
//Break Periods
//Storyboard Layer 0 (Background)
//Storyboard Layer 1 (Fail)
//Storyboard Layer 2 (Pass)
//Storyboard Layer 3 (Foreground)
//Storyboard Layer 4 (Overlay)
//Storyboard Sound Samples

[TimingPoints]
490,461.538461538462,4,2,1,60,1,0
1010,461.538461538462,4,2,1,60,1,0
1010,-100,4,2,1,60,0,0
15779,-83.3333333333333,4,2,1,70,0,1
16240,-83.3333333333333,4,2,1,70,0,0
30548,-83.3333333333333,4,2,1,70,0,1
31010,-83.3333333333333,4,2,1,70,0,0
37933,-83.3333333333333,4,2,1,75,0,0
43933,-83.3333333333333,4,2,1,80,0,0
45317,-83.3333333333333,4,2,1,75,0,1
45779,-83.3333333333333,4,2,1,75,0,0
46240,-83.3333333333333,4,2,1,75,0,0
48086,-83.3333333333333,4,2,1,75,0,0
60086,-83.3333333333333,4,2,1,70,0,1
60548,-83.3333333333333,4,2,1,70,0,0
67471,-83.3333333333333,4,2,1,75,0,0
73010,-83.3333333333333,4,2,1,80,0,0
74856,-100,4,2,1,60,0,1
75317,-100,4,2,1,60,0,0

[Colours]
Combo1 : 255,62,62
Combo2 : 255,128,64
Combo3 : 255,255,128

[HitObjects]
240,333,1010,5,2,0:0:0:0:
132,334,1240,1,0,0:0:0:0:
24,332,1471,1,2,0:0:0:0:
132,334,1702,2,0,P|250:335|306:300,1,180,0|0,0:0|0:0,0:0:0:0:
187,223,2394,2,0,L|63:223,1,90,2|0,0:0|0:0,0:0:0:0:
311,88,2856,6,0,P|394:115|439:193,1,180,2|2,0:0|0:0,0:0:0:0:
331,266,3548,1,0,0:0:0:0:
207,309,3779,2,0,P|257:225|199:172,1,180,2|2,0:0|0:0,0:0:0:0:
84,88,4471,1,0,0:0:0:0:
288,51,4702,6,0,P|407:64|471:20,1,180,2|2,0:0|0:0,0:0:0:0:
347,27,5394,1,0,0:0:0:0:
239,29,5625,1,2,0:0:0:0:
351,137,5856,2,0,P|432:145|491:93,1,135,2|2,0:0|0:0,0:0:0:0:
171,103,6548,6,0,P|116:144|160:261,1,180,2|0,0:0|0:0,0:0:0:0:
255,272,7240,1,0,0:0:0:0:
373,278,7471,2,0,L|489:279,1,90,2|0,0:0|0:0,0:0:0:0:
343,221,7933,1,2,0:0:0:0:
466,223,8163,1,0,0:0:0:0:
250,157,8394,6,0,P|155:162|87:117,1,180,2|0,1:2|1:0,0:0:0:0:
199,75,9086,1,0,0:0:0:0:
323,77,9317,2,0,L|452:77,2,90,2|0|0,1:2|0:0|1:0,0:0:0:0:
199,75,10010,1,0,0:0:0:0:
419,72,10240,6,0,P|466:129|413:210,1,180,2|0,1:2|1:0,0:0:0:0:
292,216,10933,1,0,0:0:0:0:
418,175,11163,2,0,L|462:82,1,90,2|0,1:2|0:0,0:0:0:0:
328,32,11625,2,0,L|213:32,1,90,0|0,1:0|0:0,0:0:0:0:
447,262,12086,2,0,P|485:208|427:91,1,180,2|0,1:2|1:0,0:0:0:0:
335,94,12779,1,0,0:0:0:0:
125,86,13010,2,0,L|26:85,1,90,2|0,1:2|0:0,0:0:0:0:
151,88,13471,1,0,1:0:0:0:
273,91,13702,1,0,0:0:0:0:
57,98,13933,6,0,P|41:186|188:280,1,270,2|0,0:0|0:0,0:0:0:0:
299,280,14856,2,0,L|198:280,1,90,2|0,0:0|0:0,0:0:0:0:
335,280,15317,1,2,0:0:0:0:
367,258,15432,1,2,0:0:0:0:
399,223,15547,1,2,0:0:0:0:
101,70,15779,6,0,P|65:116|130:266,1,215.999993408203,6|8,1:2|1:2,0:0:0:0:
255,258,16471,1,2,0:0:0:0:
33,145,16702,2,0,L|26:264,1,107.999996704102,2|0,1:2|0:0,0:0:0:0:
158,64,17163,2,0,L|45:62,1,107.999996704102,8|0,1:2|0:0,0:0:0:0:
348,253,17625,6,0,P|447:237|498:130,1,215.999993408203,2|8,1:2|1:2,0:0:0:0:
377,61,18317,1,2,0:0:0:0:
135,67,18548,2,0,P|161:167|292:209,1,215.999993408203,2|8,1:2|1:2,0:0:0:0:
386,218,19240,5,2,0:0:0:0:
87,232,19471,2,0,P|57:163|79:108,1,107.999996704102,2|0,1:2|0:0,0:0:0:0:
192,82,19933,1,10,1:2:0:0:
308,82,20163,1,2,0:0:0:0:
181,157,20394,2,0,L|160:41,1,107.999996704102,2|0,1:2|0:0,0:0:0:0:
300,232,20856,2,0,L|359:126,1,107.999996704102,10|2,1:2|0:0,0:0:0:0:
50,311,21317,6,0,P|30:257|102:120,1,215.999993408203,2|8,1:2|1:2,0:0:0:0:
216,128,22010,1,2,0:0:0:0:
80,191,22240,2,0,L|58:306,1,107.999996704102,2|0,1:2|0:0,0:0:0:0:
186,335,22702,2,0,L|62:348,1,107.999996704102,8|0,1:2|0:0,0:0:0:0:
381,273,23163,6,0,L|517:274,2,107.999996704102,2|2|10,1:2|0:0|1:2,0:0:0:0:
248,276,23856,1,2,0:0:0:0:
367,191,24086,1,2,1:2:0:0:
250,207,24317,1,2,0:0:0:0:
244,323,24548,1,10,1:2:0:0:
344,377,24779,1,2,0:0:0:0:
41,130,25010,6,0,P|130:89|249:147,2,215.999993408203,2|10|2,1:2|1:2|1:2,0:0:0:0:
161,156,26163,1,0,0:0:0:0:
285,156,26394,2,0,L|422:158,1,107.999996704102,10|2,1:2|0:0,0:0:0:0:
92,316,26856,6,0,L|70:192,1,107.999996704102,6|0,1:2|0:0,0:0:0:0:
205,151,27317,1,12,1:2:0:0:
90,92,27548,1,2,0:0:0:0:
401,17,27779,2,0,L|444:138,1,107.999996704102,2|2,1:2|0:0,0:0:0:0:
316,168,28240,1,12,1:2:0:0:
443,211,28471,1,0,0:0:0:0:
137,336,28702,6,0,L|99:215,1,107.999996704102,2|0,1:2|0:0,0:0:0:0:
222,214,29163,1,12,1:2:0:0:
338,218,29394,1,2,0:0:0:0:
35,220,29625,1,10,0:0:0:0:
26,273,29740,1,8,0:0:0:0:
18,326,29855,1,2,0:0:0:0:
150,171,30086,1,10,0:0:0:0:
20,119,30317,1,10,1:2:0:0:
340,171,30548,6,0,P|456:168|506:69,1,215.999993408203,6|8,1:2|1:2,0:0:0:0:
396,17,31240,1,2,0:0:0:0:
157,23,31471,2,0,L|128:154,1,107.999996704102,2|0,1:2|0:0,0:0:0:0:
264,193,31933,1,8,1:2:0:0:
317,193,32048,1,0,0:0:0:0:
371,193,32163,1,0,0:0:0:0:
71,39,32394,6,0,P|28:127|129:223,1,215.999993408203,2|8,1:2|1:2,0:0:0:0:
220,226,33086,1,2,0:0:0:0:
459,227,33317,2,0,L|491:95,1,107.999996704102,2|0,1:2|0:0,0:0:0:0:
354,43,33779,1,8,1:2:0:0:
480,43,34010,1,2,0:0:0:0:
182,136,34240,6,0,P|109:149|18:27,1,215.999993408203,2|10,1:2|1:2,0:0:0:0:
139,31,34933,1,2,0:0:0:0:
276,43,35163,2,0,L|348:139,1,107.999996704102,2|0,1:2|0:0,0:0:0:0:
234,184,35625,1,10,1:2:0:0:
128,189,35856,1,2,0:0:0:0:
425,267,36086,6,0,P|462:191|337:117,1,215.999993408203,2|8,1:2|1:2,0:0:0:0:
268,111,36779,1,2,0:0:0:0:
127,144,37010,2,0,L|250:145,1,107.999996704102,2|0,1:2|0:0,0:0:0:0:
94,321,37471,2,0,L|45:192,1,107.999996704102,8|2,1:2|0:0,0:0:0:0:
357,231,37933,6,0,L|516:284,2,161.999995056153,6|2|2,1:2|0:0|0:0,0:0:0:0:
122,214,38856,2,0,L|20:138,1,107.999996704102,2|0,1:2|0:0,0:0:0:0:
101,114,39202,1,2,0:0:0:0:
164,118,39317,1,0,0:0:0:0:
38,36,39548,1,2,0:0:0:0:
335,88,39779,6,0,L|507:181,2,161.999995056153,6|2|2,1:2|0:0|0:0,0:0:0:0:
95,47,40702,2,0,P|181:27|295:95,1,215.999993408203,2|8,1:2|1:2,0:0:0:0:
161,131,41394,1,2,0:0:0:0:
460,234,41625,6,0,L|476:106,1,107.999996704102,6|0,1:2|0:0,0:0:0:0:
242,135,42086,2,0,L|220:12,1,107.999996704102,12|2,1:2|0:0,0:0:0:0:
359,18,42548,2,0,L|459:78,1,107.999996704102,2|0,1:2|0:0,0:0:0:0:
149,163,43010,2,0,L|9:163,1,107.999996704102,12|2,1:2|0:0,0:0:0:0:
342,265,43471,6,0,P|407:200|324:90,1,215.999993408203,2|12,1:2|1:2,0:0:0:0:
242,51,44163,1,10,0:0:0:0:
116,109,44394,2,0,L|89:227,1,107.999996704102,10|6,0:0|3:0,0:0:0:0:
326,263,44856,1,10,0:0:0:0:
372,236,44971,1,8,1:2:0:0:
419,209,45086,1,10,1:2:0:0:
119,319,45317,6,0,P|43:238|93:123,1,215.999993408203,6|10,1:2|1:2,0:0:0:0:
189,124,46010,1,2,0:0:0:0:
63,192,46240,2,0,L|41:302,1,107.999996704102,2|0,1:2|0:0,0:0:0:0:
180,192,46702,2,0,L|326:192,1,107.999996704102,10|2,1:2|0:0,0:0:0:0:
54,312,47163,6,0,P|126:272|267:336,1,215.999993408203,0|10,1:0|1:2,0:0:0:0:
377,309,47856,1,0,0:0:0:0:
140,315,48086,1,2,1:2:0:0:
39,313,48317,1,0,0:0:0:0:
39,313,48548,1,10,1:2:0:0:
140,315,48779,1,2,0:0:0:0:
442,330,49010,6,0,L|477:216,1,107.999996704102,0|0,1:0|0:0,0:0:0:0:
333,198,49471,2,0,L|291:62,1,107.999996704102,10|2,1:2|0:0,0:0:0:0:
442,330,49933,2,0,L|477:216,1,107.999996704102,0|2,1:0|0:0,0:0:0:0:
328,195,50394,1,10,1:2:0:0:
382,195,50509,1,2,0:0:0:0:
436,195,50624,1,2,0:0:0:0:
134,186,50856,6,0,L|3:185,2,107.999996704102,0|2|10,1:0|0:0|1:2,0:0:0:0:
264,190,51548,1,2,0:0:0:0:
33,156,51779,2,0,L|23:40,1,107.999996704102,0|2,0:0|0:0,0:0:0:0:
255,35,52240,2,0,L|380:35,1,107.999996704102,10|2,1:2|0:0,0:0:0:0:
58,265,52702,6,0,P|33:187|166:132,1,215.999993408203,6|10,1:2|1:2,0:0:0:0:
267,175,53394,2,0,P|361:188|455:84,1,215.999993408203,2|2,0:0|0:0,0:0:0:0:
317,37,54086,2,0,L|172:37,1,107.999996704102,10|2,1:2|0:0,0:0:0:0:
438,262,54548,6,0,P|484:202|406:95,1,215.999993408203,2|10,1:2|1:2,0:0:0:0:
292,151,55240,1,2,0:0:0:0:
424,165,55471,2,0,L|280:180,1,107.999996704102,2|0,1:2|0:0,0:0:0:0:
186,208,55933,2,0,L|157:333,1,107.999996704102,8|0,1:2|0:0,0:0:0:0:
461,244,56394,6,0,L|406:121,1,107.999996704102,6|0,1:2|0:0,0:0:0:0:
112,105,56856,2,0,L|100:246,1,107.999996704102,14|2,1:2|0:0,0:0:0:0:
246,257,57317,2,0,L|380:255,1,107.999996704102,0|2,1:0|0:0,0:0:0:0:
41,351,57779,2,0,L|37:225,1,107.999996704102,14|2,1:2|0:0,0:0:0:0:
389,264,58240,6,0,P|429:164|348:98,1,215.999993408203,2|14,1:2|1:2,0:0:0:0:
239,76,58933,1,0,0:0:0:0:
474,81,59163,1,10,0:0:0:0:
465,133,59278,1,8,0:0:0:0:
454,186,59393,1,8,0:0:0:0:
324,225,59625,1,14,1:2:0:0:
451,241,59856,1,10,1:2:0:0:
153,268,60086,6,0,P|76:227|30:111,1,215.999993408203,6|8,1:2|1:2,0:0:0:0:
146,49,60779,1,2,0:0:0:0:
376,65,61010,2,0,L|232:65,1,107.999996704102,2|0,1:2|0:0,0:0:0:0:
137,70,61471,2,0,L|82:178,1,107.999996704102,8|0,1:2|0:0,0:0:0:0:
389,308,61933,6,0,P|438:270|359:172,1,215.999993408203,2|8,1:2|1:2,0:0:0:0:
251,189,62625,1,2,0:0:0:0:
16,194,62856,2,0,P|42:114|199:68,1,215.999993408203,2|8,1:2|1:2,0:0:0:0:
34,48,63548,1,2,0:0:0:0:
335,28,63779,6,0,P|424:46|451:199,1,215.999993408203,2|10,1:2|1:2,0:0:0:0:
335,208,64471,1,2,0:0:0:0:
226,107,64702,2,0,L|206:1,1,107.999996704102,2|0,1:2|0:0,0:0:0:0:
335,208,65163,2,0,L|358:102,1,107.999996704102,10|2,1:2|0:0,0:0:0:0:
55,41,65625,6,0,P|16:109|121:204,1,215.999993408203,2|8,1:2|1:2,0:0:0:0:
201,207,66317,1,2,0:0:0:0:
331,202,66548,2,0,P|225:139|95:164,1,215.999993408203,2|8,1:2|1:2,0:0:0:0:
17,204,67240,1,2,0:0:0:0:
327,230,67471,6,0,L|481:281,2,161.999995056153,6|2|2,1:2|0:0|0:0,0:0:0:0:
92,213,68394,2,0,L|15:124,1,107.999996704102,2|0,1:2|0:0,0:0:0:0:
82,112,68740,1,2,0:0:0:0:
142,102,68855,1,0,0:0:0:0:
16,33,69086,1,2,0:0:0:0:
316,93,69317,6,0,L|459:170,2,161.999995056153,6|2|2,1:2|0:0|0:0,0:0:0:0:
78,53,70240,2,0,P|171:27|263:97,1,215.999993408203,2|8,1:2|1:2,0:0:0:0:
129,123,70933,1,2,0:0:0:0:
427,236,71163,6,0,L|448:100,1,107.999996704102,6|0,1:2|0:0,0:0:0:0:
143,130,71625,2,0,L|114:4,1,107.999996704102,12|2,1:2|0:0,0:0:0:0:
244,8,72086,2,0,L|359:8,1,107.999996704102,0|2,1:0|0:0,0:0:0:0:
51,264,72548,2,0,L|40:136,1,107.999996704102,12|2,1:2|0:0,0:0:0:0:
343,33,73010,6,0,P|446:64|473:201,1,215.999993408203,2|12,1:2|1:2,0:0:0:0:
364,209,73702,1,2,0:0:0:0:
136,211,73933,1,10,0:0:0:0:
122,159,74048,1,8,0:0:0:0:
107,107,74163,1,2,0:0:0:0:
413,119,74394,1,10,0:0:0:0:
458,27,74625,1,10,1:2:0:0:
144,28,74856,5,6,1:2:0:0:
256,192,75086,12,2,78548,0:0:0:0:
