osu file format v14

[General]
AudioFilename: audio.mp3
AudioLeadIn: 0
PreviewTime: 14510
Countdown: 0
SampleSet: Soft
StackLeniency: 0.7
Mode: 2
LetterboxInBreaks: 0
WidescreenStoryboard: 1

[Editor]
DistanceSpacing: 1.1
BeatDivisor: 4
GridSize: 32
TimelineZoom: 2.4

[Metadata]
Title:Yesterday (Movie ver.)
TitleUnicode:イエスタデイ (Movie ver.)
Artist:Official HIGE DANdism
ArtistUnicode:Official髭男dism
Creator:Nokashi
Version:Cup
Source:HELLO WORLD
Tags:HIGEDAN Traveler ハロー・ワールド OST Original Soundtrack 楢崎誠 小笹大輔 藤原聡 松浦匡希 Satoshi Fujihara Daisuke Ozasa Makoto Narazaki Masaki Matsuura Koichi Tsutaya 直実告白、両想いに キス! オフィシャルヒゲダンディズム short version size pop anime japanese jpop j-pop gokugohan12468 traveller
BeatmapID:2663327
BeatmapSetID:1282124

[Difficulty]
HPDrainRate:3
CircleSize:2.5
OverallDifficulty:5.8
ApproachRate:5.8
SliderMultiplier:1.8
SliderTickRate:1

[Events]
//Background and Video events
0,0,"background.jpg",0,0
//Break Periods
//Storyboard Layer 0 (Background)
//Storyboard Layer 1 (Fail)
//Storyboard Layer 2 (Pass)
//Storyboard Layer 3 (Foreground)
//Storyboard Layer 4 (Overlay)
//Storyboard Sound Samples

[TimingPoints]
490,461.538461538462,4,2,1,60,1,0
1010,461.538461538462,4,2,1,60,1,0
1010,-100,4,2,1,60,0,0
15779,-90.9090909090909,4,2,1,70,0,1
16240,-90.9090909090909,4,2,1,70,0,0
30548,-90.9090909090909,4,2,1,70,0,1
31010,-90.9090909090909,4,2,1,70,0,0
37933,-90.9090909090909,4,2,1,75,0,0
43933,-90.9090909090909,4,2,1,80,0,0
45317,-90.9090909090909,4,2,1,75,0,1
45779,-90.9090909090909,4,2,1,75,0,0
46240,-90.9090909090909,4,2,1,75,0,0
48086,-90.9090909090909,4,2,1,75,0,0
60086,-90.9090909090909,4,2,1,70,0,1
60548,-90.9090909090909,4,2,1,70,0,0
67471,-90.9090909090909,4,2,1,75,0,0
73010,-90.9090909090909,4,2,1,80,0,0
74856,-100,4,2,1,60,0,1
75317,-100,4,2,1,60,0,0

[Colours]
Combo1 : 255,62,62
Combo2 : 255,128,64
Combo3 : 255,255,128

[HitObjects]
133,75,1010,6,0,P|45:214|208:321,1,360,2|0,0:0|0:0,0:0:0:0:
349,324,2394,1,2,0:0:0:0:
151,326,2856,2,0,P|87:200|197:134,1,270,2|0,0:0|0:0,0:0:0:0:
270,33,3779,2,0,L|73:33,1,180,2|2,0:0|0:0,0:0:0:0:
294,103,4702,6,0,P|405:170|319:365,1,360,2|2,0:0|0:0,0:0:0:0:
228,364,5856,2,0,L|94:364,2,135,2|2|2,0:0|0:0|0:0,0:0:0:0:
404,347,7010,1,0,0:0:0:0:
217,327,7471,2,0,P|144:289|139:191,1,180,2|2,0:0|0:0,0:0:0:0:
329,205,8394,6,0,P|425:202|502:136,2,180,2|0|2,1:2|1:0|1:2,0:0:0:0:
149,162,9779,1,0,1:0:0:0:
339,63,10240,2,0,P|435:112|472:214,1,180,2|0,1:2|1:0,0:0:0:0:
265,288,11163,2,0,P|176:288|99:230,1,180,2|0,1:2|1:0,0:0:0:0:
284,287,12086,6,0,L|466:288,1,180,2|0,1:2|1:0,0:0:0:0:
265,288,13010,1,2,1:2:0:0:
78,282,13471,1,0,1:0:0:0:
280,128,13933,2,0,P|385:144|386:385,1,360,2|2,0:0|0:0,0:0:0:0:
213,289,15317,1,2,0:0:0:0:
432,184,15779,6,0,P|290:168|181:51,1,297.000009063721,6|2,1:2|0:0,0:0:0:0:
102,88,16702,1,2,1:2:0:0:
319,91,17163,1,8,1:2:0:0:
102,88,17625,6,0,P|239:148|379:103,1,297.000009063721,2|2,1:2|0:0,0:0:0:0:
453,41,18548,1,2,1:2:0:0:
254,42,19010,1,8,1:2:0:0:
472,91,19471,6,0,L|249:91,1,198.000006042481,2|10,1:2|1:2,0:0:0:0:
182,92,20163,1,2,0:0:0:0:
274,90,20394,2,0,P|375:109|452:195,1,198.000006042481,2|10,1:2|1:2,0:0:0:0:
224,324,21317,6,0,P|92:261|143:134,1,297.000009063721,2|2,1:2|0:0,0:0:0:0:
239,125,22240,1,2,1:2:0:0:
40,127,22702,1,8,1:2:0:0:
258,128,23163,5,2,1:2:0:0:
327,130,23394,1,2,0:0:0:0:
406,132,23625,1,10,1:2:0:0:
211,130,24086,2,0,L|25:59,1,198.000006042481,2|10,1:2|1:2,0:0:0:0:
211,130,25010,5,2,1:2:0:0:
409,130,25471,2,0,L|225:43,2,198.000006042481,10|2|10,1:2|1:2|1:2,0:0:0:0:
211,314,26856,6,0,P|123:223|221:112,1,297.000009063721,6|2,1:2|0:0,0:0:0:0:
315,113,27779,1,2,1:2:0:0:
117,113,28240,1,12,1:2:0:0:
336,114,28702,6,0,P|420:135|481:234,1,198.000006042481,2|12,1:2|1:2,0:0:0:0:
282,292,29625,1,10,0:0:0:0:
213,294,29856,1,2,0:0:0:0:
144,296,30086,1,10,0:0:0:0:
363,290,30548,6,0,P|424:191|319:44,1,297.000009063721,6|2,1:2|0:0,0:0:0:0:
250,32,31471,1,2,1:2:0:0:
449,38,31933,1,8,1:2:0:0:
241,42,32394,6,0,P|139:59|64:248,1,297.000009063721,2|2,1:2|0:0,0:0:0:0:
147,234,33317,1,2,1:2:0:0:
337,230,33779,1,8,1:2:0:0:
127,225,34240,6,0,P|241:170|379:215,1,198.000006042481,2|10,1:2|1:2,0:0:0:0:
219,298,34933,1,2,0:0:0:0:
125,38,35163,2,0,P|219:67|357:31,1,198.000006042481,2|10,1:2|1:2,0:0:0:0:
119,295,36086,6,0,P|55:214|146:56,1,297.000009063721,2|2,1:2|0:0,0:0:0:0:
235,50,37010,1,2,1:2:0:0:
38,56,37471,1,8,1:2:0:0:
256,68,37933,6,0,P|176:75|100:26,2,148.50000453186,6|2|2,1:2|0:0|0:0,0:0:0:0:
351,63,38856,2,0,L|507:63,1,148.50000453186,2|2,1:2|0:0,0:0:0:0:
352,159,39548,1,2,0:0:0:0:
253,162,39779,6,0,P|183:162|112:72,2,148.50000453186,6|2|2,1:2|0:0|0:0,0:0:0:0:
352,165,40702,1,2,1:2:0:0:
154,166,41163,1,8,1:2:0:0:
253,168,41394,1,2,0:0:0:0:
352,165,41625,6,0,P|399:155|434:-1,1,198.000006042481,6|12,1:2|1:2,0:0:0:0:
238,29,42548,1,2,1:2:0:0:
441,33,43010,1,12,1:2:0:0:
235,42,43471,6,0,P|144:75|111:169,1,198.000006042481,2|12,1:2|1:2,0:0:0:0:
190,166,44163,1,10,0:0:0:0:
269,166,44394,1,10,0:0:0:0:
70,98,44856,1,10,0:0:0:0:
275,90,45317,6,0,P|391:114|496:278,1,297.000009063721,6|2,1:2|0:0,0:0:0:0:
393,330,46240,2,0,L|186:330,1,198.000006042481,2|10,1:2|1:2,0:0:0:0:
394,62,47163,6,0,P|475:133|427:222,1,198.000006042481,0|10,1:0|1:2,0:0:0:0:
252,190,48086,1,2,1:2:0:0:
450,192,48548,1,10,1:2:0:0:
252,190,49010,6,0,P|153:184|110:90,2,198.000006042481,0|10|0,1:0|1:2|1:0,0:0:0:0:
450,185,50394,1,10,1:2:0:0:
252,88,50856,6,0,P|151:85|63:129,1,198.000006042481,0|10,1:0|1:2,0:0:0:0:
144,131,51548,1,2,0:0:0:0:
223,135,51779,1,0,0:0:0:0:
420,132,52240,1,10,1:2:0:0:
221,53,52702,6,0,P|119:85|77:183,1,198.000006042481,6|10,1:2|1:2,0:0:0:0:
158,199,53394,1,2,0:0:0:0:
357,130,53856,1,2,0:0:0:0:
436,131,54086,1,10,1:2:0:0:
237,99,54548,6,0,P|131:107|71:46,2,198.000006042481,2|10|2,1:2|1:2|1:2,0:0:0:0:
436,44,55933,1,8,1:2:0:0:
223,37,56394,5,6,1:2:0:0:
436,44,56856,2,0,P|496:115|451:199,1,198.000006042481,14|0,1:2|1:0,0:0:0:0:
255,228,57779,1,14,1:2:0:0:
433,231,58240,5,2,1:2:0:0:
219,224,58702,2,0,P|114:231|32:167,1,198.000006042481,14|10,1:2|0:0,0:0:0:0:
122,168,59394,1,8,0:0:0:0:
201,170,59625,1,14,1:2:0:0:
409,66,60086,6,0,P|324:54|156:193,1,297.000009063721,6|2,1:2|0:0,0:0:0:0:
253,185,61010,1,2,1:2:0:0:
56,179,61471,1,8,1:2:0:0:
274,215,61933,6,0,P|361:229|517:91,1,297.000009063721,2|2,1:2|0:0,0:0:0:0:
434,50,62856,1,2,1:2:0:0:
236,50,63317,1,8,1:2:0:0:
445,60,63779,6,0,P|375:99|237:67,1,198.000006042481,2|10,1:2|1:2,0:0:0:0:
341,41,64471,1,2,0:0:0:0:
420,87,64702,2,0,P|460:172|388:249,1,198.000006042481,2|10,1:2|1:2,0:0:0:0:
199,156,65625,6,0,P|328:107|463:185,1,297.000009063721,2|2,1:2|0:0,0:0:0:0:
379,183,66548,1,2,1:2:0:0:
227,174,67010,1,8,1:2:0:0:
22,173,67471,6,0,P|99:177|181:124,2,148.50000453186,6|2|2,1:2|0:0|0:0,0:0:0:0:
121,175,68394,2,0,P|217:178|274:140,1,148.50000453186,2|2,1:2|0:0,0:0:0:0:
423,48,69086,1,2,0:0:0:0:
324,46,69317,6,0,P|246:45|174:3,2,148.50000453186,6|2|2,1:2|0:0|0:0,0:0:0:0:
427,48,70240,1,2,1:2:0:0:
226,49,70702,1,8,1:2:0:0:
434,56,71163,6,0,P|451:142|362:220,1,198.000006042481,6|12,1:2|1:2,0:0:0:0:
203,221,72086,1,0,1:0:0:0:
16,219,72548,1,12,1:2:0:0:
218,221,73010,6,0,P|322:219|395:133,1,198.000006042481,2|12,1:2|1:2,0:0:0:0:
187,72,73933,1,10,0:0:0:0:
118,73,74163,1,2,0:0:0:0:
49,72,74394,1,10,0:0:0:0:
266,78,74856,5,6,1:2:0:0:
256,192,75317,12,2,78548,0:0:0:0:
