osu file format v14

[General]
AudioFilename: audio.mp3
AudioLeadIn: 0
PreviewTime: 161672
Countdown: 0
SampleSet: Soft
StackLeniency: 0.7
Mode: 3
LetterboxInBreaks: 0
SpecialStyle: 0
WidescreenStoryboard: 1

[Editor]
DistanceSpacing: 0.7
BeatDivisor: 4
GridSize: 4
TimelineZoom: 1.700005

[Metadata]
Title:White Noise
TitleUnicode:ホワイトノイズ
Artist:Official HIGE DANdism
ArtistUnicode:Official髭男dism
Creator:Virtue-
Version:Hero
Source:東京リベンジャーズ 聖夜決戦編
Tags:higedan 楢崎誠 小笹大輔 藤原聡 松浦匡希 satoshi fujihara daisuke ozasa makoto narazaki masaki matsuura tokyo revengers seiya kessen-hen christmas showdown arc holy night decisive battle edition rock jrock j-rock pop j-pop jpop japanese anime manji 卍 gang 東京卍會 manji-kai manji kai toman op opening
BeatmapID:4078281
BeatmapSetID:1966714

[Difficulty]
HPDrainRate:8
CircleSize:4
OverallDifficulty:8
ApproachRate:5
SliderMultiplier:1.4
SliderTickRate:1

[Events]
//Background and Video events
0,0,"wallbgwhitenoise.jpg",0,0
//Break Periods
//Storyboard Layer 0 (Background)
//Storyboard Layer 1 (Fail)
//Storyboard Layer 2 (Pass)
//Storyboard Layer 3 (Foreground)
//Storyboard Layer 4 (Overlay)
//Storyboard Sound Samples

[TimingPoints]
548,419.58041958042,4,2,1,60,1,0
548,-100,4,2,1,60,0,0
5006,419.58041958042,4,2,1,60,1,0
5006,-100,4,2,1,60,0,0
7313,419.58041958042,4,2,1,60,1,0
7313,-100,4,2,1,60,0,0
71089,-100,4,2,1,60,0,1
97942,-100,4,2,1,60,0,0
128152,-100,4,2,1,60,0,1
155005,-100,4,2,1,60,0,0
160006,416.666666666667,4,2,1,60,1,0
160006,-101.010101010101,4,2,1,60,0,0
185006,-100,4,2,1,60,0,1
198339,-100,4,2,1,60,0,0
225006,428.571428571429,4,2,1,60,1,0
225006,-98.0392156862745,4,2,1,60,0,0
225863,444.444444444445,4,2,1,60,1,0
225863,-94.3396226415094,4,2,1,60,0,0
226751,461.538461538462,4,2,1,60,1,0
226751,-90.9090909090909,4,2,1,60,0,0
227674,500,4,2,1,60,1,0
227674,-84.0336134453782,4,2,1,60,0,0
228674,444.444444444445,4,2,1,60,1,0
228674,-94.3396226415094,4,2,1,60,0,0
230451,500,4,2,1,60,1,0
230451,-84.0336134453782,4,2,1,60,0,0
231451,571.428571428572,4,2,1,60,1,0
231451,-73.5294117647059,4,2,1,60,0,0
232593,579.710144927537,4,2,1,60,1,0
232593,-72.463768115942,4,2,1,60,0,0
237230,923.076923076923,4,2,1,60,1,0
237230,-45.4545454545455,4,2,1,60,0,0

[HitObjects]
64,192,548,128,0,652:0:0:0:0:
64,192,757,128,0,862:0:0:0:0:
64,192,967,128,0,1177:0:0:0:0:
448,192,1177,128,0,1596:0:0:0:0:
320,192,1596,128,0,1806:0:0:0:0:
192,192,1806,128,0,2016:0:0:0:0:
320,192,2016,128,0,2226:0:0:0:0:
192,192,2226,128,0,2436:0:0:0:0:
64,192,2436,128,0,2855:0:0:0:0:
192,192,2855,128,0,3065:0:0:0:0:
320,192,3065,128,0,3275:0:0:0:0:
192,192,3275,128,0,3485:0:0:0:0:
320,192,3485,128,0,3694:0:0:0:0:
448,192,3694,128,0,3904:0:0:0:0:
64,192,3904,128,0,6894:0:0:0:0:
192,192,3904,128,0,4009:0:0:0:0:
192,192,4114,128,0,4219:0:0:0:0:
192,192,4324,128,0,4534:0:0:0:0:
448,192,4534,128,0,5006:0:0:0:0:
320,192,5006,128,0,5215:0:0:0:0:
192,192,5215,128,0,5425:0:0:0:0:
320,192,5425,128,0,5635:0:0:0:0:
448,192,5635,128,0,5845:0:0:0:0:
192,192,5845,128,0,6264:0:0:0:0:
320,192,6264,128,0,6474:0:0:0:0:
448,192,6474,128,0,6684:0:0:0:0:
320,192,6684,128,0,6894:0:0:0:0:
192,192,6894,128,0,7313:0:0:0:0:
64,192,7313,1,0,0:0:0:0:
320,192,7313,1,0,0:0:0:0:
448,192,7313,1,0,0:0:0:0:
320,192,7522,1,0,0:0:0:0:
192,192,7522,1,0,0:0:0:0:
192,192,7732,1,0,0:0:0:0:
64,192,7732,1,0,0:0:0:0:
448,192,7732,1,0,0:0:0:0:
320,192,7942,1,0,0:0:0:0:
448,192,8152,1,0,0:0:0:0:
64,192,8152,128,0,8257:0:0:0:0:
192,192,8257,128,0,8361:0:0:0:0:
448,192,8361,1,0,0:0:0:0:
320,192,8361,128,0,8466:0:0:0:0:
192,192,8466,128,0,8571:0:0:0:0:
64,192,8571,1,0,0:0:0:0:
448,192,8571,1,0,0:0:0:0:
320,192,8571,128,0,8676:0:0:0:0:
192,192,8676,128,0,8781:0:0:0:0:
320,192,8781,128,0,8886:0:0:0:0:
448,192,8886,128,0,8991:0:0:0:0:
192,192,8991,1,0,0:0:0:0:
64,192,8991,128,0,9620:0:0:0:0:
320,192,9201,1,0,0:0:0:0:
448,192,9201,1,0,0:0:0:0:
320,192,9410,1,0,0:0:0:0:
192,192,9410,1,0,0:0:0:0:
448,192,9410,1,0,0:0:0:0:
192,192,9620,128,0,9725:0:0:0:0:
320,192,9725,128,0,9830:0:0:0:0:
192,192,9830,128,0,9935:0:0:0:0:
64,192,9830,1,0,0:0:0:0:
320,192,9935,128,0,10040:0:0:0:0:
448,192,10040,128,0,10459:0:0:0:0:
192,192,10040,1,0,0:0:0:0:
192,192,10250,1,0,0:0:0:0:
64,192,10250,1,0,0:0:0:0:
320,192,10250,1,0,0:0:0:0:
64,192,10459,128,0,10669:0:0:0:0:
320,192,10669,1,0,0:0:0:0:
448,192,10669,1,0,0:0:0:0:
192,192,10879,1,0,0:0:0:0:
64,192,10879,1,0,0:0:0:0:
64,192,11089,1,0,0:0:0:0:
320,192,11089,1,0,0:0:0:0:
448,192,11089,1,0,0:0:0:0:
192,192,11299,128,0,11403:0:0:0:0:
320,192,11403,128,0,11508:0:0:0:0:
192,192,11508,128,0,11613:0:0:0:0:
448,192,11508,1,0,0:0:0:0:
64,192,11613,128,0,11718:0:0:0:0:
448,192,11718,128,0,12243:0:0:0:0:
192,192,11718,1,0,0:0:0:0:
64,192,11928,1,0,0:0:0:0:
192,192,11928,1,0,0:0:0:0:
320,192,11928,1,0,0:0:0:0:
320,192,12138,128,0,12243:0:0:0:0:
192,192,12347,128,0,12872:0:0:0:0:
448,192,12347,1,0,0:0:0:0:
320,192,12557,1,0,0:0:0:0:
64,192,12557,1,0,0:0:0:0:
64,192,12767,128,0,12872:0:0:0:0:
448,192,12767,1,0,0:0:0:0:
320,192,12767,1,0,0:0:0:0:
448,192,12977,128,0,13396:0:0:0:0:
64,192,13187,1,0,0:0:0:0:
192,192,13187,1,0,0:0:0:0:
320,192,13396,128,0,13501:0:0:0:0:
64,192,13396,1,0,0:0:0:0:
192,192,13501,128,0,13606:0:0:0:0:
64,192,13606,128,0,13816:0:0:0:0:
448,192,13606,1,0,0:0:0:0:
320,192,13606,1,0,0:0:0:0:
192,192,13816,1,0,0:0:0:0:
320,192,13816,1,0,0:0:0:0:
64,192,14026,1,0,0:0:0:0:
192,192,14026,1,0,0:0:0:0:
448,192,14026,1,0,0:0:0:0:
320,192,14236,1,0,0:0:0:0:
448,192,14236,1,0,0:0:0:0:
192,192,14445,1,0,0:0:0:0:
320,192,14445,1,0,0:0:0:0:
64,192,14445,1,0,0:0:0:0:
448,192,14655,1,0,0:0:0:0:
64,192,14865,1,0,0:0:0:0:
192,192,14865,128,0,14970:0:0:0:0:
320,192,14970,128,0,15075:0:0:0:0:
448,192,15075,1,0,0:0:0:0:
64,192,15075,128,0,15180:0:0:0:0:
192,192,15180,128,0,15285:0:0:0:0:
448,192,15285,1,0,0:0:0:0:
64,192,15285,1,0,0:0:0:0:
320,192,15285,128,0,15389:0:0:0:0:
192,192,15389,128,0,15494:0:0:0:0:
320,192,15494,128,0,15599:0:0:0:0:
448,192,15599,128,0,15704:0:0:0:0:
64,192,15704,128,0,16333:0:0:0:0:
192,192,15704,1,0,0:0:0:0:
320,192,15914,1,0,0:0:0:0:
448,192,15914,1,0,0:0:0:0:
192,192,16124,1,0,0:0:0:0:
448,192,16124,1,0,0:0:0:0:
320,192,16124,1,0,0:0:0:0:
448,192,16333,128,0,16438:0:0:0:0:
320,192,16438,128,0,16543:0:0:0:0:
192,192,16543,128,0,16648:0:0:0:0:
448,192,16543,1,0,0:0:0:0:
64,192,16648,128,0,16753:0:0:0:0:
448,192,16753,128,0,17173:0:0:0:0:
320,192,16753,1,0,0:0:0:0:
192,192,16963,1,0,0:0:0:0:
64,192,16963,1,0,0:0:0:0:
320,192,16963,1,0,0:0:0:0:
64,192,17173,128,0,17382:0:0:0:0:
320,192,17382,1,0,0:0:0:0:
448,192,17382,1,0,0:0:0:0:
192,192,17592,1,0,0:0:0:0:
64,192,17592,1,0,0:0:0:0:
64,192,17802,1,0,0:0:0:0:
320,192,17802,1,0,0:0:0:0:
448,192,17802,1,0,0:0:0:0:
192,192,18012,128,0,18117:0:0:0:0:
320,192,18117,128,0,18222:0:0:0:0:
448,192,18222,1,0,0:0:0:0:
64,192,18222,128,0,18326:0:0:0:0:
192,192,18326,128,0,18431:0:0:0:0:
448,192,18431,1,0,0:0:0:0:
64,192,18431,1,0,0:0:0:0:
320,192,18431,128,0,18956:0:0:0:0:
192,192,18641,1,0,0:0:0:0:
64,192,18641,1,0,0:0:0:0:
448,192,18641,1,0,0:0:0:0:
192,192,18851,128,0,18956:0:0:0:0:
64,192,19061,128,0,19585:0:0:0:0:
320,192,19061,1,0,0:0:0:0:
192,192,19271,1,0,0:0:0:0:
448,192,19271,1,0,0:0:0:0:
448,192,19480,128,0,19585:0:0:0:0:
320,192,19480,1,0,0:0:0:0:
192,192,19480,1,0,0:0:0:0:
320,192,19690,128,0,20110:0:0:0:0:
64,192,19900,1,0,0:0:0:0:
192,192,19900,1,0,0:0:0:0:
192,192,20110,128,0,20215:0:0:0:0:
448,192,20110,1,0,0:0:0:0:
64,192,20215,128,0,20319:0:0:0:0:
192,192,20319,128,0,20424:0:0:0:0:
448,192,20319,1,0,0:0:0:0:
320,192,20424,128,0,20529:0:0:0:0:
192,192,20529,128,0,20634:0:0:0:0:
64,192,20529,1,0,0:0:0:0:
320,192,20634,128,0,20739:0:0:0:0:
448,192,20739,128,0,20844:0:0:0:0:
192,192,20739,1,0,0:0:0:0:
64,192,20739,1,0,0:0:0:0:
320,192,20949,128,0,21054:0:0:0:0:
192,192,20949,1,0,0:0:0:0:
64,192,21159,128,0,22417:0:0:0:0:
192,192,21159,1,0,0:0:0:0:
448,192,21159,1,0,0:0:0:0:
320,192,21368,1,0,0:0:0:0:
192,192,21578,1,0,0:0:0:0:
448,192,21578,1,0,0:0:0:0:
320,192,21788,1,0,0:0:0:0:
448,192,21788,1,0,0:0:0:0:
448,192,21998,1,0,0:0:0:0:
320,192,21998,1,0,0:0:0:0:
192,192,21998,1,0,0:0:0:0:
192,192,22208,1,0,0:0:0:0:
320,192,22417,1,0,0:0:0:0:
448,192,22417,1,0,0:0:0:0:
64,192,22627,1,0,0:0:0:0:
192,192,22627,128,0,22732:0:0:0:0:
64,192,22837,1,0,0:0:0:0:
448,192,22837,1,0,0:0:0:0:
320,192,22837,128,0,22942:0:0:0:0:
448,192,23047,128,0,23152:0:0:0:0:
320,192,23257,128,0,23361:0:0:0:0:
64,192,23257,1,0,0:0:0:0:
192,192,23466,128,0,23571:0:0:0:0:
448,192,23466,1,0,0:0:0:0:
64,192,23676,128,0,23781:0:0:0:0:
320,192,23676,1,0,0:0:0:0:
448,192,23676,1,0,0:0:0:0:
192,192,23886,128,0,23991:0:0:0:0:
320,192,24096,128,0,24620:0:0:0:0:
64,192,24096,1,0,0:0:0:0:
192,192,24306,1,0,0:0:0:0:
64,192,24306,1,0,0:0:0:0:
64,192,24515,1,0,0:0:0:0:
448,192,24515,1,0,0:0:0:0:
192,192,24515,1,0,0:0:0:0:
192,192,24725,128,0,25250:0:0:0:0:
64,192,24935,128,0,25250:0:0:0:0:
448,192,24935,1,0,0:0:0:0:
320,192,25145,1,0,0:0:0:0:
448,192,25145,1,0,0:0:0:0:
192,192,25354,1,0,0:0:0:0:
320,192,25354,1,0,0:0:0:0:
64,192,25354,1,0,0:0:0:0:
448,192,25564,128,0,26089:0:0:0:0:
320,192,25774,128,0,26089:0:0:0:0:
64,192,25774,1,0,0:0:0:0:
192,192,25984,1,0,0:0:0:0:
64,192,25984,1,0,0:0:0:0:
192,192,26194,1,0,0:0:0:0:
448,192,26194,1,0,0:0:0:0:
320,192,26194,1,0,0:0:0:0:
64,192,26403,1,0,0:0:0:0:
448,192,26613,1,0,0:0:0:0:
320,192,26613,128,0,26928:0:0:0:0:
192,192,26823,1,0,0:0:0:0:
64,192,26823,1,0,0:0:0:0:
192,192,27033,128,0,27138:0:0:0:0:
320,192,27033,1,0,0:0:0:0:
448,192,27033,1,0,0:0:0:0:
64,192,27243,128,0,27347:0:0:0:0:
192,192,27452,128,0,27767:0:0:0:0:
448,192,27452,1,0,0:0:0:0:
320,192,27662,1,0,0:0:0:0:
448,192,27662,1,0,0:0:0:0:
320,192,27872,128,0,28187:0:0:0:0:
192,192,27872,1,0,0:0:0:0:
64,192,27872,1,0,0:0:0:0:
448,192,28082,1,0,0:0:0:0:
64,192,28187,128,0,28606:0:0:0:0:
192,192,28292,128,0,28606:0:0:0:0:
448,192,28292,1,0,0:0:0:0:
320,192,28501,1,0,0:0:0:0:
448,192,28501,1,0,0:0:0:0:
320,192,28711,128,0,28816:0:0:0:0:
192,192,28711,1,0,0:0:0:0:
64,192,28711,1,0,0:0:0:0:
448,192,28921,128,0,29026:0:0:0:0:
64,192,29131,128,0,29445:0:0:0:0:
448,192,29131,1,0,0:0:0:0:
320,192,29340,1,0,0:0:0:0:
192,192,29340,1,0,0:0:0:0:
64,192,29550,1,0,0:0:0:0:
192,192,29550,1,0,0:0:0:0:
448,192,29550,1,0,0:0:0:0:
320,192,29760,1,0,0:0:0:0:
192,192,29970,128,0,30285:0:0:0:0:
448,192,29970,1,0,0:0:0:0:
320,192,30180,1,0,0:0:0:0:
448,192,30180,1,0,0:0:0:0:
320,192,30389,128,0,30494:0:0:0:0:
192,192,30389,1,0,0:0:0:0:
64,192,30389,1,0,0:0:0:0:
448,192,30599,128,0,31124:0:0:0:0:
64,192,30809,128,0,31124:0:0:0:0:
192,192,30809,1,0,0:0:0:0:
320,192,31019,1,0,0:0:0:0:
192,192,31229,128,0,31543:0:0:0:0:
448,192,31229,1,0,0:0:0:0:
64,192,31229,1,0,0:0:0:0:
320,192,31438,1,0,0:0:0:0:
320,192,31648,128,0,31963:0:0:0:0:
64,192,31648,1,0,0:0:0:0:
192,192,31858,1,0,0:0:0:0:
64,192,31858,1,0,0:0:0:0:
448,192,32068,128,0,32173:0:0:0:0:
320,192,32068,1,0,0:0:0:0:
192,192,32068,1,0,0:0:0:0:
448,192,32278,128,0,32382:0:0:0:0:
64,192,32487,128,0,33326:0:0:0:0:
448,192,32487,1,0,0:0:0:0:
192,192,32697,1,0,0:0:0:0:
320,192,32697,1,0,0:0:0:0:
320,192,32907,1,0,0:0:0:0:
448,192,32907,1,0,0:0:0:0:
192,192,32907,1,0,0:0:0:0:
448,192,33117,1,0,0:0:0:0:
192,192,33326,1,0,0:0:0:0:
320,192,33326,1,0,0:0:0:0:
64,192,33536,1,0,0:0:0:0:
448,192,33536,1,0,0:0:0:0:
192,192,33746,1,0,0:0:0:0:
320,192,33746,1,0,0:0:0:0:
448,192,33746,1,0,0:0:0:0:
192,192,33956,1,0,0:0:0:0:
64,192,33956,1,0,0:0:0:0:
448,192,34166,1,0,0:0:0:0:
320,192,34166,128,0,34271:0:0:0:0:
192,192,34375,128,0,34480:0:0:0:0:
320,192,34375,1,0,0:0:0:0:
64,192,34585,128,0,35844:0:0:0:0:
192,192,34585,1,0,0:0:0:0:
448,192,34585,1,0,0:0:0:0:
320,192,34795,1,0,0:0:0:0:
192,192,35005,1,0,0:0:0:0:
448,192,35005,1,0,0:0:0:0:
320,192,35215,1,0,0:0:0:0:
448,192,35215,1,0,0:0:0:0:
320,192,35424,1,0,0:0:0:0:
192,192,35424,1,0,0:0:0:0:
448,192,35424,1,0,0:0:0:0:
192,192,35634,1,0,0:0:0:0:
320,192,35844,1,0,0:0:0:0:
448,192,35844,1,0,0:0:0:0:
448,192,36054,128,0,36683:0:0:0:0:
64,192,36054,1,0,0:0:0:0:
192,192,36264,1,0,0:0:0:0:
64,192,36264,1,0,0:0:0:0:
320,192,36264,1,0,0:0:0:0:
320,192,36473,128,0,36683:0:0:0:0:
64,192,36683,128,0,36788:0:0:0:0:
192,192,36683,1,0,0:0:0:0:
192,192,36893,128,0,36998:0:0:0:0:
448,192,36893,1,0,0:0:0:0:
320,192,37103,128,0,37208:0:0:0:0:
64,192,37103,1,0,0:0:0:0:
192,192,37103,1,0,0:0:0:0:
448,192,37313,128,0,37417:0:0:0:0:
64,192,37522,128,0,38047:0:0:0:0:
448,192,37522,1,0,0:0:0:0:
192,192,37732,1,0,0:0:0:0:
320,192,37732,1,0,0:0:0:0:
320,192,37942,1,0,0:0:0:0:
448,192,37942,1,0,0:0:0:0:
192,192,37942,1,0,0:0:0:0:
448,192,38152,128,0,38676:0:0:0:0:
320,192,38361,128,0,38676:0:0:0:0:
64,192,38361,1,0,0:0:0:0:
192,192,38571,1,0,0:0:0:0:
64,192,38571,1,0,0:0:0:0:
192,192,38781,1,0,0:0:0:0:
320,192,38781,1,0,0:0:0:0:
448,192,38781,1,0,0:0:0:0:
448,192,38991,128,0,39515:0:0:0:0:
64,192,39201,128,0,39515:0:0:0:0:
192,192,39201,1,0,0:0:0:0:
192,192,39410,1,0,0:0:0:0:
320,192,39410,1,0,0:0:0:0:
320,192,39620,1,0,0:0:0:0:
448,192,39620,1,0,0:0:0:0:
64,192,39620,1,0,0:0:0:0:
192,192,39830,128,0,40354:0:0:0:0:
64,192,40040,128,0,40354:0:0:0:0:
448,192,40040,1,0,0:0:0:0:
448,192,40250,1,0,0:0:0:0:
320,192,40250,1,0,0:0:0:0:
320,192,40459,128,0,40774:0:0:0:0:
64,192,40459,1,0,0:0:0:0:
192,192,40459,1,0,0:0:0:0:
64,192,40669,1,0,0:0:0:0:
448,192,40669,1,0,0:0:0:0:
448,192,40879,128,0,41403:0:0:0:0:
192,192,40879,1,0,0:0:0:0:
320,192,40879,1,0,0:0:0:0:
192,192,41089,1,0,0:0:0:0:
64,192,41089,1,0,0:0:0:0:
64,192,41299,1,0,0:0:0:0:
192,192,41299,1,0,0:0:0:0:
320,192,41299,1,0,0:0:0:0:
64,192,41508,128,0,41718:0:0:0:0:
448,192,41718,1,0,0:0:0:0:
320,192,41718,128,0,41823:0:0:0:0:
192,192,41823,128,0,41928:0:0:0:0:
64,192,41928,1,0,0:0:0:0:
448,192,41928,128,0,42033:0:0:0:0:
320,192,42033,128,0,42138:0:0:0:0:
64,192,42138,1,0,0:0:0:0:
448,192,42138,1,0,0:0:0:0:
192,192,42138,128,0,42243:0:0:0:0:
320,192,42243,128,0,42347:0:0:0:0:
192,192,42347,128,0,42452:0:0:0:0:
64,192,42452,128,0,42557:0:0:0:0:
448,192,42557,128,0,43187:0:0:0:0:
320,192,42557,1,0,0:0:0:0:
192,192,42767,1,0,0:0:0:0:
64,192,42767,1,0,0:0:0:0:
64,192,42977,1,0,0:0:0:0:
192,192,42977,1,0,0:0:0:0:
320,192,42977,1,0,0:0:0:0:
320,192,43187,128,0,43292:0:0:0:0:
192,192,43292,128,0,43396:0:0:0:0:
64,192,43396,128,0,43501:0:0:0:0:
448,192,43396,1,0,0:0:0:0:
192,192,43501,128,0,43606:0:0:0:0:
320,192,43606,128,0,44026:0:0:0:0:
64,192,43606,1,0,0:0:0:0:
192,192,43816,1,0,0:0:0:0:
64,192,43816,1,0,0:0:0:0:
448,192,43816,1,0,0:0:0:0:
64,192,44026,128,0,44236:0:0:0:0:
320,192,44236,1,0,0:0:0:0:
448,192,44236,1,0,0:0:0:0:
192,192,44445,1,0,0:0:0:0:
64,192,44445,1,0,0:0:0:0:
64,192,44655,1,0,0:0:0:0:
320,192,44655,1,0,0:0:0:0:
448,192,44655,1,0,0:0:0:0:
192,192,44865,128,0,44970:0:0:0:0:
320,192,44970,128,0,45075:0:0:0:0:
448,192,45075,1,0,0:0:0:0:
64,192,45075,128,0,45180:0:0:0:0:
192,192,45180,128,0,45285:0:0:0:0:
448,192,45285,1,0,0:0:0:0:
320,192,45285,128,0,45809:0:0:0:0:
192,192,45494,1,0,0:0:0:0:
64,192,45494,1,0,0:0:0:0:
448,192,45494,1,0,0:0:0:0:
64,192,45704,128,0,45809:0:0:0:0:
192,192,45914,128,0,46438:0:0:0:0:
64,192,45914,1,0,0:0:0:0:
320,192,46124,1,0,0:0:0:0:
448,192,46124,1,0,0:0:0:0:
448,192,46333,128,0,46438:0:0:0:0:
320,192,46333,1,0,0:0:0:0:
64,192,46333,1,0,0:0:0:0:
64,192,46543,128,0,46963:0:0:0:0:
320,192,46753,1,0,0:0:0:0:
192,192,46753,1,0,0:0:0:0:
448,192,46963,128,0,47068:0:0:0:0:
192,192,46963,1,0,0:0:0:0:
320,192,47068,128,0,47173:0:0:0:0:
192,192,47173,128,0,47278:0:0:0:0:
64,192,47173,1,0,0:0:0:0:
448,192,47173,1,0,0:0:0:0:
320,192,47278,128,0,47382:0:0:0:0:
192,192,47382,128,0,47487:0:0:0:0:
448,192,47382,1,0,0:0:0:0:
64,192,47487,128,0,47592:0:0:0:0:
448,192,47592,128,0,47697:0:0:0:0:
320,192,47592,1,0,0:0:0:0:
192,192,47592,1,0,0:0:0:0:
320,192,47802,128,0,47907:0:0:0:0:
64,192,47802,1,0,0:0:0:0:
192,192,48012,128,0,49271:0:0:0:0:
320,192,48012,1,0,0:0:0:0:
448,192,48012,1,0,0:0:0:0:
64,192,48222,1,0,0:0:0:0:
320,192,48431,1,0,0:0:0:0:
448,192,48431,1,0,0:0:0:0:
64,192,48641,1,0,0:0:0:0:
448,192,48641,1,0,0:0:0:0:
320,192,48851,1,0,0:0:0:0:
64,192,48851,1,0,0:0:0:0:
448,192,48851,1,0,0:0:0:0:
320,192,49061,1,0,0:0:0:0:
64,192,49271,1,0,0:0:0:0:
448,192,49271,1,0,0:0:0:0:
320,192,49480,128,0,49585:0:0:0:0:
448,192,49480,1,0,0:0:0:0:
192,192,49690,128,0,49795:0:0:0:0:
320,192,49690,1,0,0:0:0:0:
64,192,49690,1,0,0:0:0:0:
64,192,49900,128,0,50110:0:0:0:0:
320,192,50110,1,0,0:0:0:0:
448,192,50110,1,0,0:0:0:0:
192,192,50319,128,0,50424:0:0:0:0:
64,192,50319,1,0,0:0:0:0:
320,192,50529,128,0,50634:0:0:0:0:
192,192,50529,1,0,0:0:0:0:
448,192,50529,1,0,0:0:0:0:
448,192,50739,128,0,51264:0:0:0:0:
64,192,50949,128,0,51264:0:0:0:0:
192,192,50949,1,0,0:0:0:0:
192,192,51159,1,0,0:0:0:0:
320,192,51159,1,0,0:0:0:0:
64,192,51368,1,0,0:0:0:0:
320,192,51368,1,0,0:0:0:0:
448,192,51368,1,0,0:0:0:0:
192,192,51578,128,0,52103:0:0:0:0:
64,192,51788,128,0,52103:0:0:0:0:
320,192,51788,1,0,0:0:0:0:
320,192,51998,1,0,0:0:0:0:
448,192,51998,1,0,0:0:0:0:
192,192,52208,1,0,0:0:0:0:
64,192,52208,1,0,0:0:0:0:
448,192,52208,1,0,0:0:0:0:
320,192,52417,128,0,52942:0:0:0:0:
448,192,52627,128,0,52942:0:0:0:0:
64,192,52627,1,0,0:0:0:0:
192,192,52837,1,0,0:0:0:0:
64,192,52837,1,0,0:0:0:0:
192,192,53047,1,0,0:0:0:0:
320,192,53047,1,0,0:0:0:0:
448,192,53047,1,0,0:0:0:0:
64,192,53257,128,0,53781:0:0:0:0:
448,192,53466,128,0,53991:0:0:0:0:
320,192,53466,1,0,0:0:0:0:
320,192,53676,1,0,0:0:0:0:
192,192,53676,1,0,0:0:0:0:
320,192,53886,128,0,53991:0:0:0:0:
64,192,53886,1,0,0:0:0:0:
192,192,53886,1,0,0:0:0:0:
192,192,54096,128,0,54201:0:0:0:0:
64,192,54306,128,0,54620:0:0:0:0:
448,192,54306,1,0,0:0:0:0:
320,192,54515,1,0,0:0:0:0:
192,192,54515,1,0,0:0:0:0:
192,192,54725,128,0,55040:0:0:0:0:
448,192,54725,1,0,0:0:0:0:
64,192,54725,1,0,0:0:0:0:
320,192,54935,1,0,0:0:0:0:
320,192,55145,128,0,55459:0:0:0:0:
64,192,55145,1,0,0:0:0:0:
192,192,55354,1,0,0:0:0:0:
448,192,55354,1,0,0:0:0:0:
448,192,55564,128,0,55669:0:0:0:0:
320,192,55564,1,0,0:0:0:0:
64,192,55564,1,0,0:0:0:0:
320,192,55774,128,0,55879:0:0:0:0:
192,192,55984,128,0,56299:0:0:0:0:
64,192,55984,1,0,0:0:0:0:
320,192,56194,1,0,0:0:0:0:
448,192,56194,1,0,0:0:0:0:
192,192,56403,1,0,0:0:0:0:
448,192,56403,1,0,0:0:0:0:
64,192,56403,1,0,0:0:0:0:
320,192,56613,1,0,0:0:0:0:
448,192,56823,128,0,57138:0:0:0:0:
64,192,56823,1,0,0:0:0:0:
320,192,57033,128,0,57138:0:0:0:0:
192,192,57033,1,0,0:0:0:0:
64,192,57033,1,0,0:0:0:0:
192,192,57243,128,0,57347:0:0:0:0:
320,192,57243,1,0,0:0:0:0:
448,192,57243,1,0,0:0:0:0:
64,192,57452,128,0,57557:0:0:0:0:
192,192,57662,128,0,57977:0:0:0:0:
448,192,57662,1,0,0:0:0:0:
320,192,57872,1,0,0:0:0:0:
64,192,57872,1,0,0:0:0:0:
320,192,58082,128,0,58396:0:0:0:0:
192,192,58082,1,0,0:0:0:0:
448,192,58082,1,0,0:0:0:0:
64,192,58292,1,0,0:0:0:0:
448,192,58501,128,0,58816:0:0:0:0:
320,192,58501,1,0,0:0:0:0:
64,192,58711,128,0,58816:0:0:0:0:
192,192,58711,1,0,0:0:0:0:
320,192,58921,128,0,59026:0:0:0:0:
448,192,58921,1,0,0:0:0:0:
64,192,58921,1,0,0:0:0:0:
192,192,59131,128,0,59236:0:0:0:0:
64,192,59340,128,0,60180:0:0:0:0:
192,192,59340,1,0,0:0:0:0:
320,192,59550,1,0,0:0:0:0:
448,192,59550,1,0,0:0:0:0:
192,192,59760,1,0,0:0:0:0:
320,192,59760,1,0,0:0:0:0:
448,192,59760,1,0,0:0:0:0:
192,192,59970,1,0,0:0:0:0:
320,192,60180,1,0,0:0:0:0:
448,192,60180,1,0,0:0:0:0:
192,192,60389,1,0,0:0:0:0:
64,192,60389,1,0,0:0:0:0:
64,192,60599,1,0,0:0:0:0:
320,192,60599,1,0,0:0:0:0:
448,192,60599,1,0,0:0:0:0:
192,192,60809,1,0,0:0:0:0:
320,192,60809,1,0,0:0:0:0:
64,192,61019,1,0,0:0:0:0:
192,192,61019,128,0,61124:0:0:0:0:
320,192,61229,128,0,61333:0:0:0:0:
192,192,61229,1,0,0:0:0:0:
448,192,61438,128,0,62697:0:0:0:0:
320,192,61438,1,0,0:0:0:0:
64,192,61438,1,0,0:0:0:0:
192,192,61648,1,0,0:0:0:0:
320,192,61858,1,0,0:0:0:0:
64,192,61858,1,0,0:0:0:0:
192,192,62068,1,0,0:0:0:0:
320,192,62068,1,0,0:0:0:0:
64,192,62278,1,0,0:0:0:0:
192,192,62278,1,0,0:0:0:0:
320,192,62278,1,0,0:0:0:0:
192,192,62487,1,0,0:0:0:0:
64,192,62697,1,0,0:0:0:0:
320,192,62697,1,0,0:0:0:0:
320,192,62907,128,0,63117:0:0:0:0:
64,192,62907,1,0,0:0:0:0:
64,192,63117,1,0,0:0:0:0:
448,192,63117,1,0,0:0:0:0:
192,192,63117,1,0,0:0:0:0:
192,192,63326,128,0,63431:0:0:0:0:
320,192,63536,128,0,63641:0:0:0:0:
64,192,63536,1,0,0:0:0:0:
448,192,63746,128,0,63851:0:0:0:0:
192,192,63746,1,0,0:0:0:0:
320,192,63956,128,0,64061:0:0:0:0:
192,192,63956,1,0,0:0:0:0:
64,192,63956,1,0,0:0:0:0:
448,192,64166,128,0,64690:0:0:0:0:
320,192,64375,128,0,64690:0:0:0:0:
64,192,64375,1,0,0:0:0:0:
192,192,64585,1,0,0:0:0:0:
64,192,64585,1,0,0:0:0:0:
320,192,64795,1,0,0:0:0:0:
64,192,64795,1,0,0:0:0:0:
448,192,64795,1,0,0:0:0:0:
192,192,65005,128,0,65529:0:0:0:0:
64,192,65215,128,0,65529:0:0:0:0:
448,192,65215,1,0,0:0:0:0:
320,192,65424,1,0,0:0:0:0:
448,192,65424,1,0,0:0:0:0:
192,192,65634,1,0,0:0:0:0:
64,192,65634,1,0,0:0:0:0:
448,192,65634,1,0,0:0:0:0:
320,192,65844,128,0,66368:0:0:0:0:
448,192,66054,128,0,66368:0:0:0:0:
64,192,66054,1,0,0:0:0:0:
192,192,66264,1,0,0:0:0:0:
64,192,66264,1,0,0:0:0:0:
192,192,66473,1,0,0:0:0:0:
320,192,66473,1,0,0:0:0:0:
448,192,66473,1,0,0:0:0:0:
64,192,66683,128,0,66788:0:0:0:0:
192,192,66893,128,0,66998:0:0:0:0:
448,192,66893,1,0,0:0:0:0:
320,192,67103,128,0,67208:0:0:0:0:
64,192,67103,1,0,0:0:0:0:
192,192,67313,128,0,67417:0:0:0:0:
320,192,67313,1,0,0:0:0:0:
448,192,67313,1,0,0:0:0:0:
320,192,67522,128,0,67627:0:0:0:0:
64,192,67522,1,0,0:0:0:0:
448,192,67732,128,0,68257:0:0:0:0:
192,192,67732,1,0,0:0:0:0:
64,192,67732,1,0,0:0:0:0:
320,192,67942,1,0,0:0:0:0:
192,192,67942,1,0,0:0:0:0:
64,192,68152,1,0,0:0:0:0:
192,192,68152,1,0,0:0:0:0:
320,192,68152,1,0,0:0:0:0:
64,192,68361,128,0,68676:0:0:0:0:
192,192,68571,128,0,68676:0:0:0:0:
448,192,68571,128,0,68676:0:0:0:0:
320,192,68676,128,0,68781:0:0:0:0:
64,192,68781,1,0,0:0:0:0:
192,192,68781,128,0,68886:0:0:0:0:
320,192,68886,128,0,68991:0:0:0:0:
192,192,68991,1,0,0:0:0:0:
64,192,68991,1,0,0:0:0:0:
448,192,68991,128,0,69096:0:0:0:0:
320,192,69096,128,0,69201:0:0:0:0:
192,192,69201,128,0,69306:0:0:0:0:
64,192,69306,128,0,69410:0:0:0:0:
320,192,69410,1,0,0:0:0:0:
448,192,69410,128,0,69725:0:0:0:0:
192,192,69620,1,0,0:0:0:0:
64,192,69620,1,0,0:0:0:0:
192,192,69830,1,0,0:0:0:0:
448,192,69830,1,0,0:0:0:0:
320,192,69830,1,0,0:0:0:0:
64,192,70040,5,0,0:0:0:0:
192,192,70145,1,0,0:0:0:0:
448,192,70145,1,0,0:0:0:0:
320,192,70250,1,0,0:0:0:0:
192,192,70354,1,0,0:0:0:0:
64,192,70354,1,0,0:0:0:0:
320,192,70459,1,0,0:0:0:0:
448,192,70459,1,0,0:0:0:0:
64,192,70564,1,0,0:0:0:0:
192,192,70564,1,0,0:0:0:0:
320,192,70669,1,0,0:0:0:0:
448,192,70669,1,0,0:0:0:0:
64,192,70774,1,0,0:0:0:0:
192,192,70774,1,0,0:0:0:0:
320,192,70879,1,0,0:0:0:0:
448,192,70879,128,0,70984:0:0:0:0:
192,192,70984,1,0,0:0:0:0:
64,192,71089,1,0,0:0:0:0:
448,192,71089,1,0,0:0:0:0:
320,192,71089,128,0,71194:0:0:0:0:
192,192,71299,128,0,71403:0:0:0:0:
320,192,71299,1,0,0:0:0:0:
64,192,71508,128,0,71823:0:0:0:0:
192,192,71508,1,0,0:0:0:0:
448,192,71508,1,0,0:0:0:0:
448,192,71718,1,0,0:0:0:0:
192,192,71823,1,0,0:0:0:0:
320,192,71823,1,0,0:0:0:0:
448,192,71928,128,0,72243:0:0:0:0:
64,192,71928,1,0,0:0:0:0:
192,192,72138,1,0,0:0:0:0:
64,192,72138,1,0,0:0:0:0:
320,192,72347,128,0,72452:0:0:0:0:
64,192,72347,1,0,0:0:0:0:
448,192,72347,1,0,0:0:0:0:
192,192,72557,128,0,72662:0:0:0:0:
64,192,72767,128,0,73082:0:0:0:0:
320,192,72767,1,0,0:0:0:0:
320,192,72977,1,0,0:0:0:0:
448,192,72977,1,0,0:0:0:0:
192,192,73187,128,0,73292:0:0:0:0:
64,192,73187,1,0,0:0:0:0:
448,192,73187,1,0,0:0:0:0:
320,192,73396,128,0,73501:0:0:0:0:
192,192,73501,1,0,0:0:0:0:
64,192,73501,1,0,0:0:0:0:
448,192,73606,128,0,73921:0:0:0:0:
320,192,73606,1,0,0:0:0:0:
192,192,73816,1,0,0:0:0:0:
64,192,73816,1,0,0:0:0:0:
64,192,74026,1,0,0:0:0:0:
320,192,74026,1,0,0:0:0:0:
448,192,74026,1,0,0:0:0:0:
192,192,74236,128,0,74760:0:0:0:0:
448,192,74445,128,0,74760:0:0:0:0:
64,192,74445,1,0,0:0:0:0:
64,192,74655,1,0,0:0:0:0:
320,192,74655,1,0,0:0:0:0:
320,192,74865,128,0,75180:0:0:0:0:
192,192,74865,1,0,0:0:0:0:
448,192,74865,1,0,0:0:0:0:
192,192,75075,1,0,0:0:0:0:
64,192,75180,1,0,0:0:0:0:
448,192,75180,1,0,0:0:0:0:
192,192,75285,128,0,75599:0:0:0:0:
320,192,75285,1,0,0:0:0:0:
64,192,75494,1,0,0:0:0:0:
448,192,75494,1,0,0:0:0:0:
64,192,75704,128,0,76019:0:0:0:0:
320,192,75704,1,0,0:0:0:0:
448,192,75704,1,0,0:0:0:0:
192,192,75914,1,0,0:0:0:0:
448,192,76124,128,0,76648:0:0:0:0:
64,192,76124,1,0,0:0:0:0:
320,192,76333,1,0,0:0:0:0:
192,192,76333,1,0,0:0:0:0:
64,192,76543,1,0,0:0:0:0:
192,192,76543,1,0,0:0:0:0:
320,192,76543,1,0,0:0:0:0:
64,192,76753,128,0,77278:0:0:0:0:
448,192,76858,1,0,0:0:0:0:
192,192,76963,128,0,77278:0:0:0:0:
320,192,76963,1,0,0:0:0:0:
320,192,77173,1,0,0:0:0:0:
448,192,77173,1,0,0:0:0:0:
64,192,77382,1,0,0:0:0:0:
192,192,77382,1,0,0:0:0:0:
448,192,77382,1,0,0:0:0:0:
320,192,77592,1,0,0:0:0:0:
192,192,77802,1,0,0:0:0:0:
64,192,77802,1,0,0:0:0:0:
448,192,77802,128,0,77907:0:0:0:0:
320,192,78012,128,0,78117:0:0:0:0:
64,192,78012,1,0,0:0:0:0:
192,192,78222,128,0,78536:0:0:0:0:
320,192,78222,1,0,0:0:0:0:
448,192,78222,1,0,0:0:0:0:
64,192,78431,1,0,0:0:0:0:
320,192,78536,1,0,0:0:0:0:
448,192,78536,1,0,0:0:0:0:
64,192,78641,128,0,78956:0:0:0:0:
192,192,78641,1,0,0:0:0:0:
320,192,78851,1,0,0:0:0:0:
448,192,78851,1,0,0:0:0:0:
192,192,79061,128,0,79166:0:0:0:0:
64,192,79061,1,0,0:0:0:0:
448,192,79061,1,0,0:0:0:0:
320,192,79271,128,0,79375:0:0:0:0:
448,192,79480,128,0,79795:0:0:0:0:
192,192,79480,1,0,0:0:0:0:
192,192,79690,1,0,0:0:0:0:
64,192,79690,1,0,0:0:0:0:
320,192,79900,128,0,80005:0:0:0:0:
448,192,79900,1,0,0:0:0:0:
64,192,79900,1,0,0:0:0:0:
192,192,80110,128,0,80215:0:0:0:0:
320,192,80215,1,0,0:0:0:0:
448,192,80215,1,0,0:0:0:0:
64,192,80319,128,0,80634:0:0:0:0:
192,192,80319,1,0,0:0:0:0:
320,192,80529,1,0,0:0:0:0:
448,192,80529,1,0,0:0:0:0:
192,192,80739,1,0,0:0:0:0:
64,192,80739,1,0,0:0:0:0:
448,192,80739,1,0,0:0:0:0:
320,192,80949,128,0,81683:0:0:0:0:
448,192,81159,128,0,81683:0:0:0:0:
64,192,81159,1,0,0:0:0:0:
192,192,81368,1,0,0:0:0:0:
64,192,81368,1,0,0:0:0:0:
192,192,81578,1,0,0:0:0:0:
64,192,81578,1,0,0:0:0:0:
64,192,81788,128,0,82313:0:0:0:0:
448,192,81893,1,0,0:0:0:0:
192,192,81998,128,0,82313:0:0:0:0:
320,192,81998,1,0,0:0:0:0:
320,192,82208,1,0,0:0:0:0:
448,192,82208,1,0,0:0:0:0:
64,192,82417,1,0,0:0:0:0:
320,192,82417,1,0,0:0:0:0:
448,192,82417,1,0,0:0:0:0:
192,192,82627,128,0,83361:0:0:0:0:
64,192,82837,128,0,83361:0:0:0:0:
448,192,82837,1,0,0:0:0:0:
320,192,83047,1,0,0:0:0:0:
448,192,83047,1,0,0:0:0:0:
320,192,83257,1,0,0:0:0:0:
448,192,83257,1,0,0:0:0:0:
448,192,83466,128,0,83676:0:0:0:0:
320,192,83571,1,0,0:0:0:0:
192,192,83676,1,0,0:0:0:0:
64,192,83676,128,0,83886:0:0:0:0:
320,192,83781,1,0,0:0:0:0:
448,192,83781,1,0,0:0:0:0:
320,192,83886,1,0,0:0:0:0:
448,192,83886,1,0,0:0:0:0:
192,192,83991,1,0,0:0:0:0:
64,192,83991,1,0,0:0:0:0:
320,192,84096,1,0,0:0:0:0:
448,192,84096,1,0,0:0:0:0:
192,192,84201,1,0,0:0:0:0:
64,192,84201,1,0,0:0:0:0:
192,192,84306,1,0,0:0:0:0:
64,192,84306,1,0,0:0:0:0:
320,192,84410,1,0,0:0:0:0:
448,192,84410,1,0,0:0:0:0:
64,192,84515,1,0,0:0:0:0:
192,192,84515,128,0,84620:0:0:0:0:
320,192,84725,128,0,84830:0:0:0:0:
192,192,84725,1,0,0:0:0:0:
448,192,84935,128,0,85040:0:0:0:0:
320,192,84935,1,0,0:0:0:0:
64,192,84935,1,0,0:0:0:0:
320,192,85145,128,0,85250:0:0:0:0:
64,192,85250,1,0,0:0:0:0:
448,192,85250,1,0,0:0:0:0:
192,192,85354,128,0,85669:0:0:0:0:
320,192,85354,1,0,0:0:0:0:
64,192,85564,1,0,0:0:0:0:
448,192,85564,1,0,0:0:0:0:
64,192,85774,128,0,85879:0:0:0:0:
320,192,85774,1,0,0:0:0:0:
192,192,85774,1,0,0:0:0:0:
192,192,85984,128,0,86089:0:0:0:0:
320,192,86194,128,0,86508:0:0:0:0:
64,192,86194,1,0,0:0:0:0:
192,192,86403,1,0,0:0:0:0:
64,192,86403,1,0,0:0:0:0:
192,192,86613,128,0,86718:0:0:0:0:
320,192,86613,1,0,0:0:0:0:
448,192,86613,1,0,0:0:0:0:
320,192,86823,128,0,86928:0:0:0:0:
64,192,86928,1,0,0:0:0:0:
192,192,86928,1,0,0:0:0:0:
448,192,87033,128,0,87347:0:0:0:0:
320,192,87033,1,0,0:0:0:0:
192,192,87243,1,0,0:0:0:0:
64,192,87243,1,0,0:0:0:0:
192,192,87452,1,0,0:0:0:0:
320,192,87452,1,0,0:0:0:0:
448,192,87452,1,0,0:0:0:0:
64,192,87662,128,0,88187:0:0:0:0:
192,192,87872,128,0,88187:0:0:0:0:
448,192,87872,1,0,0:0:0:0:
320,192,88082,1,0,0:0:0:0:
448,192,88082,1,0,0:0:0:0:
320,192,88292,128,0,88606:0:0:0:0:
64,192,88292,1,0,0:0:0:0:
192,192,88292,1,0,0:0:0:0:
448,192,88501,1,0,0:0:0:0:
64,192,88606,1,0,0:0:0:0:
192,192,88606,1,0,0:0:0:0:
448,192,88711,128,0,89026:0:0:0:0:
320,192,88711,1,0,0:0:0:0:
192,192,88921,1,0,0:0:0:0:
64,192,88921,1,0,0:0:0:0:
320,192,89131,128,0,89445:0:0:0:0:
192,192,89131,1,0,0:0:0:0:
448,192,89131,1,0,0:0:0:0:
64,192,89340,1,0,0:0:0:0:
192,192,89550,128,0,90075:0:0:0:0:
448,192,89550,1,0,0:0:0:0:
320,192,89760,1,0,0:0:0:0:
448,192,89760,1,0,0:0:0:0:
64,192,89970,1,0,0:0:0:0:
320,192,89970,1,0,0:0:0:0:
448,192,89970,1,0,0:0:0:0:
64,192,90180,128,0,90704:0:0:0:0:
192,192,90285,1,0,0:0:0:0:
448,192,90389,128,0,90704:0:0:0:0:
320,192,90389,1,0,0:0:0:0:
192,192,90599,1,0,0:0:0:0:
320,192,90599,1,0,0:0:0:0:
64,192,90809,1,0,0:0:0:0:
192,192,90809,1,0,0:0:0:0:
448,192,90809,1,0,0:0:0:0:
320,192,91019,1,0,0:0:0:0:
64,192,91229,1,0,0:0:0:0:
448,192,91229,1,0,0:0:0:0:
192,192,91229,128,0,91333:0:0:0:0:
320,192,91438,128,0,91543:0:0:0:0:
192,192,91438,1,0,0:0:0:0:
448,192,91648,128,0,91963:0:0:0:0:
320,192,91648,1,0,0:0:0:0:
64,192,91648,1,0,0:0:0:0:
64,192,91858,128,0,91963:0:0:0:0:
320,192,91963,1,0,0:0:0:0:
192,192,92068,128,0,92382:0:0:0:0:
64,192,92068,1,0,0:0:0:0:
320,192,92278,1,0,0:0:0:0:
448,192,92278,1,0,0:0:0:0:
320,192,92487,128,0,92592:0:0:0:0:
192,192,92487,1,0,0:0:0:0:
64,192,92487,1,0,0:0:0:0:
192,192,92697,128,0,92802:0:0:0:0:
64,192,92907,128,0,93222:0:0:0:0:
320,192,92907,1,0,0:0:0:0:
320,192,93117,1,0,0:0:0:0:
448,192,93117,1,0,0:0:0:0:
192,192,93326,128,0,93431:0:0:0:0:
64,192,93326,1,0,0:0:0:0:
448,192,93326,1,0,0:0:0:0:
320,192,93536,128,0,93641:0:0:0:0:
192,192,93641,1,0,0:0:0:0:
64,192,93641,1,0,0:0:0:0:
448,192,93746,128,0,94061:0:0:0:0:
320,192,93746,1,0,0:0:0:0:
192,192,93956,1,0,0:0:0:0:
64,192,93956,1,0,0:0:0:0:
320,192,94166,128,0,94271:0:0:0:0:
64,192,94166,1,0,0:0:0:0:
448,192,94166,1,0,0:0:0:0:
192,192,94375,128,0,94480:0:0:0:0:
448,192,94375,1,0,0:0:0:0:
320,192,94480,1,0,0:0:0:0:
64,192,94585,128,0,94900:0:0:0:0:
448,192,94585,1,0,0:0:0:0:
192,192,94585,1,0,0:0:0:0:
192,192,94795,1,0,0:0:0:0:
320,192,94795,1,0,0:0:0:0:
64,192,95005,1,0,0:0:0:0:
320,192,95005,1,0,0:0:0:0:
448,192,95005,1,0,0:0:0:0:
448,192,95215,128,0,95739:0:0:0:0:
64,192,95319,1,0,0:0:0:0:
320,192,95424,128,0,95739:0:0:0:0:
192,192,95424,1,0,0:0:0:0:
192,192,95634,1,0,0:0:0:0:
64,192,95634,1,0,0:0:0:0:
64,192,95844,1,0,0:0:0:0:
320,192,95844,1,0,0:0:0:0:
448,192,95844,1,0,0:0:0:0:
192,192,96054,128,0,96578:0:0:0:0:
64,192,96264,128,0,96578:0:0:0:0:
448,192,96264,1,0,0:0:0:0:
320,192,96473,1,0,0:0:0:0:
448,192,96473,1,0,0:0:0:0:
320,192,96683,1,0,0:0:0:0:
192,192,96683,1,0,0:0:0:0:
64,192,96683,1,0,0:0:0:0:
448,192,96893,128,0,97417:0:0:0:0:
320,192,96998,1,0,0:0:0:0:
64,192,97103,128,0,97417:0:0:0:0:
192,192,97103,1,0,0:0:0:0:
320,192,97208,1,0,0:0:0:0:
192,192,97313,1,0,0:0:0:0:
320,192,97417,1,0,0:0:0:0:
192,192,97522,128,0,97627:0:0:0:0:
64,192,97522,1,0,0:0:0:0:
448,192,97627,1,0,0:0:0:0:
320,192,97732,128,0,97837:0:0:0:0:
64,192,97732,1,0,0:0:0:0:
192,192,97837,1,0,0:0:0:0:
448,192,97942,128,0,98466:0:0:0:0:
320,192,97942,1,0,0:0:0:0:
64,192,97942,1,0,0:0:0:0:
192,192,98152,1,0,0:0:0:0:
320,192,98152,1,0,0:0:0:0:
192,192,98361,1,0,0:0:0:0:
320,192,98361,1,0,0:0:0:0:
64,192,98361,1,0,0:0:0:0:
64,192,98571,128,0,98781:0:0:0:0:
448,192,98781,1,0,0:0:0:0:
320,192,98781,128,0,98886:0:0:0:0:
192,192,98886,128,0,98991:0:0:0:0:
64,192,98991,1,0,0:0:0:0:
448,192,98991,128,0,99096:0:0:0:0:
320,192,99096,128,0,99201:0:0:0:0:
64,192,99201,1,0,0:0:0:0:
448,192,99201,1,0,0:0:0:0:
192,192,99201,128,0,99306:0:0:0:0:
320,192,99306,128,0,99410:0:0:0:0:
192,192,99410,128,0,99515:0:0:0:0:
64,192,99515,128,0,99620:0:0:0:0:
448,192,99620,128,0,100250:0:0:0:0:
320,192,99620,1,0,0:0:0:0:
192,192,99830,1,0,0:0:0:0:
64,192,99830,1,0,0:0:0:0:
320,192,100040,1,0,0:0:0:0:
64,192,100040,1,0,0:0:0:0:
192,192,100040,1,0,0:0:0:0:
64,192,100250,128,0,100354:0:0:0:0:
192,192,100354,128,0,100459:0:0:0:0:
320,192,100459,128,0,100564:0:0:0:0:
64,192,100459,1,0,0:0:0:0:
448,192,100564,128,0,100669:0:0:0:0:
64,192,100669,128,0,101089:0:0:0:0:
192,192,100669,1,0,0:0:0:0:
320,192,100879,1,0,0:0:0:0:
448,192,100879,1,0,0:0:0:0:
192,192,100879,1,0,0:0:0:0:
448,192,101089,128,0,101299:0:0:0:0:
192,192,101299,1,0,0:0:0:0:
64,192,101299,1,0,0:0:0:0:
320,192,101508,1,0,0:0:0:0:
448,192,101508,1,0,0:0:0:0:
448,192,101718,1,0,0:0:0:0:
192,192,101718,1,0,0:0:0:0:
64,192,101718,1,0,0:0:0:0:
320,192,101928,128,0,102033:0:0:0:0:
192,192,102033,128,0,102138:0:0:0:0:
64,192,102138,1,0,0:0:0:0:
448,192,102138,128,0,102243:0:0:0:0:
320,192,102243,128,0,102347:0:0:0:0:
64,192,102347,1,0,0:0:0:0:
448,192,102347,1,0,0:0:0:0:
192,192,102347,128,0,102872:0:0:0:0:
320,192,102557,1,0,0:0:0:0:
448,192,102557,1,0,0:0:0:0:
64,192,102557,1,0,0:0:0:0:
320,192,102767,128,0,102872:0:0:0:0:
448,192,102977,128,0,103501:0:0:0:0:
192,192,102977,1,0,0:0:0:0:
320,192,103187,1,0,0:0:0:0:
64,192,103187,1,0,0:0:0:0:
64,192,103396,128,0,103501:0:0:0:0:
192,192,103396,1,0,0:0:0:0:
320,192,103396,1,0,0:0:0:0:
192,192,103606,128,0,104026:0:0:0:0:
448,192,103816,1,0,0:0:0:0:
320,192,103816,1,0,0:0:0:0:
320,192,104026,128,0,104131:0:0:0:0:
64,192,104026,1,0,0:0:0:0:
448,192,104131,128,0,104236:0:0:0:0:
320,192,104236,128,0,104340:0:0:0:0:
64,192,104236,1,0,0:0:0:0:
192,192,104340,128,0,104445:0:0:0:0:
320,192,104445,128,0,104550:0:0:0:0:
448,192,104445,1,0,0:0:0:0:
192,192,104550,128,0,104655:0:0:0:0:
448,192,104655,1,0,0:0:0:0:
320,192,104655,1,0,0:0:0:0:
64,192,104655,128,0,104760:0:0:0:0:
320,192,104865,1,0,0:0:0:0:
192,192,104865,128,0,104970:0:0:0:0:
64,192,105075,1,0,0:0:0:0:
320,192,105075,1,0,0:0:0:0:
448,192,105075,128,0,106333:0:0:0:0:
192,192,105285,1,0,0:0:0:0:
64,192,105494,1,0,0:0:0:0:
320,192,105494,1,0,0:0:0:0:
64,192,105704,1,0,0:0:0:0:
192,192,105704,1,0,0:0:0:0:
320,192,105914,1,0,0:0:0:0:
192,192,105914,1,0,0:0:0:0:
64,192,105914,1,0,0:0:0:0:
320,192,106124,1,0,0:0:0:0:
64,192,106333,1,0,0:0:0:0:
192,192,106333,1,0,0:0:0:0:
320,192,106543,128,0,106648:0:0:0:0:
448,192,106543,1,0,0:0:0:0:
192,192,106753,128,0,106858:0:0:0:0:
64,192,106753,1,0,0:0:0:0:
448,192,106753,1,0,0:0:0:0:
64,192,106963,128,0,107068:0:0:0:0:
448,192,107173,1,0,0:0:0:0:
192,192,107173,128,0,107278:0:0:0:0:
64,192,107382,1,0,0:0:0:0:
320,192,107382,128,0,107487:0:0:0:0:
64,192,107592,1,0,0:0:0:0:
192,192,107592,1,0,0:0:0:0:
448,192,107592,128,0,107697:0:0:0:0:
320,192,107802,128,0,107907:0:0:0:0:
448,192,108012,1,0,0:0:0:0:
192,192,108012,128,0,108536:0:0:0:0:
448,192,108222,1,0,0:0:0:0:
320,192,108222,1,0,0:0:0:0:
320,192,108431,1,0,0:0:0:0:
64,192,108431,1,0,0:0:0:0:
448,192,108431,1,0,0:0:0:0:
320,192,108641,128,0,108746:0:0:0:0:
64,192,108851,1,0,0:0:0:0:
448,192,108851,128,0,109375:0:0:0:0:
192,192,109061,1,0,0:0:0:0:
320,192,109061,1,0,0:0:0:0:
320,192,109271,1,0,0:0:0:0:
64,192,109271,1,0,0:0:0:0:
192,192,109271,1,0,0:0:0:0:
64,192,109480,128,0,110005:0:0:0:0:
448,192,109690,1,0,0:0:0:0:
192,192,109690,128,0,110005:0:0:0:0:
448,192,109900,1,0,0:0:0:0:
320,192,109900,1,0,0:0:0:0:
192,192,110110,1,0,0:0:0:0:
64,192,110110,1,0,0:0:0:0:
320,192,110110,1,0,0:0:0:0:
448,192,110319,128,0,110844:0:0:0:0:
320,192,110529,128,0,110844:0:0:0:0:
64,192,110529,1,0,0:0:0:0:
192,192,110739,1,0,0:0:0:0:
64,192,110739,1,0,0:0:0:0:
448,192,110949,1,0,0:0:0:0:
320,192,110949,1,0,0:0:0:0:
192,192,110949,128,0,111054:0:0:0:0:
64,192,111159,128,0,111264:0:0:0:0:
448,192,111368,1,0,0:0:0:0:
192,192,111368,128,0,111683:0:0:0:0:
64,192,111578,1,0,0:0:0:0:
320,192,111578,1,0,0:0:0:0:
192,192,111788,1,0,0:0:0:0:
448,192,111788,1,0,0:0:0:0:
320,192,111788,128,0,112103:0:0:0:0:
64,192,111998,1,0,0:0:0:0:
320,192,112208,1,0,0:0:0:0:
448,192,112208,128,0,112522:0:0:0:0:
64,192,112417,1,0,0:0:0:0:
192,192,112417,1,0,0:0:0:0:
448,192,112627,1,0,0:0:0:0:
64,192,112627,1,0,0:0:0:0:
320,192,112627,128,0,112732:0:0:0:0:
192,192,112837,128,0,112942:0:0:0:0:
448,192,113047,1,0,0:0:0:0:
64,192,113047,128,0,113361:0:0:0:0:
320,192,113257,1,0,0:0:0:0:
192,192,113257,1,0,0:0:0:0:
64,192,113466,1,0,0:0:0:0:
320,192,113466,1,0,0:0:0:0:
448,192,113466,1,0,0:0:0:0:
448,192,113676,128,0,114201:0:0:0:0:
64,192,113886,1,0,0:0:0:0:
320,192,113886,128,0,114201:0:0:0:0:
192,192,114096,1,0,0:0:0:0:
64,192,114096,1,0,0:0:0:0:
448,192,114306,1,0,0:0:0:0:
320,192,114306,1,0,0:0:0:0:
192,192,114306,128,0,114410:0:0:0:0:
64,192,114515,128,0,115040:0:0:0:0:
320,192,114725,1,0,0:0:0:0:
448,192,114725,128,0,115040:0:0:0:0:
192,192,114935,1,0,0:0:0:0:
448,192,115145,1,0,0:0:0:0:
64,192,115145,1,0,0:0:0:0:
320,192,115145,128,0,115459:0:0:0:0:
192,192,115354,1,0,0:0:0:0:
448,192,115564,1,0,0:0:0:0:
192,192,115564,128,0,115879:0:0:0:0:
448,192,115774,1,0,0:0:0:0:
320,192,115774,1,0,0:0:0:0:
192,192,115984,1,0,0:0:0:0:
320,192,115984,1,0,0:0:0:0:
64,192,115984,128,0,116089:0:0:0:0:
192,192,116194,128,0,116299:0:0:0:0:
192,192,116403,1,0,0:0:0:0:
320,192,116403,128,0,117243:0:0:0:0:
64,192,116613,1,0,0:0:0:0:
448,192,116613,1,0,0:0:0:0:
448,192,116823,1,0,0:0:0:0:
64,192,116823,1,0,0:0:0:0:
192,192,116823,1,0,0:0:0:0:
192,192,117033,1,0,0:0:0:0:
64,192,117243,1,0,0:0:0:0:
448,192,117243,1,0,0:0:0:0:
320,192,117452,1,0,0:0:0:0:
192,192,117452,1,0,0:0:0:0:
448,192,117662,1,0,0:0:0:0:
192,192,117662,1,0,0:0:0:0:
64,192,117662,1,0,0:0:0:0:
320,192,117872,1,0,0:0:0:0:
64,192,117872,128,0,117977:0:0:0:0:
192,192,118082,128,0,118187:0:0:0:0:
448,192,118082,1,0,0:0:0:0:
64,192,118292,1,0,0:0:0:0:
320,192,118292,128,0,118396:0:0:0:0:
192,192,118501,1,0,0:0:0:0:
320,192,118501,1,0,0:0:0:0:
448,192,118501,128,0,119760:0:0:0:0:
64,192,118711,1,0,0:0:0:0:
192,192,118921,1,0,0:0:0:0:
320,192,118921,1,0,0:0:0:0:
64,192,119131,1,0,0:0:0:0:
192,192,119131,1,0,0:0:0:0:
64,192,119340,1,0,0:0:0:0:
320,192,119340,1,0,0:0:0:0:
192,192,119340,1,0,0:0:0:0:
320,192,119550,1,0,0:0:0:0:
64,192,119760,1,0,0:0:0:0:
192,192,119760,1,0,0:0:0:0:
320,192,119970,128,0,120075:0:0:0:0:
64,192,119970,1,0,0:0:0:0:
192,192,120180,128,0,120285:0:0:0:0:
320,192,120180,1,0,0:0:0:0:
448,192,120180,1,0,0:0:0:0:
64,192,120389,128,0,120494:0:0:0:0:
192,192,120599,128,0,120704:0:0:0:0:
448,192,120599,1,0,0:0:0:0:
320,192,120809,128,0,120914:0:0:0:0:
64,192,120809,1,0,0:0:0:0:
192,192,121019,128,0,121124:0:0:0:0:
64,192,121019,1,0,0:0:0:0:
448,192,121019,1,0,0:0:0:0:
320,192,121229,128,0,121333:0:0:0:0:
448,192,121438,128,0,121963:0:0:0:0:
192,192,121438,1,0,0:0:0:0:
64,192,121648,1,0,0:0:0:0:
320,192,121648,1,0,0:0:0:0:
192,192,121858,1,0,0:0:0:0:
64,192,121858,1,0,0:0:0:0:
320,192,121858,1,0,0:0:0:0:
320,192,122068,128,0,122592:0:0:0:0:
64,192,122278,128,0,122592:0:0:0:0:
448,192,122278,1,0,0:0:0:0:
192,192,122487,1,0,0:0:0:0:
448,192,122487,1,0,0:0:0:0:
320,192,122697,1,0,0:0:0:0:
192,192,122697,1,0,0:0:0:0:
64,192,122697,1,0,0:0:0:0:
192,192,122907,128,0,123431:0:0:0:0:
448,192,123117,128,0,123431:0:0:0:0:
64,192,123117,1,0,0:0:0:0:
320,192,123326,1,0,0:0:0:0:
64,192,123326,1,0,0:0:0:0:
192,192,123536,1,0,0:0:0:0:
320,192,123536,1,0,0:0:0:0:
448,192,123536,1,0,0:0:0:0:
320,192,123746,128,0,123851:0:0:0:0:
192,192,123956,128,0,124061:0:0:0:0:
448,192,123956,1,0,0:0:0:0:
64,192,124166,128,0,124271:0:0:0:0:
320,192,124166,1,0,0:0:0:0:
192,192,124375,128,0,124480:0:0:0:0:
64,192,124375,1,0,0:0:0:0:
448,192,124375,1,0,0:0:0:0:
320,192,124585,128,0,124690:0:0:0:0:
192,192,124585,1,0,0:0:0:0:
448,192,124795,128,0,125110:0:0:0:0:
64,192,124795,1,0,0:0:0:0:
320,192,124795,1,0,0:0:0:0:
192,192,125005,1,0,0:0:0:0:
64,192,125005,1,0,0:0:0:0:
192,192,125215,1,0,0:0:0:0:
320,192,125215,1,0,0:0:0:0:
448,192,125215,1,0,0:0:0:0:
64,192,125424,128,0,125634:0:0:0:0:
320,192,125634,128,0,125739:0:0:0:0:
448,192,125634,1,0,0:0:0:0:
192,192,125739,128,0,125844:0:0:0:0:
448,192,125844,128,0,125949:0:0:0:0:
64,192,125844,1,0,0:0:0:0:
320,192,125949,128,0,126054:0:0:0:0:
192,192,126054,128,0,126159:0:0:0:0:
448,192,126054,1,0,0:0:0:0:
64,192,126054,1,0,0:0:0:0:
320,192,126159,128,0,126264:0:0:0:0:
192,192,126264,128,0,126368:0:0:0:0:
64,192,126368,128,0,126473:0:0:0:0:
320,192,126473,1,0,0:0:0:0:
448,192,126473,128,0,127103:0:0:0:0:
64,192,126683,1,0,0:0:0:0:
192,192,126683,1,0,0:0:0:0:
192,192,126893,1,0,0:0:0:0:
320,192,126893,1,0,0:0:0:0:
64,192,126893,128,0,127103:0:0:0:0:
320,192,127103,1,0,0:0:0:0:
192,192,127208,1,0,0:0:0:0:
64,192,127208,1,0,0:0:0:0:
320,192,127313,1,0,0:0:0:0:
448,192,127313,1,0,0:0:0:0:
192,192,127522,1,0,0:0:0:0:
64,192,127522,1,0,0:0:0:0:
320,192,127627,1,0,0:0:0:0:
448,192,127627,1,0,0:0:0:0:
192,192,127732,1,0,0:0:0:0:
64,192,127732,1,0,0:0:0:0:
320,192,127837,1,0,0:0:0:0:
448,192,127837,1,0,0:0:0:0:
192,192,127942,1,0,0:0:0:0:
64,192,127942,128,0,128047:0:0:0:0:
320,192,128047,1,0,0:0:0:0:
448,192,128152,1,0,0:0:0:0:
64,192,128152,1,0,0:0:0:0:
192,192,128152,128,0,128257:0:0:0:0:
320,192,128361,128,0,128466:0:0:0:0:
192,192,128361,1,0,0:0:0:0:
448,192,128571,128,0,128886:0:0:0:0:
320,192,128571,1,0,0:0:0:0:
64,192,128571,1,0,0:0:0:0:
64,192,128781,1,0,0:0:0:0:
320,192,128886,1,0,0:0:0:0:
192,192,128886,1,0,0:0:0:0:
64,192,128991,128,0,129306:0:0:0:0:
448,192,128991,1,0,0:0:0:0:
320,192,129201,1,0,0:0:0:0:
448,192,129201,1,0,0:0:0:0:
192,192,129410,128,0,129515:0:0:0:0:
448,192,129410,1,0,0:0:0:0:
64,192,129410,1,0,0:0:0:0:
320,192,129620,128,0,129725:0:0:0:0:
448,192,129830,128,0,130145:0:0:0:0:
192,192,129830,1,0,0:0:0:0:
192,192,130040,1,0,0:0:0:0:
64,192,130040,1,0,0:0:0:0:
320,192,130250,128,0,130354:0:0:0:0:
448,192,130250,1,0,0:0:0:0:
64,192,130250,1,0,0:0:0:0:
192,192,130459,128,0,130564:0:0:0:0:
320,192,130564,1,0,0:0:0:0:
448,192,130564,1,0,0:0:0:0:
64,192,130669,128,0,130984:0:0:0:0:
192,192,130669,1,0,0:0:0:0:
320,192,130879,1,0,0:0:0:0:
448,192,130879,1,0,0:0:0:0:
448,192,131089,1,0,0:0:0:0:
192,192,131089,1,0,0:0:0:0:
64,192,131089,1,0,0:0:0:0:
320,192,131299,128,0,131823:0:0:0:0:
64,192,131508,128,0,131823:0:0:0:0:
448,192,131508,1,0,0:0:0:0:
448,192,131718,1,0,0:0:0:0:
192,192,131718,1,0,0:0:0:0:
192,192,131928,128,0,132243:0:0:0:0:
320,192,131928,1,0,0:0:0:0:
64,192,131928,1,0,0:0:0:0:
320,192,132138,1,0,0:0:0:0:
448,192,132243,1,0,0:0:0:0:
64,192,132243,1,0,0:0:0:0:
320,192,132347,128,0,132662:0:0:0:0:
192,192,132347,1,0,0:0:0:0:
448,192,132557,1,0,0:0:0:0:
64,192,132557,1,0,0:0:0:0:
448,192,132767,128,0,133082:0:0:0:0:
192,192,132767,1,0,0:0:0:0:
64,192,132767,1,0,0:0:0:0:
320,192,132977,1,0,0:0:0:0:
64,192,133187,128,0,133711:0:0:0:0:
448,192,133187,1,0,0:0:0:0:
192,192,133396,1,0,0:0:0:0:
320,192,133396,1,0,0:0:0:0:
448,192,133606,1,0,0:0:0:0:
320,192,133606,1,0,0:0:0:0:
192,192,133606,1,0,0:0:0:0:
448,192,133816,128,0,134340:0:0:0:0:
64,192,133921,1,0,0:0:0:0:
320,192,134026,128,0,134340:0:0:0:0:
192,192,134026,1,0,0:0:0:0:
192,192,134236,1,0,0:0:0:0:
64,192,134236,1,0,0:0:0:0:
448,192,134445,1,0,0:0:0:0:
320,192,134445,1,0,0:0:0:0:
64,192,134445,1,0,0:0:0:0:
192,192,134655,1,0,0:0:0:0:
320,192,134865,1,0,0:0:0:0:
448,192,134865,1,0,0:0:0:0:
64,192,134865,128,0,134970:0:0:0:0:
192,192,135075,128,0,135180:0:0:0:0:
448,192,135075,1,0,0:0:0:0:
320,192,135285,128,0,135599:0:0:0:0:
192,192,135285,1,0,0:0:0:0:
64,192,135285,1,0,0:0:0:0:
448,192,135494,1,0,0:0:0:0:
192,192,135599,1,0,0:0:0:0:
64,192,135599,1,0,0:0:0:0:
448,192,135704,128,0,136019:0:0:0:0:
320,192,135704,1,0,0:0:0:0:
192,192,135914,1,0,0:0:0:0:
64,192,135914,1,0,0:0:0:0:
320,192,136124,128,0,136229:0:0:0:0:
448,192,136124,1,0,0:0:0:0:
64,192,136124,1,0,0:0:0:0:
192,192,136333,128,0,136438:0:0:0:0:
64,192,136543,128,0,136858:0:0:0:0:
320,192,136543,1,0,0:0:0:0:
320,192,136753,1,0,0:0:0:0:
448,192,136753,1,0,0:0:0:0:
192,192,136963,128,0,137068:0:0:0:0:
64,192,136963,1,0,0:0:0:0:
448,192,136963,1,0,0:0:0:0:
320,192,137173,128,0,137278:0:0:0:0:
192,192,137278,1,0,0:0:0:0:
64,192,137278,1,0,0:0:0:0:
448,192,137382,128,0,137697:0:0:0:0:
320,192,137382,1,0,0:0:0:0:
192,192,137592,1,0,0:0:0:0:
64,192,137592,1,0,0:0:0:0:
320,192,137802,1,0,0:0:0:0:
448,192,137802,1,0,0:0:0:0:
64,192,137802,1,0,0:0:0:0:
192,192,138012,128,0,138746:0:0:0:0:
64,192,138222,128,0,138746:0:0:0:0:
448,192,138222,1,0,0:0:0:0:
320,192,138431,1,0,0:0:0:0:
448,192,138431,1,0,0:0:0:0:
320,192,138641,1,0,0:0:0:0:
448,192,138641,1,0,0:0:0:0:
448,192,138851,128,0,139375:0:0:0:0:
64,192,138956,1,0,0:0:0:0:
320,192,139061,128,0,139375:0:0:0:0:
192,192,139061,1,0,0:0:0:0:
192,192,139271,1,0,0:0:0:0:
64,192,139271,1,0,0:0:0:0:
448,192,139480,1,0,0:0:0:0:
192,192,139480,1,0,0:0:0:0:
64,192,139480,1,0,0:0:0:0:
320,192,139690,128,0,140424:0:0:0:0:
448,192,139900,128,0,140424:0:0:0:0:
64,192,139900,1,0,0:0:0:0:
192,192,140110,1,0,0:0:0:0:
64,192,140110,1,0,0:0:0:0:
192,192,140319,1,0,0:0:0:0:
64,192,140319,1,0,0:0:0:0:
64,192,140529,128,0,140739:0:0:0:0:
192,192,140634,1,0,0:0:0:0:
320,192,140739,1,0,0:0:0:0:
448,192,140739,128,0,140949:0:0:0:0:
192,192,140844,1,0,0:0:0:0:
64,192,140844,1,0,0:0:0:0:
192,192,140949,1,0,0:0:0:0:
64,192,140949,1,0,0:0:0:0:
320,192,141054,1,0,0:0:0:0:
448,192,141054,1,0,0:0:0:0:
192,192,141159,1,0,0:0:0:0:
64,192,141159,1,0,0:0:0:0:
320,192,141264,1,0,0:0:0:0:
448,192,141264,1,0,0:0:0:0:
320,192,141368,1,0,0:0:0:0:
448,192,141368,1,0,0:0:0:0:
192,192,141473,1,0,0:0:0:0:
64,192,141473,1,0,0:0:0:0:
448,192,141578,1,0,0:0:0:0:
320,192,141578,128,0,141683:0:0:0:0:
192,192,141788,128,0,141893:0:0:0:0:
320,192,141788,1,0,0:0:0:0:
64,192,141998,128,0,142103:0:0:0:0:
192,192,141998,1,0,0:0:0:0:
448,192,141998,1,0,0:0:0:0:
192,192,142208,128,0,142313:0:0:0:0:
448,192,142313,1,0,0:0:0:0:
64,192,142313,1,0,0:0:0:0:
320,192,142417,128,0,142732:0:0:0:0:
192,192,142417,1,0,0:0:0:0:
448,192,142627,1,0,0:0:0:0:
64,192,142627,1,0,0:0:0:0:
448,192,142837,128,0,142942:0:0:0:0:
192,192,142837,1,0,0:0:0:0:
320,192,142837,1,0,0:0:0:0:
320,192,143047,128,0,143152:0:0:0:0:
192,192,143257,128,0,143571:0:0:0:0:
448,192,143257,1,0,0:0:0:0:
320,192,143466,1,0,0:0:0:0:
448,192,143466,1,0,0:0:0:0:
320,192,143676,128,0,143781:0:0:0:0:
192,192,143676,1,0,0:0:0:0:
64,192,143676,1,0,0:0:0:0:
192,192,143886,128,0,143991:0:0:0:0:
448,192,143991,1,0,0:0:0:0:
320,192,143991,1,0,0:0:0:0:
64,192,144096,128,0,144410:0:0:0:0:
192,192,144096,1,0,0:0:0:0:
320,192,144306,1,0,0:0:0:0:
448,192,144306,1,0,0:0:0:0:
320,192,144515,1,0,0:0:0:0:
192,192,144515,1,0,0:0:0:0:
64,192,144515,1,0,0:0:0:0:
448,192,144725,128,0,145250:0:0:0:0:
320,192,144935,128,0,145250:0:0:0:0:
64,192,144935,1,0,0:0:0:0:
192,192,145145,1,0,0:0:0:0:
64,192,145145,1,0,0:0:0:0:
192,192,145354,128,0,145669:0:0:0:0:
448,192,145354,1,0,0:0:0:0:
320,192,145354,1,0,0:0:0:0:
64,192,145564,1,0,0:0:0:0:
448,192,145669,1,0,0:0:0:0:
320,192,145669,1,0,0:0:0:0:
64,192,145774,128,0,146089:0:0:0:0:
192,192,145774,1,0,0:0:0:0:
320,192,145984,1,0,0:0:0:0:
448,192,145984,1,0,0:0:0:0:
192,192,146194,128,0,146508:0:0:0:0:
320,192,146194,1,0,0:0:0:0:
64,192,146194,1,0,0:0:0:0:
448,192,146403,1,0,0:0:0:0:
320,192,146613,128,0,147138:0:0:0:0:
64,192,146613,1,0,0:0:0:0:
192,192,146823,1,0,0:0:0:0:
64,192,146823,1,0,0:0:0:0:
448,192,147033,1,0,0:0:0:0:
192,192,147033,1,0,0:0:0:0:
64,192,147033,1,0,0:0:0:0:
448,192,147243,128,0,147767:0:0:0:0:
320,192,147347,1,0,0:0:0:0:
64,192,147452,128,0,147767:0:0:0:0:
192,192,147452,1,0,0:0:0:0:
320,192,147662,1,0,0:0:0:0:
192,192,147662,1,0,0:0:0:0:
448,192,147872,1,0,0:0:0:0:
320,192,147872,1,0,0:0:0:0:
64,192,147872,1,0,0:0:0:0:
192,192,148082,1,0,0:0:0:0:
448,192,148292,1,0,0:0:0:0:
64,192,148292,1,0,0:0:0:0:
320,192,148292,128,0,148396:0:0:0:0:
192,192,148501,128,0,148606:0:0:0:0:
320,192,148501,1,0,0:0:0:0:
64,192,148711,128,0,149026:0:0:0:0:
192,192,148711,1,0,0:0:0:0:
448,192,148711,1,0,0:0:0:0:
448,192,148921,128,0,149026:0:0:0:0:
192,192,149026,1,0,0:0:0:0:
320,192,149131,128,0,149445:0:0:0:0:
448,192,149131,1,0,0:0:0:0:
192,192,149340,1,0,0:0:0:0:
64,192,149340,1,0,0:0:0:0:
192,192,149550,128,0,149655:0:0:0:0:
320,192,149550,1,0,0:0:0:0:
448,192,149550,1,0,0:0:0:0:
320,192,149760,128,0,149865:0:0:0:0:
448,192,149970,128,0,150285:0:0:0:0:
192,192,149970,1,0,0:0:0:0:
192,192,150180,1,0,0:0:0:0:
64,192,150180,1,0,0:0:0:0:
320,192,150389,128,0,150494:0:0:0:0:
448,192,150389,1,0,0:0:0:0:
64,192,150389,1,0,0:0:0:0:
192,192,150599,128,0,150704:0:0:0:0:
320,192,150704,1,0,0:0:0:0:
448,192,150704,1,0,0:0:0:0:
64,192,150809,128,0,151124:0:0:0:0:
192,192,150809,1,0,0:0:0:0:
320,192,151019,1,0,0:0:0:0:
448,192,151019,1,0,0:0:0:0:
192,192,151229,128,0,151333:0:0:0:0:
448,192,151229,1,0,0:0:0:0:
64,192,151229,1,0,0:0:0:0:
320,192,151438,128,0,151543:0:0:0:0:
448,192,151438,1,0,0:0:0:0:
64,192,151543,1,0,0:0:0:0:
448,192,151648,128,0,151963:0:0:0:0:
192,192,151648,1,0,0:0:0:0:
320,192,151648,1,0,0:0:0:0:
320,192,151858,1,0,0:0:0:0:
64,192,151858,1,0,0:0:0:0:
448,192,152068,1,0,0:0:0:0:
192,192,152068,1,0,0:0:0:0:
64,192,152068,1,0,0:0:0:0:
64,192,152278,128,0,152802:0:0:0:0:
448,192,152382,1,0,0:0:0:0:
192,192,152487,128,0,152802:0:0:0:0:
320,192,152487,1,0,0:0:0:0:
320,192,152697,1,0,0:0:0:0:
448,192,152697,1,0,0:0:0:0:
448,192,152907,5,0,0:0:0:0:
192,192,152907,1,0,0:0:0:0:
64,192,152907,1,0,0:0:0:0:
320,192,153117,128,0,153641:0:0:0:0:
448,192,153326,128,0,153641:0:0:0:0:
64,192,153326,1,0,0:0:0:0:
192,192,153536,1,0,0:0:0:0:
64,192,153536,1,0,0:0:0:0:
192,192,153746,1,0,0:0:0:0:
320,192,153746,1,0,0:0:0:0:
448,192,153746,1,0,0:0:0:0:
448,192,153956,5,0,0:0:0:0:
192,192,154061,5,0,0:0:0:0:
64,192,154061,1,0,0:0:0:0:
320,192,154166,5,0,0:0:0:0:
448,192,154166,1,0,0:0:0:0:
192,192,154271,1,0,0:0:0:0:
64,192,154271,1,0,0:0:0:0:
448,192,154375,1,0,0:0:0:0:
320,192,154375,1,0,0:0:0:0:
192,192,154480,5,0,0:0:0:0:
64,192,154585,1,0,0:0:0:0:
448,192,154585,1,0,0:0:0:0:
320,192,154690,1,0,0:0:0:0:
192,192,154690,1,0,0:0:0:0:
64,192,154795,1,0,0:0:0:0:
448,192,154795,1,0,0:0:0:0:
320,192,154900,1,0,0:0:0:0:
448,192,155005,1,0,0:0:0:0:
64,192,155005,1,0,0:0:0:0:
192,192,155005,128,0,155319:0:0:0:0:
320,192,155215,1,0,0:0:0:0:
448,192,155215,1,0,0:0:0:0:
192,192,155424,5,0,0:0:0:0:
320,192,155424,1,0,0:0:0:0:
64,192,155424,1,0,0:0:0:0:
64,192,155634,128,0,155739:0:0:0:0:
192,192,155634,128,0,155739:0:0:0:0:
448,192,155844,128,0,158257:0:0:0:0:
64,192,155844,128,0,155949:0:0:0:0:
192,192,156054,128,0,156159:0:0:0:0:
320,192,156054,1,0,0:0:0:0:
192,192,156264,128,0,156368:0:0:0:0:
64,192,156264,1,0,0:0:0:0:
320,192,156473,128,0,156578:0:0:0:0:
320,192,156683,128,0,156788:0:0:0:0:
64,192,156683,1,0,0:0:0:0:
192,192,156893,128,0,156998:0:0:0:0:
64,192,156893,1,0,0:0:0:0:
192,192,157103,128,0,157208:0:0:0:0:
320,192,157103,1,0,0:0:0:0:
64,192,157313,128,0,157417:0:0:0:0:
64,192,157522,128,0,157627:0:0:0:0:
320,192,157522,1,0,0:0:0:0:
192,192,157732,128,0,157837:0:0:0:0:
320,192,157732,1,0,0:0:0:0:
192,192,157942,128,0,158047:0:0:0:0:
64,192,157942,1,0,0:0:0:0:
320,192,158152,128,0,158257:0:0:0:0:
320,192,158361,128,0,158466:0:0:0:0:
64,192,158361,1,0,0:0:0:0:
192,192,158571,128,0,158676:0:0:0:0:
448,192,158571,1,0,0:0:0:0:
64,192,158781,128,0,158886:0:0:0:0:
320,192,158781,1,0,0:0:0:0:
448,192,158781,1,0,0:0:0:0:
192,192,158991,128,0,159096:0:0:0:0:
320,192,159201,128,0,159306:0:0:0:0:
64,192,159201,1,0,0:0:0:0:
448,192,159410,128,0,159515:0:0:0:0:
192,192,159410,1,0,0:0:0:0:
320,192,159620,128,0,159725:0:0:0:0:
64,192,159620,1,0,0:0:0:0:
448,192,159620,1,0,0:0:0:0:
192,192,159830,128,0,159935:0:0:0:0:
320,192,160006,128,0,160318:0:0:0:0:
64,192,160006,1,0,0:0:0:0:
448,192,160006,1,0,0:0:0:0:
192,192,160214,1,0,0:0:0:0:
64,192,160214,1,0,0:0:0:0:
448,192,160318,1,0,0:0:0:0:
192,192,160422,128,0,160735:0:0:0:0:
320,192,160422,1,0,0:0:0:0:
64,192,160422,1,0,0:0:0:0:
64,192,160631,1,0,0:0:0:0:
448,192,160631,1,0,0:0:0:0:
320,192,160735,1,0,0:0:0:0:
64,192,160839,128,0,161151:0:0:0:0:
192,192,160839,1,0,0:0:0:0:
448,192,160839,1,0,0:0:0:0:
320,192,161047,1,0,0:0:0:0:
448,192,161047,1,0,0:0:0:0:
192,192,161151,1,0,0:0:0:0:
448,192,161256,128,0,161568:0:0:0:0:
64,192,161256,1,0,0:0:0:0:
320,192,161360,1,0,0:0:0:0:
192,192,161464,1,0,0:0:0:0:
64,192,161464,1,0,0:0:0:0:
320,192,161568,1,0,0:0:0:0:
192,192,161672,1,0,0:0:0:0:
448,192,161672,1,0,0:0:0:0:
64,192,161672,128,0,162401:0:0:0:0:
320,192,161881,1,0,0:0:0:0:
448,192,161881,1,0,0:0:0:0:
192,192,162089,1,0,0:0:0:0:
320,192,162089,1,0,0:0:0:0:
448,192,162089,1,0,0:0:0:0:
192,192,162297,1,0,0:0:0:0:
448,192,162401,1,0,0:0:0:0:
320,192,162401,1,0,0:0:0:0:
192,192,162506,128,0,163235:0:0:0:0:
64,192,162506,1,0,0:0:0:0:
320,192,162714,1,0,0:0:0:0:
448,192,162714,1,0,0:0:0:0:
64,192,162922,1,0,0:0:0:0:
320,192,162922,1,0,0:0:0:0:
448,192,162922,1,0,0:0:0:0:
320,192,163131,1,0,0:0:0:0:
448,192,163235,1,0,0:0:0:0:
64,192,163235,1,0,0:0:0:0:
320,192,163339,128,0,163547:0:0:0:0:
192,192,163339,1,0,0:0:0:0:
192,192,163547,1,0,0:0:0:0:
64,192,163547,1,0,0:0:0:0:
448,192,163756,128,0,163860:0:0:0:0:
64,192,163756,1,0,0:0:0:0:
320,192,163756,1,0,0:0:0:0:
320,192,163964,128,0,164068:0:0:0:0:
64,192,164068,1,0,0:0:0:0:
448,192,164068,1,0,0:0:0:0:
192,192,164172,128,0,164381:0:0:0:0:
320,192,164172,1,0,0:0:0:0:
64,192,164381,1,0,0:0:0:0:
448,192,164381,1,0,0:0:0:0:
320,192,164589,128,0,164693:0:0:0:0:
192,192,164589,1,0,0:0:0:0:
64,192,164589,1,0,0:0:0:0:
192,192,164797,128,0,164901:0:0:0:0:
320,192,164901,1,0,0:0:0:0:
448,192,164901,1,0,0:0:0:0:
64,192,165006,128,0,165422:0:0:0:0:
192,192,165006,1,0,0:0:0:0:
320,192,165214,1,0,0:0:0:0:
448,192,165214,1,0,0:0:0:0:
192,192,165422,1,0,0:0:0:0:
320,192,165422,1,0,0:0:0:0:
448,192,165422,1,0,0:0:0:0:
192,192,165631,1,0,0:0:0:0:
64,192,165735,1,0,0:0:0:0:
320,192,165735,1,0,0:0:0:0:
448,192,165839,128,0,166568:0:0:0:0:
192,192,165839,1,0,0:0:0:0:
320,192,166047,1,0,0:0:0:0:
64,192,166047,1,0,0:0:0:0:
64,192,166256,1,0,0:0:0:0:
192,192,166256,1,0,0:0:0:0:
320,192,166256,1,0,0:0:0:0:
64,192,166464,1,0,0:0:0:0:
320,192,166568,1,0,0:0:0:0:
192,192,166568,1,0,0:0:0:0:
64,192,166672,128,0,166985:0:0:0:0:
448,192,166672,1,0,0:0:0:0:
320,192,166881,1,0,0:0:0:0:
448,192,166881,1,0,0:0:0:0:
192,192,167089,128,0,167193:0:0:0:0:
64,192,167089,1,0,0:0:0:0:
448,192,167089,1,0,0:0:0:0:
320,192,167297,128,0,167401:0:0:0:0:
192,192,167401,1,0,0:0:0:0:
64,192,167401,1,0,0:0:0:0:
448,192,167506,128,0,167922:0:0:0:0:
320,192,167506,1,0,0:0:0:0:
192,192,167714,1,0,0:0:0:0:
64,192,167714,1,0,0:0:0:0:
320,192,167922,128,0,168131:0:0:0:0:
64,192,167922,1,0,0:0:0:0:
192,192,167922,1,0,0:0:0:0:
192,192,168131,128,0,168339:0:0:0:0:
64,192,168235,1,0,0:0:0:0:
320,192,168339,128,0,168651:0:0:0:0:
448,192,168339,1,0,0:0:0:0:
192,192,168547,1,0,0:0:0:0:
64,192,168547,1,0,0:0:0:0:
64,192,168756,1,0,0:0:0:0:
320,192,168756,1,0,0:0:0:0:
448,192,168756,1,0,0:0:0:0:
192,192,168964,1,0,0:0:0:0:
320,192,169068,1,0,0:0:0:0:
448,192,169068,1,0,0:0:0:0:
192,192,169172,1,0,0:0:0:0:
64,192,169172,128,0,169485:0:0:0:0:
320,192,169381,1,0,0:0:0:0:
448,192,169381,1,0,0:0:0:0:
192,192,169589,128,0,169901:0:0:0:0:
64,192,169589,1,0,0:0:0:0:
448,192,169589,1,0,0:0:0:0:
320,192,169797,1,0,0:0:0:0:
448,192,169901,1,0,0:0:0:0:
64,192,169901,1,0,0:0:0:0:
320,192,170006,128,0,170318:0:0:0:0:
192,192,170006,1,0,0:0:0:0:
192,192,170214,1,0,0:0:0:0:
64,192,170214,1,0,0:0:0:0:
448,192,170422,128,0,170735:0:0:0:0:
320,192,170422,1,0,0:0:0:0:
64,192,170422,1,0,0:0:0:0:
320,192,170631,1,0,0:0:0:0:
192,192,170735,1,0,0:0:0:0:
64,192,170735,1,0,0:0:0:0:
320,192,170839,128,0,171151:0:0:0:0:
448,192,170839,1,0,0:0:0:0:
64,192,171047,1,0,0:0:0:0:
192,192,171047,1,0,0:0:0:0:
192,192,171256,128,0,171568:0:0:0:0:
320,192,171256,1,0,0:0:0:0:
448,192,171256,1,0,0:0:0:0:
64,192,171464,1,0,0:0:0:0:
320,192,171568,1,0,0:0:0:0:
448,192,171568,1,0,0:0:0:0:
64,192,171672,128,0,172401:0:0:0:0:
192,192,171672,1,0,0:0:0:0:
320,192,171881,1,0,0:0:0:0:
448,192,171881,1,0,0:0:0:0:
192,192,172089,1,0,0:0:0:0:
320,192,172089,1,0,0:0:0:0:
448,192,172089,1,0,0:0:0:0:
192,192,172297,1,0,0:0:0:0:
320,192,172401,1,0,0:0:0:0:
448,192,172401,1,0,0:0:0:0:
192,192,172506,128,0,173026:0:0:0:0:
64,192,172506,1,0,0:0:0:0:
320,192,172714,1,0,0:0:0:0:
448,192,172714,1,0,0:0:0:0:
64,192,172922,1,0,0:0:0:0:
320,192,172922,1,0,0:0:0:0:
448,192,172922,1,0,0:0:0:0:
320,192,173131,128,0,173651:0:0:0:0:
192,192,173235,1,0,0:0:0:0:
448,192,173339,128,0,173651:0:0:0:0:
64,192,173339,1,0,0:0:0:0:
192,192,173547,1,0,0:0:0:0:
64,192,173547,1,0,0:0:0:0:
192,192,173756,1,0,0:0:0:0:
320,192,173756,1,0,0:0:0:0:
448,192,173756,1,0,0:0:0:0:
64,192,173964,1,0,0:0:0:0:
448,192,174068,1,0,0:0:0:0:
320,192,174068,1,0,0:0:0:0:
64,192,174172,128,0,174485:0:0:0:0:
192,192,174172,1,0,0:0:0:0:
320,192,174276,1,0,0:0:0:0:
192,192,174381,1,0,0:0:0:0:
448,192,174381,1,0,0:0:0:0:
320,192,174485,1,0,0:0:0:0:
448,192,174589,128,0,174901:0:0:0:0:
64,192,174589,1,0,0:0:0:0:
192,192,174693,1,0,0:0:0:0:
320,192,174797,1,0,0:0:0:0:
64,192,174797,1,0,0:0:0:0:
192,192,174901,1,0,0:0:0:0:
320,192,175006,128,0,175318:0:0:0:0:
448,192,175006,1,0,0:0:0:0:
64,192,175006,1,0,0:0:0:0:
192,192,175214,1,0,0:0:0:0:
64,192,175214,1,0,0:0:0:0:
192,192,175422,1,0,0:0:0:0:
320,192,175422,1,0,0:0:0:0:
448,192,175422,1,0,0:0:0:0:
64,192,175631,128,0,175735:0:0:0:0:
320,192,175735,1,0,0:0:0:0:
192,192,175735,1,0,0:0:0:0:
448,192,175839,128,0,175943:0:0:0:0:
64,192,175839,1,0,0:0:0:0:
320,192,176047,128,0,176151:0:0:0:0:
192,192,176047,1,0,0:0:0:0:
192,192,176256,128,0,176360:0:0:0:0:
64,192,176256,1,0,0:0:0:0:
448,192,176256,1,0,0:0:0:0:
320,192,176464,128,0,176568:0:0:0:0:
64,192,176568,1,0,0:0:0:0:
192,192,176568,1,0,0:0:0:0:
448,192,176672,128,0,176985:0:0:0:0:
320,192,176672,1,0,0:0:0:0:
192,192,176881,1,0,0:0:0:0:
64,192,176881,1,0,0:0:0:0:
64,192,177089,1,0,0:0:0:0:
320,192,177089,1,0,0:0:0:0:
448,192,177089,1,0,0:0:0:0:
192,192,177297,128,0,177401:0:0:0:0:
64,192,177401,1,0,0:0:0:0:
448,192,177401,1,0,0:0:0:0:
320,192,177506,128,0,177610:0:0:0:0:
192,192,177506,1,0,0:0:0:0:
448,192,177714,128,0,177818:0:0:0:0:
64,192,177714,1,0,0:0:0:0:
320,192,177922,128,0,178026:0:0:0:0:
192,192,177922,1,0,0:0:0:0:
64,192,177922,1,0,0:0:0:0:
192,192,178131,128,0,178235:0:0:0:0:
320,192,178235,1,0,0:0:0:0:
448,192,178235,1,0,0:0:0:0:
64,192,178339,128,0,178651:0:0:0:0:
192,192,178339,1,0,0:0:0:0:
448,192,178547,128,0,178651:0:0:0:0:
320,192,178547,1,0,0:0:0:0:
320,192,178756,128,0,178860:0:0:0:0:
192,192,178756,1,0,0:0:0:0:
64,192,178756,1,0,0:0:0:0:
192,192,178964,128,0,179068:0:0:0:0:
320,192,179068,1,0,0:0:0:0:
448,192,179068,1,0,0:0:0:0:
64,192,179172,128,0,179485:0:0:0:0:
192,192,179172,1,0,0:0:0:0:
320,192,179381,1,0,0:0:0:0:
448,192,179381,1,0,0:0:0:0:
448,192,179589,128,0,179901:0:0:0:0:
192,192,179589,1,0,0:0:0:0:
64,192,179589,1,0,0:0:0:0:
64,192,179797,1,0,0:0:0:0:
192,192,179901,1,0,0:0:0:0:
320,192,179901,1,0,0:0:0:0:
64,192,180006,128,0,180735:0:0:0:0:
448,192,180006,1,0,0:0:0:0:
320,192,180214,1,0,0:0:0:0:
448,192,180214,1,0,0:0:0:0:
192,192,180422,1,0,0:0:0:0:
320,192,180422,1,0,0:0:0:0:
448,192,180422,1,0,0:0:0:0:
192,192,180631,1,0,0:0:0:0:
320,192,180735,1,0,0:0:0:0:
448,192,180735,1,0,0:0:0:0:
192,192,180839,1,0,0:0:0:0:
64,192,180839,1,0,0:0:0:0:
320,192,180943,1,0,0:0:0:0:
448,192,181047,1,0,0:0:0:0:
64,192,181047,1,0,0:0:0:0:
320,192,181151,1,0,0:0:0:0:
192,192,181151,1,0,0:0:0:0:
64,192,181256,1,0,0:0:0:0:
448,192,181256,1,0,0:0:0:0:
192,192,181360,1,0,0:0:0:0:
320,192,181464,1,0,0:0:0:0:
448,192,181464,1,0,0:0:0:0:
192,192,181568,1,0,0:0:0:0:
64,192,181568,1,0,0:0:0:0:
448,192,181672,1,0,0:0:0:0:
320,192,181672,128,0,181985:0:0:0:0:
192,192,181881,1,0,0:0:0:0:
64,192,181881,1,0,0:0:0:0:
192,192,182089,128,0,182401:0:0:0:0:
320,192,182089,1,0,0:0:0:0:
448,192,182089,1,0,0:0:0:0:
64,192,182297,1,0,0:0:0:0:
320,192,182401,1,0,0:0:0:0:
448,192,182401,1,0,0:0:0:0:
64,192,182506,128,0,182818:0:0:0:0:
192,192,182506,1,0,0:0:0:0:
320,192,182714,1,0,0:0:0:0:
448,192,182714,1,0,0:0:0:0:
64,192,182922,1,0,0:0:0:0:
448,192,182922,1,0,0:0:0:0:
192,192,182922,128,0,183235:0:0:0:0:
320,192,183131,1,0,0:0:0:0:
448,192,183235,1,0,0:0:0:0:
64,192,183235,1,0,0:0:0:0:
320,192,183339,128,0,183860:0:0:0:0:
192,192,183339,1,0,0:0:0:0:
192,192,183547,1,0,0:0:0:0:
64,192,183547,1,0,0:0:0:0:
64,192,183756,1,0,0:0:0:0:
448,192,183756,1,0,0:0:0:0:
192,192,183756,1,0,0:0:0:0:
448,192,183964,128,0,184172:0:0:0:0:
320,192,184068,1,0,0:0:0:0:
192,192,184172,1,0,0:0:0:0:
64,192,184172,1,0,0:0:0:0:
320,192,184276,1,0,0:0:0:0:
448,192,184276,1,0,0:0:0:0:
192,192,184381,1,0,0:0:0:0:
64,192,184381,1,0,0:0:0:0:
448,192,184485,1,0,0:0:0:0:
320,192,184485,1,0,0:0:0:0:
192,192,184589,1,0,0:0:0:0:
64,192,184589,1,0,0:0:0:0:
320,192,184693,1,0,0:0:0:0:
448,192,184693,1,0,0:0:0:0:
192,192,184797,1,0,0:0:0:0:
64,192,184797,1,0,0:0:0:0:
320,192,184901,1,0,0:0:0:0:
448,192,185006,1,0,0:0:0:0:
192,192,185006,1,0,0:0:0:0:
64,192,185006,128,0,185526:0:0:0:0:
320,192,185214,1,0,0:0:0:0:
448,192,185214,1,0,0:0:0:0:
192,192,185422,1,0,0:0:0:0:
320,192,185422,1,0,0:0:0:0:
448,192,185422,1,0,0:0:0:0:
192,192,185631,128,0,185735:0:0:0:0:
320,192,185735,128,0,185839:0:0:0:0:
64,192,185735,1,0,0:0:0:0:
448,192,185839,128,0,185943:0:0:0:0:
192,192,185839,1,0,0:0:0:0:
320,192,186047,128,0,186151:0:0:0:0:
64,192,186047,1,0,0:0:0:0:
192,192,186256,128,0,186360:0:0:0:0:
320,192,186256,1,0,0:0:0:0:
448,192,186256,1,0,0:0:0:0:
64,192,186464,128,0,186568:0:0:0:0:
448,192,186672,128,0,187193:0:0:0:0:
64,192,186672,1,0,0:0:0:0:
192,192,186881,1,0,0:0:0:0:
320,192,186881,1,0,0:0:0:0:
64,192,187089,128,0,187193:0:0:0:0:
320,192,187089,1,0,0:0:0:0:
192,192,187193,128,0,187297:0:0:0:0:
320,192,187297,128,0,187401:0:0:0:0:
192,192,187401,128,0,187506:0:0:0:0:
64,192,187401,1,0,0:0:0:0:
320,192,187506,128,0,187818:0:0:0:0:
448,192,187506,1,0,0:0:0:0:
192,192,187714,1,0,0:0:0:0:
64,192,187714,1,0,0:0:0:0:
64,192,187922,1,0,0:0:0:0:
448,192,187922,1,0,0:0:0:0:
320,192,187922,1,0,0:0:0:0:
192,192,188131,128,0,188235:0:0:0:0:
320,192,188235,128,0,188339:0:0:0:0:
448,192,188339,128,0,188651:0:0:0:0:
64,192,188339,1,0,0:0:0:0:
320,192,188547,1,0,0:0:0:0:
192,192,188547,1,0,0:0:0:0:
64,192,188756,1,0,0:0:0:0:
320,192,188756,1,0,0:0:0:0:
448,192,188756,1,0,0:0:0:0:
64,192,188964,128,0,189068:0:0:0:0:
192,192,189068,128,0,189172:0:0:0:0:
448,192,189068,1,0,0:0:0:0:
320,192,189172,128,0,189381:0:0:0:0:
64,192,189172,1,0,0:0:0:0:
448,192,189381,128,0,189485:0:0:0:0:
192,192,189381,1,0,0:0:0:0:
320,192,189485,128,0,189589:0:0:0:0:
192,192,189589,128,0,189797:0:0:0:0:
64,192,189589,1,0,0:0:0:0:
448,192,189589,1,0,0:0:0:0:
320,192,189797,128,0,189901:0:0:0:0:
192,192,189901,128,0,190006:0:0:0:0:
64,192,190006,128,0,190318:0:0:0:0:
448,192,190006,1,0,0:0:0:0:
192,192,190214,1,0,0:0:0:0:
320,192,190214,1,0,0:0:0:0:
64,192,190422,1,0,0:0:0:0:
320,192,190422,1,0,0:0:0:0:
448,192,190422,1,0,0:0:0:0:
192,192,190526,128,0,190631:0:0:0:0:
320,192,190631,128,0,190735:0:0:0:0:
192,192,190735,128,0,190839:0:0:0:0:
448,192,190735,1,0,0:0:0:0:
64,192,190839,128,0,190943:0:0:0:0:
320,192,190839,1,0,0:0:0:0:
192,192,190943,128,0,191047:0:0:0:0:
64,192,191047,1,0,0:0:0:0:
320,192,191047,128,0,191151:0:0:0:0:
448,192,191151,128,0,191256:0:0:0:0:
320,192,191256,128,0,191360:0:0:0:0:
64,192,191256,1,0,0:0:0:0:
192,192,191360,128,0,191464:0:0:0:0:
320,192,191464,128,0,191568:0:0:0:0:
448,192,191464,1,0,0:0:0:0:
192,192,191568,128,0,191672:0:0:0:0:
64,192,191672,128,0,192401:0:0:0:0:
448,192,191672,1,0,0:0:0:0:
320,192,191672,128,0,191776:0:0:0:0:
192,192,191776,128,0,191881:0:0:0:0:
448,192,191881,128,0,191985:0:0:0:0:
320,192,191985,128,0,192089:0:0:0:0:
448,192,192089,128,0,192193:0:0:0:0:
192,192,192089,128,0,192193:0:0:0:0:
320,192,192193,128,0,192297:0:0:0:0:
192,192,192297,128,0,192401:0:0:0:0:
320,192,192401,128,0,192506:0:0:0:0:
448,192,192401,128,0,192506:0:0:0:0:
192,192,192506,128,0,193235:0:0:0:0:
64,192,192506,128,0,192610:0:0:0:0:
320,192,192610,128,0,192714:0:0:0:0:
448,192,192714,128,0,192818:0:0:0:0:
64,192,192818,128,0,192922:0:0:0:0:
320,192,192922,128,0,193026:0:0:0:0:
448,192,192922,128,0,193026:0:0:0:0:
64,192,193026,128,0,193131:0:0:0:0:
320,192,193131,128,0,193235:0:0:0:0:
448,192,193235,128,0,193339:0:0:0:0:
320,192,193339,128,0,194068:0:0:0:0:
64,192,193339,128,0,193443:0:0:0:0:
192,192,193443,128,0,193547:0:0:0:0:
448,192,193547,128,0,193651:0:0:0:0:
64,192,193651,128,0,193756:0:0:0:0:
192,192,193756,128,0,193860:0:0:0:0:
448,192,193756,128,0,193860:0:0:0:0:
64,192,193860,128,0,193964:0:0:0:0:
448,192,193964,128,0,194068:0:0:0:0:
192,192,194068,128,0,194172:0:0:0:0:
64,192,194068,128,0,194172:0:0:0:0:
448,192,194172,128,0,194901:0:0:0:0:
320,192,194172,128,0,194276:0:0:0:0:
192,192,194276,128,0,194381:0:0:0:0:
64,192,194381,128,0,194485:0:0:0:0:
320,192,194485,128,0,194589:0:0:0:0:
192,192,194589,128,0,194693:0:0:0:0:
64,192,194589,128,0,194693:0:0:0:0:
320,192,194693,128,0,194797:0:0:0:0:
64,192,194797,128,0,194901:0:0:0:0:
192,192,194901,128,0,195006:0:0:0:0:
64,192,195006,128,0,196151:0:0:0:0:
320,192,195006,128,0,195110:0:0:0:0:
448,192,195110,128,0,195214:0:0:0:0:
320,192,195214,128,0,195318:0:0:0:0:
192,192,195318,128,0,195422:0:0:0:0:
320,192,195422,128,0,195526:0:0:0:0:
448,192,195422,128,0,195526:0:0:0:0:
192,192,195526,128,0,195631:0:0:0:0:
320,192,195631,128,0,195735:0:0:0:0:
448,192,195631,128,0,195735:0:0:0:0:
192,192,195735,128,0,195839:0:0:0:0:
320,192,195839,128,0,195943:0:0:0:0:
448,192,195943,128,0,196047:0:0:0:0:
192,192,195943,128,0,196047:0:0:0:0:
320,192,196047,128,0,196151:0:0:0:0:
192,192,196151,128,0,196256:0:0:0:0:
448,192,196256,128,0,196568:0:0:0:0:
320,192,196256,128,0,196360:0:0:0:0:
64,192,196256,128,0,196360:0:0:0:0:
192,192,196360,128,0,196464:0:0:0:0:
320,192,196464,128,0,196568:0:0:0:0:
64,192,196568,1,0,0:0:0:0:
192,192,196568,1,0,0:0:0:0:
448,192,196672,1,0,0:0:0:0:
320,192,196672,1,0,0:0:0:0:
192,192,196776,1,0,0:0:0:0:
64,192,196776,1,0,0:0:0:0:
448,192,196881,1,0,0:0:0:0:
320,192,196881,1,0,0:0:0:0:
192,192,196933,1,0,0:0:0:0:
448,192,196985,1,0,0:0:0:0:
64,192,196985,1,0,0:0:0:0:
320,192,197089,1,0,0:0:0:0:
64,192,197193,1,0,0:0:0:0:
192,192,197193,1,0,0:0:0:0:
448,192,197297,1,0,0:0:0:0:
320,192,197297,1,0,0:0:0:0:
192,192,197401,1,0,0:0:0:0:
64,192,197401,1,0,0:0:0:0:
448,192,197506,1,0,0:0:0:0:
320,192,197506,1,0,0:0:0:0:
64,192,197610,1,0,0:0:0:0:
192,192,197610,1,0,0:0:0:0:
320,192,197714,1,0,0:0:0:0:
448,192,197714,1,0,0:0:0:0:
64,192,197818,1,0,0:0:0:0:
192,192,197818,1,0,0:0:0:0:
448,192,197922,1,0,0:0:0:0:
320,192,197922,1,0,0:0:0:0:
192,192,198026,1,0,0:0:0:0:
64,192,198026,1,0,0:0:0:0:
448,192,198131,1,0,0:0:0:0:
320,192,198131,1,0,0:0:0:0:
192,192,198235,1,0,0:0:0:0:
320,192,198339,1,0,0:0:0:0:
64,192,198339,1,0,0:0:0:0:
448,192,198339,128,0,199068:0:0:0:0:
192,192,198547,1,0,0:0:0:0:
64,192,198547,1,0,0:0:0:0:
320,192,198756,1,0,0:0:0:0:
192,192,198756,1,0,0:0:0:0:
64,192,198756,1,0,0:0:0:0:
320,192,198964,1,0,0:0:0:0:
64,192,199068,1,0,0:0:0:0:
192,192,199068,1,0,0:0:0:0:
320,192,199172,128,0,199901:0:0:0:0:
448,192,199172,1,0,0:0:0:0:
192,192,199381,1,0,0:0:0:0:
64,192,199381,1,0,0:0:0:0:
448,192,199589,1,0,0:0:0:0:
192,192,199589,1,0,0:0:0:0:
64,192,199589,1,0,0:0:0:0:
192,192,199797,1,0,0:0:0:0:
64,192,199901,1,0,0:0:0:0:
448,192,199901,1,0,0:0:0:0:
192,192,200006,128,0,200214:0:0:0:0:
320,192,200006,1,0,0:0:0:0:
320,192,200214,1,0,0:0:0:0:
448,192,200214,1,0,0:0:0:0:
64,192,200422,128,0,200526:0:0:0:0:
448,192,200422,1,0,0:0:0:0:
192,192,200422,1,0,0:0:0:0:
192,192,200631,128,0,200735:0:0:0:0:
448,192,200735,1,0,0:0:0:0:
64,192,200735,1,0,0:0:0:0:
320,192,200839,128,0,201047:0:0:0:0:
192,192,200839,1,0,0:0:0:0:
448,192,201047,1,0,0:0:0:0:
64,192,201047,1,0,0:0:0:0:
192,192,201256,128,0,201360:0:0:0:0:
320,192,201256,1,0,0:0:0:0:
448,192,201256,1,0,0:0:0:0:
320,192,201464,128,0,201568:0:0:0:0:
192,192,201568,1,0,0:0:0:0:
64,192,201568,1,0,0:0:0:0:
448,192,201672,128,0,202089:0:0:0:0:
320,192,201672,1,0,0:0:0:0:
192,192,201881,1,0,0:0:0:0:
64,192,201881,1,0,0:0:0:0:
320,192,202089,1,0,0:0:0:0:
192,192,202089,1,0,0:0:0:0:
64,192,202089,1,0,0:0:0:0:
320,192,202297,1,0,0:0:0:0:
448,192,202401,1,0,0:0:0:0:
192,192,202401,1,0,0:0:0:0:
64,192,202506,128,0,203235:0:0:0:0:
320,192,202506,1,0,0:0:0:0:
192,192,202714,1,0,0:0:0:0:
448,192,202714,1,0,0:0:0:0:
448,192,202922,1,0,0:0:0:0:
320,192,202922,1,0,0:0:0:0:
192,192,202922,1,0,0:0:0:0:
448,192,203131,1,0,0:0:0:0:
192,192,203235,1,0,0:0:0:0:
320,192,203235,1,0,0:0:0:0:
448,192,203339,128,0,203651:0:0:0:0:
64,192,203339,1,0,0:0:0:0:
192,192,203547,1,0,0:0:0:0:
64,192,203547,1,0,0:0:0:0:
320,192,203756,128,0,203860:0:0:0:0:
448,192,203756,1,0,0:0:0:0:
64,192,203756,1,0,0:0:0:0:
192,192,203964,128,0,204068:0:0:0:0:
320,192,204068,1,0,0:0:0:0:
448,192,204068,1,0,0:0:0:0:
64,192,204172,128,0,204485:0:0:0:0:
192,192,204172,1,0,0:0:0:0:
320,192,204381,1,0,0:0:0:0:
448,192,204381,1,0,0:0:0:0:
192,192,204589,128,0,204797:0:0:0:0:
448,192,204589,1,0,0:0:0:0:
64,192,204589,1,0,0:0:0:0:
320,192,204797,128,0,205006:0:0:0:0:
448,192,204901,1,0,0:0:0:0:
192,192,205006,128,0,205318:0:0:0:0:
64,192,205006,1,0,0:0:0:0:
320,192,205214,1,0,0:0:0:0:
448,192,205214,1,0,0:0:0:0:
448,192,205422,1,0,0:0:0:0:
192,192,205422,1,0,0:0:0:0:
64,192,205422,1,0,0:0:0:0:
320,192,205631,1,0,0:0:0:0:
192,192,205735,1,0,0:0:0:0:
64,192,205735,1,0,0:0:0:0:
320,192,205839,1,0,0:0:0:0:
448,192,205839,128,0,206151:0:0:0:0:
192,192,206047,1,0,0:0:0:0:
64,192,206047,1,0,0:0:0:0:
320,192,206256,128,0,206568:0:0:0:0:
448,192,206256,1,0,0:0:0:0:
64,192,206256,1,0,0:0:0:0:
192,192,206464,1,0,0:0:0:0:
64,192,206568,1,0,0:0:0:0:
448,192,206568,1,0,0:0:0:0:
192,192,206672,128,0,206985:0:0:0:0:
320,192,206672,1,0,0:0:0:0:
320,192,206881,1,0,0:0:0:0:
448,192,206881,1,0,0:0:0:0:
64,192,207089,128,0,207401:0:0:0:0:
192,192,207089,1,0,0:0:0:0:
448,192,207089,1,0,0:0:0:0:
192,192,207297,1,0,0:0:0:0:
320,192,207401,1,0,0:0:0:0:
448,192,207401,1,0,0:0:0:0:
192,192,207506,128,0,207818:0:0:0:0:
64,192,207506,1,0,0:0:0:0:
448,192,207714,1,0,0:0:0:0:
320,192,207714,1,0,0:0:0:0:
320,192,207922,128,0,208235:0:0:0:0:
192,192,207922,1,0,0:0:0:0:
64,192,207922,1,0,0:0:0:0:
448,192,208131,1,0,0:0:0:0:
192,192,208235,1,0,0:0:0:0:
64,192,208235,1,0,0:0:0:0:
448,192,208339,128,0,209068:0:0:0:0:
320,192,208339,1,0,0:0:0:0:
192,192,208547,1,0,0:0:0:0:
64,192,208547,1,0,0:0:0:0:
320,192,208756,1,0,0:0:0:0:
192,192,208756,1,0,0:0:0:0:
64,192,208756,1,0,0:0:0:0:
320,192,208964,1,0,0:0:0:0:
192,192,209068,1,0,0:0:0:0:
64,192,209068,1,0,0:0:0:0:
320,192,209172,128,0,209693:0:0:0:0:
448,192,209172,1,0,0:0:0:0:
192,192,209381,1,0,0:0:0:0:
64,192,209381,1,0,0:0:0:0:
448,192,209589,1,0,0:0:0:0:
192,192,209589,1,0,0:0:0:0:
64,192,209589,1,0,0:0:0:0:
192,192,209797,128,0,210318:0:0:0:0:
320,192,209901,1,0,0:0:0:0:
64,192,210006,128,0,210318:0:0:0:0:
448,192,210006,1,0,0:0:0:0:
320,192,210214,1,0,0:0:0:0:
448,192,210214,1,0,0:0:0:0:
320,192,210422,1,0,0:0:0:0:
192,192,210422,1,0,0:0:0:0:
64,192,210422,1,0,0:0:0:0:
448,192,210631,1,0,0:0:0:0:
64,192,210735,1,0,0:0:0:0:
192,192,210735,1,0,0:0:0:0:
448,192,210839,128,0,211151:0:0:0:0:
320,192,210839,1,0,0:0:0:0:
192,192,210943,1,0,0:0:0:0:
320,192,211047,1,0,0:0:0:0:
64,192,211047,1,0,0:0:0:0:
192,192,211151,1,0,0:0:0:0:
64,192,211256,128,0,211568:0:0:0:0:
448,192,211256,1,0,0:0:0:0:
320,192,211360,1,0,0:0:0:0:
192,192,211464,1,0,0:0:0:0:
448,192,211464,1,0,0:0:0:0:
320,192,211568,1,0,0:0:0:0:
192,192,211672,128,0,211985:0:0:0:0:
64,192,211672,1,0,0:0:0:0:
448,192,211672,1,0,0:0:0:0:
320,192,211881,1,0,0:0:0:0:
448,192,211881,1,0,0:0:0:0:
320,192,212089,1,0,0:0:0:0:
192,192,212089,1,0,0:0:0:0:
64,192,212089,1,0,0:0:0:0:
448,192,212297,128,0,212401:0:0:0:0:
192,192,212401,1,0,0:0:0:0:
64,192,212401,1,0,0:0:0:0:
320,192,212506,128,0,212610:0:0:0:0:
448,192,212506,1,0,0:0:0:0:
192,192,212714,128,0,212818:0:0:0:0:
448,192,212714,1,0,0:0:0:0:
320,192,212922,128,0,213026:0:0:0:0:
192,192,212922,1,0,0:0:0:0:
64,192,212922,1,0,0:0:0:0:
192,192,213131,128,0,213235:0:0:0:0:
448,192,213235,1,0,0:0:0:0:
320,192,213235,1,0,0:0:0:0:
64,192,213339,128,0,213651:0:0:0:0:
192,192,213339,1,0,0:0:0:0:
320,192,213547,1,0,0:0:0:0:
448,192,213547,1,0,0:0:0:0:
448,192,213756,1,0,0:0:0:0:
192,192,213756,1,0,0:0:0:0:
64,192,213756,1,0,0:0:0:0:
320,192,213964,128,0,214068:0:0:0:0:
448,192,214068,1,0,0:0:0:0:
64,192,214068,1,0,0:0:0:0:
192,192,214172,128,0,214276:0:0:0:0:
320,192,214172,1,0,0:0:0:0:
64,192,214381,128,0,214485:0:0:0:0:
448,192,214381,1,0,0:0:0:0:
192,192,214589,128,0,214693:0:0:0:0:
320,192,214589,1,0,0:0:0:0:
448,192,214589,1,0,0:0:0:0:
320,192,214797,128,0,214901:0:0:0:0:
192,192,214901,1,0,0:0:0:0:
64,192,214901,1,0,0:0:0:0:
448,192,215006,128,0,215318:0:0:0:0:
320,192,215006,1,0,0:0:0:0:
192,192,215214,1,0,0:0:0:0:
64,192,215214,1,0,0:0:0:0:
320,192,215422,128,0,215526:0:0:0:0:
64,192,215422,1,0,0:0:0:0:
448,192,215422,1,0,0:0:0:0:
192,192,215631,128,0,215735:0:0:0:0:
320,192,215631,1,0,0:0:0:0:
64,192,215839,128,0,216151:0:0:0:0:
192,192,215839,1,0,0:0:0:0:
448,192,215839,1,0,0:0:0:0:
320,192,216047,1,0,0:0:0:0:
448,192,216256,128,0,216568:0:0:0:0:
64,192,216256,1,0,0:0:0:0:
192,192,216464,1,0,0:0:0:0:
64,192,216672,128,0,217818:0:0:0:0:
320,192,216672,1,0,0:0:0:0:
448,192,216672,1,0,0:0:0:0:
448,192,217089,1,0,0:0:0:0:
448,192,217506,1,0,0:0:0:0:
448,192,217714,1,0,0:0:0:0:
192,192,217714,1,0,0:0:0:0:
320,192,217818,1,0,0:0:0:0:
64,192,217922,1,0,0:0:0:0:
192,192,217922,1,0,0:0:0:0:
448,192,217922,128,0,218651:0:0:0:0:
64,192,218131,1,0,0:0:0:0:
320,192,218131,1,0,0:0:0:0:
320,192,218339,128,0,218651:0:0:0:0:
192,192,218339,1,0,0:0:0:0:
64,192,218339,1,0,0:0:0:0:
192,192,218547,1,0,0:0:0:0:
64,192,218547,1,0,0:0:0:0:
192,192,218756,128,0,219068:0:0:0:0:
320,192,218756,1,0,0:0:0:0:
448,192,218756,1,0,0:0:0:0:
64,192,218964,1,0,0:0:0:0:
448,192,219068,1,0,0:0:0:0:
320,192,219068,1,0,0:0:0:0:
64,192,219172,128,0,219485:0:0:0:0:
192,192,219172,1,0,0:0:0:0:
320,192,219381,1,0,0:0:0:0:
448,192,219381,1,0,0:0:0:0:
192,192,219589,128,0,219901:0:0:0:0:
64,192,219589,1,0,0:0:0:0:
448,192,219589,1,0,0:0:0:0:
320,192,219797,1,0,0:0:0:0:
64,192,219901,1,0,0:0:0:0:
448,192,219901,1,0,0:0:0:0:
320,192,220006,128,0,220526:0:0:0:0:
192,192,220006,1,0,0:0:0:0:
192,192,220214,1,0,0:0:0:0:
64,192,220214,1,0,0:0:0:0:
64,192,220422,1,0,0:0:0:0:
192,192,220422,1,0,0:0:0:0:
448,192,220422,1,0,0:0:0:0:
448,192,220631,128,0,221151:0:0:0:0:
64,192,220735,1,0,0:0:0:0:
320,192,220839,128,0,221151:0:0:0:0:
192,192,220839,1,0,0:0:0:0:
192,192,221047,1,0,0:0:0:0:
64,192,221047,1,0,0:0:0:0:
64,192,221256,1,0,0:0:0:0:
320,192,221256,1,0,0:0:0:0:
448,192,221256,1,0,0:0:0:0:
64,192,221464,128,0,223964:0:0:0:0:
448,192,221568,1,0,0:0:0:0:
192,192,221672,128,0,223964:0:0:0:0:
320,192,221672,1,0,0:0:0:0:
448,192,221881,1,0,0:0:0:0:
448,192,222089,1,0,0:0:0:0:
320,192,222089,1,0,0:0:0:0:
448,192,222297,1,0,0:0:0:0:
320,192,222401,1,0,0:0:0:0:
448,192,222506,1,0,0:0:0:0:
320,192,222714,1,0,0:0:0:0:
448,192,222922,1,0,0:0:0:0:
320,192,222922,1,0,0:0:0:0:
320,192,223131,1,0,0:0:0:0:
448,192,223235,1,0,0:0:0:0:
320,192,223339,1,0,0:0:0:0:
448,192,223547,1,0,0:0:0:0:
320,192,223756,1,0,0:0:0:0:
448,192,223756,1,0,0:0:0:0:
320,192,223964,1,0,0:0:0:0:
192,192,224068,1,0,0:0:0:0:
64,192,224068,1,0,0:0:0:0:
320,192,224172,1,0,0:0:0:0:
448,192,224172,1,0,0:0:0:0:
192,192,224381,1,0,0:0:0:0:
320,192,224485,1,0,0:0:0:0:
448,192,224485,1,0,0:0:0:0:
192,192,224589,1,0,0:0:0:0:
64,192,224589,1,0,0:0:0:0:
320,192,224797,128,0,224901:0:0:0:0:
448,192,224901,1,0,0:0:0:0:
192,192,225006,128,0,225113:0:0:0:0:
64,192,225006,128,0,225756:0:0:0:0:
320,192,225220,128,0,225327:0:0:0:0:
448,192,225434,128,0,225756:0:0:0:0:
192,192,225863,128,0,226640:0:0:0:0:
320,192,225863,128,0,226196:0:0:0:0:
448,192,226307,128,0,226418:0:0:0:0:
64,192,226529,128,0,226640:0:0:0:0:
320,192,226751,128,0,227558:0:0:0:0:
448,192,226751,128,0,227097:0:0:0:0:
192,192,227212,128,0,227327:0:0:0:0:
64,192,227443,128,0,227558:0:0:0:0:
448,192,227674,128,0,228549:0:0:0:0:
192,192,227674,128,0,228174:0:0:0:0:
320,192,228424,128,0,228549:0:0:0:0:
64,192,228674,128,0,230340:0:0:0:0:
192,192,228674,128,0,229007:0:0:0:0:
320,192,229118,128,0,229451:0:0:0:0:
448,192,229562,128,0,229896:0:0:0:0:
320,192,230007,128,0,230340:0:0:0:0:
448,192,230451,128,0,233462:0:0:0:0:
192,192,230451,128,0,230951:0:0:0:0:
320,192,231138,128,0,232165:0:0:0:0:
192,192,231451,128,0,232165:0:0:0:0:
64,192,232308,128,0,236650:0:0:0:0:
192,192,232593,128,0,236650:0:0:0:0:
448,192,237230,128,0,251999:0:0:0:0:
320,192,237230,128,0,251999:0:0:0:0:
64,192,237230,128,0,251999:0:0:0:0:
