osu file format v14

[General]
AudioFilename: audio.mp3
AudioLeadIn: 0
PreviewTime: 187498
Countdown: 0
SampleSet: Soft
StackLeniency: 0.7
Mode: 0
LetterboxInBreaks: 0
WidescreenStoryboard: 1

[Editor]
Bookmarks: 273,35394,52955,93931,137833,164175,187590,216858,228565,243199,254907,263687,275394
DistanceSpacing: 1
BeatDivisor: 4
GridSize: 32
TimelineZoom: 2

[Metadata]
Title:Shukumei
TitleUnicode:宿命
Artist:Official HIGE DANdism
ArtistUnicode:Official髭男dism
Creator:alevi
Version:Kyoukasinn's Hard
Source:熱闘甲子園
Tags:shiwakaze kyouren gokugohan12468 kittyadventure sinn Traveler ヒゲダン HIGEDAN 楢崎誠 小笹大輔 藤原聡 松浦匡希 Satoshi Fujihara Daisuke Ozasa Makoto Narazaki Masaki Matsuura agehasprings Koichi Tsutaya jpop pop j-pop japanese fighting spirit fate 2019 ABC Summer High School Baseball Support Theme Song Atsushi Netto Nettoh Koshien abcasahi TV Arashi 2019ABC夏の高校野球応援ソング 夏の高校野球応援ソング テーマ・ソング
BeatmapID:3759008
BeatmapSetID:1773551

[Difficulty]
HPDrainRate:5
CircleSize:3.5
OverallDifficulty:6.5
ApproachRate:8
SliderMultiplier:1.64
SliderTickRate:1

[Events]
//Background and Video events
0,0,"78987902_p0.jpg",0,0
//Break Periods
//Storyboard Layer 0 (Background)
//Storyboard Layer 1 (Fail)
//Storyboard Layer 2 (Pass)
//Storyboard Layer 3 (Foreground)
//Storyboard Layer 4 (Overlay)
//Storyboard Sound Samples

[TimingPoints]
273,365.853658536585,4,2,1,70,1,0
273,-100,4,2,1,70,0,0
2285,-100,4,2,1,60,0,0
3199,-100,4,2,1,70,0,0
5303,-100,4,2,1,60,0,0
6126,-100,4,2,1,70,0,0
10151,-100,4,2,1,70,0,0
11980,-133.333333333333,4,2,2,50,0,0
13077,-133.333333333333,4,2,2,50,0,0
34297,-133.333333333333,4,2,1,55,0,0
35394,-117.647058823529,4,2,1,60,0,0
52955,-117.647058823529,4,2,1,65,0,0
53687,-117.647058823529,4,2,1,65,0,0
54053,-117.647058823529,4,2,1,65,0,0
54602,-117.647058823529,4,2,1,65,0,0
55516,-117.647058823529,4,2,1,70,0,0
57346,-133.333333333333,4,2,1,60,0,0
58077,-200,4,2,1,60,0,0
58809,-90.9090909090909,4,2,1,80,0,1
69053,-90.9090909090909,4,2,1,80,0,1
69419,-90.9090909090909,4,2,1,80,0,1
70151,-90.9090909090909,4,2,1,80,0,1
70516,-90.9090909090909,4,2,1,80,0,1
79297,-90.9090909090909,4,2,1,80,0,1
80029,-90.9090909090909,4,2,1,80,0,1
80394,-90.9090909090909,4,2,1,80,0,1
82224,-90.9090909090909,4,2,1,80,0,1
82955,-90.9090909090909,4,2,1,80,0,1
83321,-90.9090909090909,4,2,1,80,0,1
88077,-125,4,2,1,70,0,0
90272,-125,4,2,1,60,0,0
91004,-166.666666666667,4,2,1,50,0,0
92833,-125,4,2,1,50,0,0
93199,-125,4,2,1,55,0,0
93931,-111.111111111111,4,2,1,60,0,0
114419,-100,4,2,1,60,0,0
134541,-100,4,2,1,70,0,0
136370,-90.9090909090909,4,2,1,70,0,0
137833,-90.9090909090909,4,2,1,80,0,1
164175,-100,4,2,1,70,0,0
187590,-133.333333333333,4,2,1,50,0,0
198931,-133.333333333333,4,2,1,55,0,0
199297,-117.647058823529,4,2,1,60,0,0
214663,-90.9090909090909,4,2,1,70,0,0
216126,-90.9090909090909,4,2,1,60,0,0
216858,-90.9090909090909,4,2,1,80,0,1
243199,-95.2380952380952,4,2,1,70,0,0
260029,-133.333333333333,4,2,1,60,0,0
262955,-117.647058823529,4,2,1,70,0,0
263687,-90.9090909090909,4,2,1,80,0,0
269541,-90.9090909090909,4,2,1,70,0,0
272468,-90.9090909090909,4,2,1,60,0,0

[Colours]
Combo1 : 183,122,243
Combo2 : 140,244,244
Combo3 : 68,145,238

[HitObjects]
30,30,273,6,0,P|56:61|64:100,1,82,4|2,3:2|0:0,0:0:0:0:
32,185,638,1,2,0:0:0:0:
101,242,821,1,2,0:0:0:0:
179,196,1004,2,0,B|274:186|250:224|340:212,1,164,10|6,0:0|3:2,0:0:0:0:
405,149,1553,5,2,0:0:0:0:
485,189,1736,2,0,P|476:229|471:269,1,82,2|2,0:0|0:0,0:0:0:0:
410,337,2102,2,0,P|369:342|329:350,1,82,2|8,0:0|0:3,0:0:0:0:
288,330,2376,1,8,0:3:0:0:
288,330,2468,2,0,P|247:321|207:316,1,82,8|4,0:3|0:3,0:0:0:0:
123,350,2833,2,0,P|82:355|42:363,1,82,4|4,0:3|0:3,0:0:0:0:
28,274,3199,6,0,P|68:265|108:260,1,82,4|2,3:2|0:0,0:0:0:0:
171,194,3565,1,2,0:0:0:0:
122,117,3748,2,0,P|122:96|122:76,1,41,2|2,3:2|0:0,0:0:0:0:
160,49,3931,2,0,B|255:39|231:77|321:65,1,164,10|6,0:0|3:2,0:0:0:0:
400,22,4480,5,2,0:0:0:0:
469,79,4663,2,0,P|495:109|494:149,1,82,2|2,0:0|0:0,0:0:0:0:
493,240,5029,2,0,P|453:229|412:224,1,82,2|0,0:0|3:0,0:0:0:0:
373,246,5303,1,0,3:0:0:0:
373,246,5394,2,0,P|381:306|385:355,1,109.333333333333,10|0,0:0|3:0,0:0:0:0:
254,335,5943,2,0,P|233:337|213:339,1,41,2|2,0:0|0:0,0:0:0:0:
171,356,6126,6,0,P|167:315|162:274,2,82,6|2|2,3:2|0:0|0:0,0:0:0:0:
80,346,6675,1,2,3:2:0:0:
30,270,6858,2,0,P|26:229|21:188,1,82,10|2,0:0|0:0,0:0:0:0:
11,98,7224,2,0,B|103:103|81:138|167:143,1,164,6|0,3:2|0:0,0:0:0:0:
228,77,7772,5,2,3:2:0:0:
228,77,7864,1,2,0:0:0:0:
228,77,7955,2,0,P|266:90|290:122,1,82,2|0,0:0|3:0,0:0:0:0:
344,195,8321,2,0,P|305:208|281:240,1,82,8|2,0:0|3:2,0:0:0:0:
235,246,8596,1,2,0:0:0:0:
235,246,8687,2,0,P|239:286|242:327,1,82,2|2,0:0|0:0,0:0:0:0:
155,350,9053,6,0,P|148:268|139:186,1,164,6|0,3:2|0:0,0:0:0:0:
63,136,9602,1,2,0:3:0:0:
118,64,9785,2,0,B|150:41|150:41|191:55,1,82,8|2,0:0|0:0,0:0:0:0:
229,77,10059,1,2,0:0:0:0:
229,77,10151,2,0,L|392:68,1,164,6|0,3:2|0:0,0:0:0:0:
472,25,10699,5,2,0:3:0:0:
507,107,10882,1,2,0:3:0:0:
443,170,11065,1,2,0:3:0:0:
509,230,11248,2,0,P|497:269|489:309,1,82,8|0,0:0|0:0,0:0:0:0:
411,355,11614,2,0,P|371:343|331:335,1,82,2|2,0:3|0:3,0:0:0:0:
291,356,11888,1,2,0:3:0:0:
291,356,11980,6,0,P|281:295|272:234,1,123.000004692078,2|0,0:0|0:0,0:0:0:0:
320,162,12529,1,2,0:0:0:0:
320,162,12712,2,0,P|323:131|319:101,1,61.5000023460389,8|2,0:0|0:0,0:0:0:0:
274,27,13077,2,0,P|357:96|500:85,1,246.000009384156,2|0,0:0|0:0,0:0:0:0:
505,262,14175,2,0,P|477:275|456:298,1,61.5000023460389,8|2,0:0|0:0,0:0:0:0:
386,348,14541,1,2,0:0:0:0:
315,298,14724,1,2,0:0:0:0:
256,361,14907,6,0,B|196:356|208:326|141:319,1,123.000004692078,2|2,0:0|0:0,0:0:0:0:
61,350,15455,1,2,0:0:0:0:
61,350,15638,2,0,P|58:319|55:288,1,61.5000023460389,8|2,0:0|0:0,0:0:0:0:
14,212,16004,2,0,B|155:202|89:139|239:129,1,246.000009384156,2|0,0:0|0:0,0:0:0:0:
381,31,17102,2,0,P|438:39|453:95,1,123.000004692078,10|2,0:0|0:0,0:0:0:0:
449,267,17833,6,0,B|389:262|401:232|334:225,1,123.000004692078,2|2,0:0|0:0,0:0:0:0:
256,261,18382,1,2,0:0:0:0:
256,261,18565,2,0,L|260:322,1,61.5000023460389,8|2,0:0|0:0,0:0:0:0:
181,358,18931,2,0,P|68:321|33:208,1,246.000009384156,2|0,0:0|0:0,0:0:0:0:
154,85,20029,2,0,L|158:146,1,61.5000023460389,10|0,0:0|0:0,0:0:0:0:
244,143,20394,2,0,L|239:81,1,61.5000023460389,2|0,0:0|0:0,0:0:0:0:
310,32,20760,6,0,B|375:38|363:68|423:73,1,123.000004692078,2|2,0:0|0:0,0:0:0:0:
487,132,21309,1,2,0:0:0:0:
487,132,21492,2,0,B|498:162|498:162|484:188,1,61.5000023460389,10|2,0:0|0:0,0:0:0:0:
506,272,21858,2,0,B|380:264|402:346|274:336,1,246.000009384156,2|0,0:0|0:0,0:0:0:0:
200,292,22772,1,2,0:0:0:0:
200,292,22955,2,0,P|187:319|186:350,2,61.5000023460389,10|2|2,0:0|0:0|0:0,0:0:0:0:
58,192,23687,6,0,P|118:192|167:157,1,123.000004692078,2|0,0:0|0:0,0:0:0:0:
202,77,24236,1,2,0:0:0:0:
202,77,24419,2,0,L|263:82,1,61.5000023460389,8|2,0:0|0:0,0:0:0:0:
326,22,24785,2,0,B|399:56|399:56|365:218,1,246.000009384156,2|0,0:0|0:0,0:0:0:0:
256,351,25882,2,0,P|228:338|197:334,1,61.5000023460389,8|2,0:0|0:0,0:0:0:0:
120,374,26248,1,2,0:0:0:0:
37,348,26431,1,2,0:0:0:0:
28,262,26614,6,0,B|35:206|35:206|33:205|33:205|41:140,1,123.000004692078,2|2,0:0|0:0,0:0:0:0:
14,58,27163,1,2,0:0:0:0:
14,58,27346,2,0,L|75:53,1,61.5000023460389,8|2,0:0|0:0,0:0:0:0:
156,23,27712,2,0,B|255:30|255:30|280:64|280:64|384:71,1,246.000009384156,2|0,0:0|0:0,0:0:0:0:
507,192,28809,2,0,L|493:314,1,123.000004692078,10|2,0:0|0:0,0:0:0:0:
328,366,29541,6,0,L|341:243,1,123.000004692078,2|2,0:0|0:0,0:0:0:0:
274,189,30090,1,2,0:0:0:0:
274,189,30272,2,0,P|243:191|217:207,1,61.5000023460389,10|0,0:0|0:0,0:0:0:0:
180,285,30638,2,0,P|125:184|13:209,1,246.000009384156,2|0,0:0|0:0,0:0:0:0:
33,38,31736,2,0,L|94:43,1,61.5000023460389,10|0,0:0|0:0,0:0:0:0:
172,81,32102,2,0,L|233:75,1,61.5000023460389,2|0,0:0|0:0,0:0:0:0:
309,35,32468,6,0,B|374:41|362:71|422:76,1,123.000004692078,2|2,0:0|0:0,0:0:0:0:
488,132,33016,1,2,0:0:0:0:
488,132,33199,2,0,L|482:193,1,61.5000023460389,10|2,0:0|0:0,0:0:0:0:
421,254,33565,2,0,B|322:261|322:261|297:295|297:295|192:302,1,246.000009384156,2|2,0:0|0:0,0:0:0:0:
121,351,34480,1,2,0:0:0:0:
39,324,34663,1,10,0:0:0:0:
35,237,34846,1,2,0:0:0:0:
108,192,35029,2,0,L|105:130,1,61.5000023460389,2|0,0:0|0:0,0:0:0:0:
184,57,35394,5,0,1:2:0:0:
252,149,35577,2,0,P|292:138|336:134,1,69.700001329422,2|2,0:0|0:0,0:0:0:0:
403,78,35943,1,2,1:2:0:0:
403,78,36126,2,0,P|410:160|418:235,1,139.400002658844,10|0,0:0|1:2,0:0:0:0:
337,281,36675,2,0,P|326:241|320:197,1,69.700001329422,2|2,0:0|0:0,0:0:0:0:
257,147,37041,1,2,1:2:0:0:
257,147,37224,6,0,B|175:135|199:176|111:160,1,139.400002658844,2|8,0:0|0:0,0:0:0:0:
31,199,37772,2,0,L|23:112,2,69.700001329422,2|2|2,0:0|1:2|0:0,0:0:0:0:
11,308,38321,2,0,P|83:275|155:302,1,139.400002658844,2|2,1:2|0:0,0:0:0:0:
211,341,38870,2,0,B|293:353|269:312|357:328,1,139.400002658844,2|2,1:2|0:0,0:0:0:0:
428,366,39419,6,0,B|390:329|390:329|410:233,1,139.400002658844,2|0,1:2|0:0,0:0:0:0:
385,158,39968,2,0,P|348:135|312:135,1,69.700001329422,2|2,1:2|0:0,0:0:0:0:
241,194,40333,1,2,0:0:0:0:
241,194,40516,2,0,P|213:160|124:163,1,139.400002658844,10|2,0:0|1:2,0:0:0:0:
52,108,41065,1,2,0:0:0:0:
52,108,41248,1,0,1:2:0:0:
103,17,41431,6,0,P|143:28|187:32,1,69.700001329422,2|2,0:0|0:0,0:0:0:0:
250,75,41797,1,2,1:2:0:0:
250,75,41980,2,0,P|331:65|406:54,1,139.400002658844,10|0,0:0|1:2,0:0:0:0:
462,10,42529,2,0,P|473:50|479:94,1,69.700001329422,2|2,0:0|0:0,0:0:0:0:
469,172,42895,1,2,1:2:0:0:
469,172,43078,6,0,B|387:160|411:201|323:185,1,139.400002658844,2|8,0:0|0:0,0:0:0:0:
258,240,43626,2,0,P|226:251|178:250,2,69.700001329422,2|2|2,0:0|1:2|1:2,0:0:0:0:
325,297,44175,2,0,P|365:310|409:308,1,69.700001329422,2|2,1:2|0:0,0:0:0:0:
480,353,44541,1,2,0:0:0:0:
480,353,44724,2,0,B|500:272|457:292|482:206,1,139.400002658844,2|2,1:2|0:0,0:0:0:0:
510,117,45272,2,0,P|448:140|370:103,1,139.400002658844,2|0,1:2|0:0,0:0:0:0:
318,47,45821,6,0,B|291:27|291:27|248:40,1,69.700001329422,2|2,1:2|0:0,0:0:0:0:
214,66,46096,1,2,0:0:0:0:
214,66,46187,1,2,0:0:0:0:
263,138,46370,2,0,P|269:192|269:226,1,69.700001329422,10|2,0:0|1:2,0:0:0:0:
327,276,46736,2,0,P|369:264|402:262,1,69.700001329422,2|2,1:2|0:0,0:0:0:0:
450,190,47102,1,2,1:2:0:0:
404,108,47285,6,0,P|364:119|320:123,1,69.700001329422,2|2,0:0|0:0,0:0:0:0:
227,171,47651,1,2,1:2:0:0:
227,171,47834,2,0,P|255:126|219:41,1,139.400002658844,10|0,0:0|1:2,0:0:0:0:
141,1,48383,2,0,P|130:41|124:85,1,69.700001329422,2|2,0:0|0:0,0:0:0:0:
90,156,48749,1,2,1:2:0:0:
90,156,48932,6,0,B|172:144|148:185|236:169,1,139.400002658844,2|8,0:0|0:0,0:0:0:0:
362,132,49663,2,0,L|361:82,3,34.850000664711,0|0|0|0,1:0|1:0|1:0|1:0,0:0:0:0:
395,163,50029,2,0,P|411:199|405:246,1,69.700001329422,0|2,1:0|0:0,0:0:0:0:
365,310,50394,1,2,0:0:0:0:
365,310,50577,1,2,1:2:0:0:
291,364,50761,6,0,B|210:342|229:385|144:359,1,139.400002658844,10|2,0:0|1:2,0:0:0:0:
85,303,51309,1,2,0:0:0:0:
85,303,51492,2,0,P|78:263|81:225,1,69.700001329422,2|2,0:0|1:2,0:0:0:0:
122,148,51858,6,0,B|154:132|154:132|192:141,1,69.700001329422,2|0,0:0|1:2,0:0:0:0:
269,185,52224,1,10,0:0:0:0:
321,116,52407,1,2,0:0:0:0:
274,48,52590,2,0,P|222:30|191:16,1,69.700001329422,2|2,1:2|0:0,0:0:0:0:
115,11,52955,6,0,P|130:79|122:148,1,139.400002658844,2|0,1:2|0:0,0:0:0:0:
56,210,53504,1,2,1:2:0:0:
56,210,53687,2,0,P|48:243|54:278,1,69.700001329422,8|0,0:0|0:0,0:0:0:0:
134,320,54053,2,0,B|252:304|220:367|335:353,1,209.100003988266,2|2,1:2|1:2,0:0:0:0:
469,230,54968,1,2,0:0:0:0:
469,230,55059,1,2,0:0:0:0:
469,230,55151,2,0,P|436:190|386:180,1,104.550001994133,10|0,0:0|0:0,0:0:0:0:
344,197,55516,2,0,L|350:266,1,69.700001329422,2|0,1:2|0:0,0:0:0:0:
261,245,55882,6,0,L|254:175,1,69.700001329422,0|0,1:2|1:2,0:0:0:0:
270,85,56248,2,0,L|200:91,1,69.700001329422,0|0,1:2|0:0,0:0:0:0:
125,39,56614,1,8,0:0:0:0:
49,89,56797,5,0,1:0:0:0:
49,89,56888,1,0,1:0:0:0:
49,89,56980,2,0,L|55:158,1,69.700001329422,0|0,1:0|1:0,0:0:0:0:
28,194,57254,1,0,1:0:0:0:
28,194,57346,1,2,0:0:0:0:
207,308,58077,6,0,L|210:348,2,41,2|2|2,0:0|0:0|0:0,0:0:0:0:
207,308,58809,6,0,B|307:314|286:354|378:356,1,180.400005505371,6|2,3:2|0:0,0:0:0:0:
454,307,59358,1,2,0:0:0:0:
396,237,59541,2,0,P|393:191|391:146,1,90.2000027526856,10|0,0:0|0:0,0:0:0:0:
455,83,59907,1,2,3:2:0:0:
379,34,60090,6,0,B|279:40|300:80|207:82,1,180.400005505371,2|2,0:0|0:0,0:0:0:0:
124,47,60638,2,0,P|79:44|43:70,1,90.2000027526856,2|2,0:0|3:2,0:0:0:0:
74,155,61004,2,0,L|68:245,1,90.2000027526856,10|0,0:0|0:0,0:0:0:0:
16,319,61370,1,2,0:0:0:0:
16,319,61553,1,2,0:0:0:0:
94,363,61736,6,0,P|180:357|221:281,1,180.400005505371,6|2,3:2|0:0,0:0:0:0:
278,211,62285,1,2,0:0:0:0:
354,259,62468,2,0,P|398:254|443:252,1,90.2000027526856,10|0,0:0|0:0,0:0:0:0:
504,185,62833,1,2,3:2:0:0:
454,109,63016,6,0,B|391:109|391:109|355:66|355:66|293:68,1,180.400005505371,2|2,0:0|0:0,0:0:0:0:
213,26,63565,1,2,0:0:0:0:
158,98,63748,1,2,3:2:0:0:
83,45,63931,2,0,P|42:63|23:103,1,90.2000027526856,10|2,0:0|3:2,0:0:0:0:
77,176,64297,2,0,P|60:217|75:258,1,90.2000027526856,2|2,0:0|0:0,0:0:0:0:
24,333,64663,5,6,3:2:0:0:
105,372,64846,2,0,P|185:332|273:339,1,180.400005505371,2|0,0:0|0:0,0:0:0:0:
358,371,65394,2,0,P|382:333|378:289,1,90.2000027526856,10|0,0:0|0:0,0:0:0:0:
318,222,65760,1,2,3:2:0:0:
390,167,65943,6,0,P|469:153|488:55,1,180.400005505371,2|2,0:0|0:0,0:0:0:0:
415,17,66492,1,2,0:0:0:0:
415,17,66583,1,2,0:0:0:0:
415,17,66675,1,2,3:2:0:0:
335,58,66858,2,0,P|290:51|245:48,1,90.2000027526856,10|2,0:0|0:0,0:0:0:0:
164,88,67224,1,2,0:0:0:0:
164,88,67407,1,2,3:2:0:0:
86,41,67590,5,2,3:2:0:0:
12,92,67772,2,0,P|41:177|48:266,1,180.400005505371,2|0,0:0|0:0,0:0:0:0:
22,353,68321,2,0,L|156:342,1,135.300004129028,10|0,0:0|0:0,0:0:0:0:
193,316,68687,2,0,L|327:326,1,135.300004129028,2|0,0:0|0:0,0:0:0:0:
366,350,69053,6,0,P|408:300|394:237,1,135.300004129028,6|0,3:2|0:0,0:0:0:0:
351,222,69419,2,0,P|336:158|379:109,1,135.300004129028,6|0,3:2|0:0,0:0:0:0:
406,72,69785,2,0,P|340:82|286:45,1,135.300004129028,14|0,3:2|0:0,0:0:0:0:
241,36,70151,2,0,P|175:25|121:62,1,135.300004129028,6|0,3:2|0:0,0:0:0:0:
80,43,70516,6,0,P|110:127|123:216,1,180.400005505371,6|2,3:2|0:0,0:0:0:0:
77,295,71065,1,2,0:0:0:0:
148,349,71248,2,0,P|200:349|227:316,1,90.2000027526856,10|2,0:0|0:0,0:0:0:0:
241,281,71522,1,2,0:0:0:0:
241,281,71614,6,0,L|420:297,1,180.400005505371,2|0,3:2|0:0,0:0:0:0:
486,235,72163,1,2,0:0:0:0:
439,157,72346,2,0,B|395:165|395:165|359:136,1,90.2000027526856,2|2,0:0|3:2,0:0:0:0:
279,94,72712,2,0,B|235:86|235:86|199:114,1,90.2000027526856,10|0,0:0|0:0,0:0:0:0:
132,175,73077,1,2,0:0:0:0:
132,175,73260,1,2,0:0:0:0:
76,246,73443,6,0,P|67:156|33:73,1,180.400005505371,6|2,3:2|0:0,0:0:0:0:
104,17,73992,1,2,0:0:0:0:
193,24,74175,2,0,P|237:18|281:9,1,90.2000027526856,10|0,0:0|0:0,0:0:0:0:
359,55,74541,1,2,3:2:0:0:
441,19,74724,6,0,P|484:94|451:174,1,180.400005505371,2|10,0:0|0:0,0:0:0:0:
364,196,75272,1,2,0:0:0:0:
381,284,75455,1,2,0:0:0:0:
312,342,75638,2,0,P|266:344|222:350,1,90.2000027526856,10|2,0:0|3:2,0:0:0:0:
153,290,76004,2,0,P|150:244|144:200,1,90.2000027526856,2|2,0:0|0:0,0:0:0:0:
65,156,76370,5,6,3:2:0:0:
119,84,76553,2,0,B|211:82|190:42|290:36,1,180.400005505371,2|0,0:0|0:0,0:0:0:0:
379,16,77102,2,0,P|373:60|366:105,1,90.2000027526856,10|2,0:0|0:0,0:0:0:0:
392,142,77376,1,2,0:0:0:0:
392,142,77468,1,2,3:2:0:0:
481,127,77651,6,0,P|486:171|493:216,1,90.2000027526856,2|0,0:0|0:0,0:0:0:0:
449,295,78016,1,2,0:0:0:0:
365,260,78199,2,0,P|322:246|278:253,1,90.2000027526856,2|2,0:0|3:2,0:0:0:0:
214,317,78565,2,0,P|171:330|127:323,1,90.2000027526856,10|0,0:0|0:0,0:0:0:0:
52,271,78931,1,2,0:0:0:0:
52,271,79114,1,2,0:0:0:0:
112,204,79297,6,0,L|91:24,1,180.400005505371,6|0,3:2|0:0,0:0:0:0:
182,29,79846,1,2,0:0:0:0:
270,44,80029,2,0,L|280:133,1,90.2000027526856,8|2,0:0|0:0,0:0:0:0:
321,152,80303,1,2,0:0:0:0:
321,152,80394,6,0,P|235:165|203:245,1,180.400005505371,2|2,3:2|0:0,0:0:0:0:
219,288,80852,1,2,0:0:0:0:
219,288,80943,1,10,0:0:0:0:
298,330,81126,2,0,P|342:323|387:318,1,90.2000027526856,0|0,0:0|3:0,0:0:0:0:
471,352,81492,2,0,P|483:281|512:175,1,180.400005505371,10|2,0:0|0:3,0:0:0:0:
488,88,82041,1,2,0:0:0:0:
399,107,82224,6,0,P|325:58|239:75,1,180.400005505371,6|2,3:2|0:3,0:0:0:0:
153,48,82772,1,2,0:0:0:0:
133,136,82955,2,0,P|95:159|50:164,1,90.2000027526856,8|2,0:0|0:3,0:0:0:0:
9,143,83230,1,2,0:3:0:0:
9,143,83321,6,0,L|22:322,1,180.400005505371,6|2,3:2|0:3,0:0:0:0:
102,364,83870,1,8,0:0:0:0:
180,319,84053,2,0,P|218:342|262:344,1,90.2000027526856,2|0,0:0|3:0,0:0:0:0:
314,269,84419,2,0,P|357:258|390:228,1,90.2000027526856,10|0,0:0|0:0,0:0:0:0:
376,139,84785,2,0,P|399:100|401:56,1,90.2000027526856,2|2,0:0|0:3,0:0:0:0:
320,15,85151,6,0,B|223:20|254:66|153:73,1,180.400005505371,6|0,3:2|0:0,0:0:0:0:
77,23,85699,1,2,0:0:0:0:
4,76,85882,1,10,0:0:0:0:
42,163,86065,1,2,0:3:0:0:
42,163,86157,1,2,0:3:0:0:
42,163,86248,6,0,B|139:168|108:214|208:221,1,180.400005505371,0|2,3:0|0:3,0:0:0:0:
274,283,86797,1,8,0:0:0:0:
345,228,86980,2,0,P|351:183|359:139,1,90.2000027526856,0|0,0:0|3:0,0:0:0:0:
377,50,87346,2,0,P|332:43|288:35,1,90.2000027526856,8|2,0:0|0:3,0:0:0:0:
197,24,87712,1,2,0:3:0:0:
197,24,87894,1,0,0:0:0:0:
110,55,88077,6,0,P|78:46|45:43,2,65.6,8|0|0,0:1|1:0|1:0,0:0:0:0:
118,147,88626,2,0,P|89:163|64:184,2,65.6,8|0|0,0:1|1:0|1:0,0:0:0:0:
197,194,89175,2,0,P|188:225|185:258,2,65.6,8|0|0,0:1|1:0|1:0,0:0:0:0:
288,180,89724,2,0,P|304:208|325:233,2,65.6,8|0|0,0:1|1:0|1:0,0:0:0:0:
302,136,90181,1,0,1:0:0:0:
302,136,90272,1,4,0:3:0:0:
490,20,91004,5,2,0:0:0:0:
440,90,91553,1,2,0:0:0:0:
354,109,91919,1,2,0:0:0:0:
354,109,92102,1,2,0:0:0:0:
270,80,92833,6,0,P|207:81|173:134,1,131.2,2|8,0:0|0:1,0:0:0:0:
226,202,93382,1,2,1:2:0:0:
162,258,93565,2,0,P|168:290|173:322,1,65.6,2|2,0:0|0:0,0:0:0:0:
245,371,93931,6,0,P|319:352|399:343,1,147.599995495606,2|2,1:2|0:0,0:0:0:0:
452,271,94480,1,2,0:0:0:0:
452,271,94663,2,0,P|415:266|379:257,1,73.7999977478028,8|2,0:0|0:0,0:0:0:0:
298,205,95029,1,2,1:2:0:0:
385,164,95212,2,0,P|396:118|398:10,1,147.599995495606,2|0,0:0|1:0,0:0:0:0:
303,10,95760,2,0,P|310:32|316:86,1,73.7999977478028,0|2,1:0|0:0,0:0:0:0:
244,146,96126,2,0,P|207:142|173:122,1,73.7999977478028,10|0,0:0|0:0,0:0:0:0:
115,55,96492,1,2,0:0:0:0:
115,55,96858,6,0,P|134:107|133:208,1,147.599995495606,2|2,1:2|0:0,0:0:0:0:
72,271,97407,1,2,0:0:0:0:
72,271,97590,2,0,P|106:292|146:297,1,73.7999977478028,8|2,0:0|0:0,0:0:0:0:
209,361,97955,2,0,P|240:315|265:217,1,147.599995495606,2|0,1:2|0:0,0:0:0:0:
230,143,98504,1,0,1:0:0:0:
230,143,98687,2,0,P|221:106|218:63,1,73.7999977478028,0|0,1:0|0:0,0:0:0:0:
295,12,99053,1,10,0:0:0:0:
295,12,99236,1,0,0:0:0:0:
378,58,99419,1,2,0:0:0:0:
378,58,99785,6,0,B|377:137|340:119|320:199,1,147.599995495606,2|2,1:2|0:0,0:0:0:0:
260,265,100333,1,2,0:0:0:0:
260,265,100516,2,0,P|222:255|192:232,1,73.7999977478028,10|2,0:0|0:0,0:0:0:0:
133,159,100882,2,0,P|63:165|18:222,1,147.599995495606,2|0,1:2|0:0,0:0:0:0:
87,297,101431,1,0,1:2:0:0:
87,297,101614,2,0,P|99:341|102:373,1,73.7999977478028,0|2,1:2|0:0,0:0:0:0:
183,317,101980,1,10,0:0:0:0:
200,222,102163,1,2,0:0:0:0:
216,127,102346,2,0,P|211:90|201:55,1,73.7999977478028,2|0,0:0|0:0,0:0:0:0:
296,66,102712,6,0,B|337:30|375:32|375:32|388:58|423:75,1,147.599995495606,2|0,1:2|0:0,0:0:0:0:
358,148,103260,1,2,0:0:0:0:
358,148,103443,2,0,P|370:187|369:229,1,73.7999977478028,8|2,0:0|0:0,0:0:0:0:
420,302,103809,2,0,B|323:294|368:331|273:332,1,147.599995495606,2|0,1:2|0:0,0:0:0:0:
205,277,104358,1,0,1:0:0:0:
205,277,104541,2,0,P|197:241|202:204,1,73.7999977478028,0|0,1:0|0:0,0:0:0:0:
254,123,104907,5,8,0:0:0:0:
254,123,105090,2,0,B|224:102|224:102|178:106,2,73.7999977478028,2|0|2,0:0|0:0|0:0,0:0:0:0:
298,208,105638,6,0,L|323:51,1,147.599995495606,2|2,1:2|0:0,0:0:0:0:
406,17,106187,1,2,0:0:0:0:
406,17,106370,2,0,P|441:27|469:60,1,73.7999977478028,8|2,0:0|0:0,0:0:0:0:
410,132,106736,2,0,P|421:205|435:283,1,147.599995495606,2|0,1:2|0:0,0:0:0:0:
460,375,107285,1,0,1:0:0:0:
460,375,107468,2,0,P|425:358|386:349,1,73.7999977478028,0|0,1:0|0:0,0:0:0:0:
296,364,107833,2,0,P|230:363|179:301,1,147.599995495606,10|2,0:0|0:0,0:0:0:0:
179,304,108565,5,2,1:2:0:0:
74,143,108931,2,0,P|67:183|59:217,1,73.7999977478028,2|2,0:0|0:0,0:0:0:0:
32,307,109297,1,10,0:0:0:0:
32,307,109663,2,0,P|76:250|155:245,1,147.599995495606,2|0,1:2|0:0,0:0:0:0:
234,295,110212,1,0,1:0:0:0:
234,295,110394,2,0,L|247:216,1,73.7999977478028,0|0,1:0|0:0,0:0:0:0:
193,141,110760,2,0,B|189:63|142:89|133:11,1,147.599995495606,10|2,0:0|0:0,0:0:0:0:
132,10,111492,6,0,P|116:90|94:160,1,147.599995495606,2|2,1:2|0:0,0:0:0:0:
18,210,112041,1,2,0:0:0:0:
84,279,112224,1,10,0:0:0:0:
84,279,112590,6,0,P|36:276|25:363,1,147.599995495606,2|0,1:2|0:0,0:0:0:0:
119,366,113138,1,2,1:2:0:0:
119,366,113321,2,0,P|154:353|203:352,1,73.7999977478028,2|2,1:3|0:3,0:0:0:0:
276,304,113687,1,10,0:0:0:0:
276,304,113870,2,0,P|285:269|298:233,2,73.7999977478028,2|8|2,1:2|0:0|0:0,0:0:0:0:
271,352,114327,1,2,0:0:0:0:
271,352,114419,5,6,1:2:0:0:
179,301,114602,2,0,P|142:303|100:316,1,82,2|2,0:0|0:0,0:0:0:0:
39,231,114968,1,2,0:0:0:0:
39,231,115151,2,0,B|60:159|100:183|123:93,1,164,10|0,0:0|1:0,0:0:0:0:
60,9,115699,1,2,0:0:0:0:
139,76,115882,6,0,P|173:80|216:57,1,82,2|2,0:0|1:2,0:0:0:0:
302,2,116248,2,0,B|264:51|264:51|285:159,1,164,2|8,1:2|0:0,0:0:0:0:
384,115,116797,1,2,0:0:0:0:
384,115,116980,1,2,0:0:0:0:
351,213,117163,1,2,0:0:0:0:
413,296,117346,6,0,B|306:291|354:333|254:336,1,164,2|2,1:2|0:0,0:0:0:0:
163,290,117894,2,0,P|184:221|277:208,1,164,2|2,0:0|0:0,0:0:0:0:
369,184,118443,6,0,L|396:17,1,164,2|0,1:2|0:0,0:0:0:0:
298,63,118992,1,2,1:2:0:0:
298,63,119175,1,2,1:2:0:0:
201,24,119358,1,2,0:0:0:0:
298,63,119541,2,0,L|271:224,1,164,10|2,0:0|0:0,0:0:0:0:
221,317,120090,1,2,0:0:0:0:
146,253,120272,5,0,1:2:0:0:
146,253,120455,2,0,P|105:264|76:297,2,82,2|2|2,0:0|0:0|0:0,0:0:0:0:
224,322,121004,2,0,P|169:284|188:196,1,164,10|0,0:0|1:0,0:0:0:0:
250,116,121553,1,2,0:0:0:0:
250,116,121736,6,0,P|232:79|196:57,1,82,2|2,0:0|1:2,0:0:0:0:
141,145,122102,2,0,B|247:147|205:187|300:189,1,164,2|8,1:2|0:0,0:0:0:0:
391,146,122651,2,0,P|397:111|397:65,1,82,2|2,0:0|0:0,0:0:0:0:
314,1,123016,1,2,0:0:0:0:
232,65,123199,5,2,1:2:0:0:
232,65,123382,2,0,P|192:81|147:78,1,82,2|2,0:0|0:0,0:0:0:0:
51,55,123748,2,0,P|116:89|119:176,1,164,2|2,0:0|0:0,0:0:0:0:
41,240,124297,6,0,B|98:254|98:254|128:286|128:286|191:300,1,164,2|0,1:2|0:0,0:0:0:0:
277,245,124846,1,2,1:2:0:0:
276,233,124937,1,2,0:0:0:0:
273,221,125029,2,0,L|282:176,2,41,2|2|2,1:2|0:0|0:0,0:0:0:0:
328,309,125394,1,10,0:0:0:0:
328,309,125577,1,2,0:0:0:0:
373,217,125760,1,2,0:0:0:0:
373,217,125943,1,2,0:0:0:0:
453,291,126126,5,2,1:2:0:0:
453,291,126309,2,0,P|471:322|469:371,2,82,2|2|2,0:0|0:0|0:0,0:0:0:0:
350,269,126858,2,0,P|398:271|461:180,1,164,10|0,0:0|1:0,0:0:0:0:
399,101,127407,1,2,0:0:0:0:
399,101,127590,6,0,P|360:112|316:113,1,82,2|2,0:0|1:2,0:0:0:0:
238,46,127955,2,0,P|267:107|270:210,1,164,2|8,1:2|0:0,0:0:0:0:
206,284,128504,2,0,P|203:332|226:366,2,82,0|2|2,0:0|0:0|0:0,0:0:0:0:
146,197,129053,5,2,1:2:0:0:
146,197,129236,2,0,P|105:185|70:163,2,82,2|2|2,0:0|0:0|0:0,0:0:0:0:
239,149,129785,2,0,P|250:108|267:71,2,82,10|2|2,0:0|0:0|1:2,0:0:0:0:
276,246,130333,1,2,0:0:0:0:
276,246,130516,2,0,P|317:257|347:287,1,82,2|2,0:0|1:2,0:0:0:0:
426,349,130882,2,0,P|376:324|301:392,1,164,2|10,1:2|0:0,0:0:0:0:
217,335,131431,2,0,P|180:325|138:303,2,82,2|2|2,0:0|0:0|0:0,0:0:0:0:
276,246,131980,6,0,P|285:176|199:156,1,164,6|0,1:2|0:0,0:0:0:0:
119,102,132529,2,0,P|126:61|136:21,1,82,2|8,1:2|0:0,0:0:0:0:
225,64,132894,1,0,0:0:0:0:
305,6,133077,2,0,P|382:-10|443:41,1,164,2|0,1:2|0:0,0:0:0:0:
441,147,133626,2,0,B|408:124|408:124|363:127|337:161|339:224,1,164,2|0,1:2|0:0,0:0:0:0:
393,313,134175,2,0,B|350:306|350:306|321:316|321:316|272:307,1,123,10|0,0:0|0:0,0:0:0:0:
257,304,134541,5,2,1:2:0:0:
58,224,134907,1,8,0:0:0:0:
58,224,135090,1,0,1:0:0:0:
3,302,135272,2,0,P|46:309|86:328,1,82,0|0,1:0|0:0,0:0:0:0:
169,269,135638,1,8,0:0:0:0:
142,168,135821,2,0,P|147:149|155:127,2,41,2|2|0,0:3|0:3|1:0,0:0:0:0:
58,224,136187,1,2,0:3:0:0:
58,224,136279,1,2,0:3:0:0:
58,224,136370,6,0,B|96:207|96:207|191:236,1,135.300004129028,6|0,1:2|0:0,0:0:0:0:
201,249,136736,2,0,L|187:109,1,135.300004129028,6|0,1:2|0:0,0:0:0:0:
186,96,137102,2,0,P|161:46|82:47,1,135.300004129028,6|0,1:2|0:0,0:0:0:0:
72,51,137468,2,0,B|51:121|96:112|76:188,1,135.300004129028,6|0,1:2|0:0,0:0:0:0:
74,200,137833,6,0,P|34:247|80:364,1,180.400005505371,6|2,3:2|0:0,0:0:0:0:
145,312,138382,1,2,0:0:0:0:
232,370,138565,2,0,P|279:352|332:350,1,90.2000027526856,10|0,0:0|0:0,0:0:0:0:
404,380,138931,1,2,3:2:0:0:
498,309,139114,6,0,B|518:210|474:220|496:130,1,180.400005505371,2|2,0:0|0:0,0:0:0:0:
459,38,139662,2,0,P|414:35|378:61,1,90.2000027526856,2|2,0:0|3:2,0:0:0:0:
313,134,140028,2,0,L|224:117,1,90.2000027526856,10|0,0:0|0:0,0:0:0:0:
165,34,140394,1,2,0:0:0:0:
165,34,140577,1,2,0:0:0:0:
78,128,140760,6,0,P|48:209|54:219,1,90.2000027526856,6|2,3:2|0:0,0:0:0:0:
134,253,141126,1,2,0:0:0:0:
134,253,141309,1,2,0:0:0:0:
215,191,141492,2,0,P|259:186|304:184,1,90.2000027526856,10|2,0:0|0:0,0:0:0:0:
385,125,141857,1,2,3:2:0:0:
461,210,142041,6,0,P|481:276|388:298,1,180.400005505371,2|2,0:0|0:0,0:0:0:0:
327,366,142589,1,2,0:0:0:0:
327,366,142772,1,2,3:2:0:0:
227,352,142955,2,0,P|186:334|167:294,1,90.2000027526856,10|2,0:0|3:2,0:0:0:0:
221,221,143321,2,0,P|204:180|219:139,1,90.2000027526856,2|2,0:0|0:0,0:0:0:0:
287,71,143687,5,6,3:2:0:0:
197,0,143870,2,0,P|124:50|37:40,1,180.400005505371,2|2,0:0|0:0,0:0:0:0:
0,128,144418,2,0,P|24:166|34:213,1,90.2000027526856,10|0,0:0|0:0,0:0:0:0:
0,297,144784,1,2,3:2:0:0:
77,373,144968,6,0,B|162:327|159:382|249:337,1,180.400005505371,2|2,0:0|0:0,0:0:0:0:
348,372,145516,1,2,0:0:0:0:
348,372,145607,1,2,0:0:0:0:
348,372,145699,1,2,3:2:0:0:
426,315,145882,2,0,P|439:261|437:226,1,90.2000027526856,10|2,0:0|0:0,0:0:0:0:
379,159,146248,1,2,0:0:0:0:
379,159,146431,1,2,3:2:0:0:
276,184,146614,6,0,P|305:269|307:292,1,90.2000027526856,2|2,3:2|0:0,0:0:0:0:
404,283,146980,2,0,P|375:368|373:391,1,90.2000027526856,2|2,0:0|0:0,0:0:0:0:
271,380,147346,1,10,0:0:0:0:
271,380,147529,2,0,P|212:342|94:365,1,180.400005505371,2|2,0:0|0:0,0:0:0:0:
27,306,148077,6,0,P|-15:256|-1:193,1,135.300004129028,6|0,3:2|0:0,0:0:0:0:
36,165,148443,2,0,P|51:101|8:52,1,135.300004129028,6|0,3:2|0:0,0:0:0:0:
2,13,148809,2,0,P|68:3|122:40,1,135.300004129028,14|0,3:2|0:0,0:0:0:0:
155,74,149175,2,0,P|221:85|275:48,1,135.300004129028,6|0,3:2|0:0,0:0:0:0:
311,4,149540,6,0,P|341:88|354:177,1,180.400005505371,6|2,3:2|0:0,0:0:0:0:
414,244,150089,1,2,0:0:0:0:
343,298,150272,2,0,P|291:298|264:265,1,90.2000027526856,10|2,0:0|0:0,0:0:0:0:
250,230,150546,1,2,0:0:0:0:
250,230,150638,1,2,3:2:0:0:
171,306,150821,6,0,P|128:295|75:291,1,90.2000027526856,2|0,0:0|0:0,0:0:0:0:
0,254,151187,1,2,0:0:0:0:
28,168,151370,1,2,0:0:0:0:
0,75,151553,1,2,3:2:0:0:
82,14,151736,2,0,B|126:6|126:6|162:35,1,90.2000027526856,10|0,0:0|0:0,0:0:0:0:
221,109,152101,1,2,0:0:0:0:
221,109,152284,1,2,0:0:0:0:
311,29,152468,6,0,P|386:26|432:126,1,180.400005505371,6|2,3:2|0:0,0:0:0:0:
497,167,153016,1,2,0:0:0:0:
428,235,153199,2,0,P|380:219|232:209,1,180.400005505371,10|2,0:0|3:2,0:0:0:0:
179,130,153748,1,2,0:0:0:0:
179,130,153931,6,0,P|136:205|150:241,1,90.2000027526856,2|10,0:0|0:0,0:0:0:0:
82,280,154296,1,2,0:0:0:0:
143,362,154479,1,2,0:0:0:0:
232,314,154662,2,0,P|278:312|322:306,1,90.2000027526856,10|2,0:0|3:2,0:0:0:0:
419,350,155028,2,0,P|416:304|410:260,1,90.2000027526856,2|2,0:0|0:0,0:0:0:0:
476,186,155394,5,6,3:2:0:0:
416,110,155577,2,0,B|324:112|345:152|245:158,1,180.400005505371,2|2,0:0|0:0,0:0:0:0:
163,216,156126,2,0,P|157:172|150:127,1,90.2000027526856,10|2,0:0|0:0,0:0:0:0:
143,81,156400,1,2,0:0:0:0:
143,81,156492,1,2,3:2:0:0:
62,160,156675,6,0,P|57:204|50:249,1,90.2000027526856,2|0,0:0|0:0,0:0:0:0:
4,323,157040,1,2,0:0:0:0:
85,364,157223,2,0,P|128:378|174:368,1,90.2000027526856,2|2,0:0|3:2,0:0:0:0:
236,307,157589,2,0,P|279:294|323:301,1,90.2000027526856,10|0,0:0|0:0,0:0:0:0:
389,365,157955,1,2,0:0:0:0:
389,365,158138,1,2,0:0:0:0:
492,299,158321,6,0,L|513:119,1,180.400005505371,6|0,3:2|0:0,0:0:0:0:
463,42,158870,1,2,0:0:0:0:
375,57,159053,2,0,L|365:146,1,90.2000027526856,8|2,0:0|0:0,0:0:0:0:
342,186,159327,1,2,0:0:0:0:
342,186,159418,6,0,P|256:173|224:93,1,180.400005505371,2|2,3:2|0:0,0:0:0:0:
229,51,159876,1,2,0:0:0:0:
229,51,159967,1,10,0:0:0:0:
138,89,160150,2,0,P|94:82|49:77,1,90.2000027526856,0|0,0:0|3:0,0:0:0:0:
0,180,160516,6,0,P|86:193|118:273,1,180.400005505371,10|2,0:0|0:3,0:0:0:0:
76,348,161065,1,2,0:0:0:0:
163,377,161248,2,0,P|211:361|359:351,1,180.400005505371,6|2,3:2|0:3,0:0:0:0:
381,270,161796,1,2,0:0:0:0:
309,219,161979,2,0,P|271:196|226:191,1,90.2000027526856,8|2,0:0|0:3,0:0:0:0:
185,212,162254,1,2,0:3:0:0:
185,212,162345,6,0,L|198:33,1,180.400005505371,6|2,3:2|0:3,0:0:0:0:
290,7,162894,1,4,0:3:0:0:
361,78,163077,2,0,P|399:101|443:103,1,90.2000027526856,2|0,0:0|3:0,0:0:0:0:
490,132,163352,1,0,3:0:0:0:
490,132,163443,2,0,P|511:188|512:224,1,90.2000027526856,10|0,0:0|0:0,0:0:0:0:
456,292,163809,2,0,L|362:284,1,90.2000027526856,8|2,0:3|0:3,0:0:0:0:
296,354,164175,6,0,L|201:342,1,82,6|2,3:2|0:0,0:0:0:0:
117,360,164540,1,2,0:0:0:0:
53,292,164723,1,2,0:0:0:0:
98,198,164906,2,0,B|193:208|169:170|259:182,1,164,10|6,0:0|3:2,0:0:0:0:
339,237,165455,5,2,0:0:0:0:
423,193,165638,2,0,P|414:153|409:113,1,82,2|2,0:0|0:0,0:0:0:0:
343,43,166004,2,0,P|302:38|262:30,1,82,2|8,0:0|0:3,0:0:0:0:
211,31,166278,1,8,0:3:0:0:
211,31,166370,2,0,P|170:22|130:17,1,82,8|4,0:0|0:3,0:0:0:0:
30,3,166735,2,0,P|32:44|37:84,1,82,4|4,0:3|0:3,0:0:0:0:
15,184,167101,6,0,P|55:175|95:170,1,82,6|2,3:2|0:0,0:0:0:0:
188,226,167468,1,10,0:0:0:0:
188,226,167651,2,0,L|277:218,1,82,6|2,3:2|0:0,0:0:0:0:
341,139,168016,1,8,0:0:0:0:
341,139,168199,2,0,L|430:131,1,82,6|2,3:2|0:0,0:0:0:0:
488,211,168565,6,0,P|514:241|513:281,1,82,10|2,0:0|3:2,0:0:0:0:
472,364,168931,2,0,P|432:353|391:348,1,82,2|0,3:2|0:0,0:0:0:0:
338,376,169205,1,0,3:0:0:0:
338,376,169296,2,0,P|329:315|325:263,1,109.333333333333,10|0,0:0|3:0,0:0:0:0:
438,211,169846,2,0,P|436:189|434:170,1,41,2|2,0:0|0:0,0:0:0:0:
397,161,170028,6,0,P|393:120|388:79,2,82,6|2|2,3:2|0:0|0:0,0:0:0:0:
328,232,170577,1,2,3:2:0:0:
247,185,170760,2,0,P|243:144|238:103,1,82,10|2,0:0|0:0,0:0:0:0:
178,33,171126,2,0,P|124:15|58:92,1,164,6|0,3:2|0:0,0:0:0:0:
0,169,171674,5,2,3:2:0:0:
0,169,171766,1,2,0:0:0:0:
0,169,171857,2,0,P|38:182|68:213,1,82,2|0,0:0|3:0,0:0:0:0:
129,283,172223,2,0,P|175:273|224:271,1,82,8|2,0:0|0:0,0:0:0:0:
256,249,172498,1,2,0:0:0:0:
256,249,172589,2,0,P|260:289|263:330,1,82,2|2,0:0|0:0,0:0:0:0:
372,366,172955,6,0,P|365:284|356:202,1,164,6|0,3:2|0:0,0:0:0:0:
358,63,173687,2,0,B|326:40|326:40|285:54,1,82,8|0,0:0|0:0,0:0:0:0:
175,13,174053,2,0,P|200:91|208:178,1,164,6|0,3:2|0:0,0:0:0:0:
279,233,174602,2,0,P|324:257|360:251,1,82,0|0,3:0|0:0,0:0:0:0:
443,221,174967,1,0,3:0:0:0:
506,294,175151,1,8,0:0:0:0:
444,365,175333,5,2,0:3:0:0:
444,365,175425,1,2,0:3:0:0:
444,365,175516,2,0,L|394:375,1,41,2|2,0:3|0:3,0:0:0:0:
349,370,175699,2,0,L|295:355,1,41,2|2,0:3|0:3,0:0:0:0:
265,324,175882,6,0,P|291:293|299:254,1,82,6|2,3:2|0:0,0:0:0:0:
244,180,176247,1,2,0:0:0:0:
283,103,176430,1,2,0:0:0:0:
230,22,176614,2,0,B|138:27|160:62|74:67,1,164,10|6,0:0|3:2,0:0:0:0:
0,132,177162,5,2,0:0:0:0:
60,198,177345,2,0,P|69:238|74:278,1,82,2|2,0:0|0:0,0:0:0:0:
58,366,177711,2,0,P|99:361|139:353,1,82,2|8,0:0|0:3,0:0:0:0:
190,354,177985,1,8,0:3:0:0:
190,354,178077,2,0,P|231:345|271:340,1,82,8|4,0:0|0:3,0:0:0:0:
351,289,178442,2,0,P|364:249|340:209,1,82,4|4,0:3|0:3,0:0:0:0:
255,178,178809,6,0,P|215:169|175:164,1,82,6|2,3:2|0:0,0:0:0:0:
107,90,179175,1,2,0:0:0:0:
168,17,179358,1,2,3:2:0:0:
168,17,179541,2,0,B|263:7|239:45|329:33,1,164,10|6,0:0|3:2,0:0:0:0:
415,10,180090,1,2,0:0:0:0:
477,77,180273,2,0,P|503:107|502:147,1,82,2|2,0:0|3:2,0:0:0:0:
460,234,180639,2,0,P|420:223|379:218,1,82,2|0,3:2|0:0,0:0:0:0:
325,208,180913,5,0,3:0:0:0:
325,208,181004,2,0,P|317:148|313:94,2,109.333333333333,10|0|2,0:0|3:0|3:2,0:0:0:0:
310,349,181736,6,0,P|350:357|414:372,2,82,6|2|2,3:2|0:0|0:0,0:0:0:0:
225,371,182285,1,2,3:2:0:0:
144,334,182468,2,0,P|140:293|135:252,1,82,10|2,0:0|0:0,0:0:0:0:
56,196,182833,2,0,P|18:128|67:42,1,164,6|0,3:2|0:0,0:0:0:0:
138,78,183382,5,2,3:2:0:0:
138,78,183474,1,2,0:0:0:0:
138,78,183565,2,0,P|174:60|215:55,1,82,2|0,0:0|3:2,0:0:0:0:
297,10,183931,2,0,P|301:50|304:91,1,82,8|2,0:0|0:0,0:0:0:0:
339,137,184206,1,2,0:0:0:0:
339,137,184297,2,0,P|335:177|332:218,1,82,2|2,0:0|0:0,0:0:0:0:
233,290,184663,6,0,P|226:208|217:126,1,164,6|0,3:2|0:0,0:0:0:0:
154,65,185212,1,2,0:3:0:0:
89,127,185395,2,0,B|57:104|57:104|16:118,1,82,8|2,0:0|0:3,0:0:0:0:
0,166,185669,1,2,0:3:0:0:
0,166,185761,2,0,L|12:330,1,164,6|0,3:2|0:0,0:0:0:0:
84,376,186309,5,2,3:2:0:0:
150,316,186492,1,2,0:3:0:0:
230,356,186675,1,4,0:3:0:0:
307,298,186858,2,0,P|347:286|387:278,1,82,8|0,0:0|0:0,0:0:0:0:
446,218,187224,1,2,0:3:0:0:
389,133,187407,5,2,0:3:0:0:
389,133,187498,1,2,0:3:0:0:
389,133,187590,2,0,P|328:145|269:162,1,123.000004692078,2|0,0:0|0:0,0:0:0:0:
192,112,188138,2,0,P|160:142|157:218,1,123.000004692078,2|2,0:0|0:0,0:0:0:0:
73,257,188687,2,0,B|198:250|176:324|307:314,1,246.000009384156,2|0,0:0|0:0,0:0:0:0:
307,314,189968,2,0,L|310:375,2,61.5000023460389,2|2|2,0:0|0:0|0:0,0:0:0:0:
392,279,190516,6,0,P|452:282|500:246,1,123.000004692078,2|2,0:0|0:0,0:0:0:0:
455,165,191065,2,0,P|500:125|508:65,1,123.000004692078,2|2,0:0|0:0,0:0:0:0:
438,4,191614,2,0,P|366:56|364:145,1,184.500007038117,2|0,0:0|0:0,0:0:0:0:
188,202,192529,1,2,0:0:0:0:
105,160,192712,2,0,P|46:173|17:225,1,123.000004692078,2|2,0:0|0:0,0:0:0:0:
144,359,193443,6,0,L|266:347,1,123.000004692078,2|2,0:0|0:0,0:0:0:0:
316,269,193992,2,0,L|438:280,1,123.000004692078,2|2,0:0|0:0,0:0:0:0:
501,212,194541,2,0,P|479:128|393:123,1,184.500007038117,2|0,0:0|0:0,0:0:0:0:
242,16,195455,1,2,0:0:0:0:
174,78,195638,2,0,P|118:103|57:105,1,123.000004692078,2|2,0:0|0:0,0:0:0:0:
88,287,196370,6,0,P|143:261|204:259,1,123.000004692078,2|2,0:0|0:0,0:0:0:0:
272,196,196919,1,2,0:0:0:0:
349,245,197102,2,0,L|344:311,1,61.5000023460389,2|2,0:0|0:0,0:0:0:0:
427,347,197468,2,0,L|445:101,1,246.000009384156,2|0,0:0|0:0,0:0:0:0:
272,34,198931,2,0,P|259:77|221:101,1,92.2500035190584,2|0,0:0|0:0,0:0:0:0:
176,95,199297,6,0,L|186:234,1,139.400002658844,2|0,0:0|0:0,0:0:0:0:
136,309,199846,2,0,P|102:300|67:295,1,69.700001329422,2|0,0:0|0:0,0:0:0:0:
24,214,200212,1,2,0:0:0:0:
78,142,200394,2,0,L|351:197,1,278.800005317688,2|2,0:0|0:0,0:0:0:0:
351,197,201675,1,0,0:0:0:0:
421,139,201858,2,0,P|411:105|406:71,1,69.700001329422,2|2,0:0|0:0,0:0:0:0:
367,46,202132,1,2,0:0:0:0:
367,46,202224,6,0,P|315:36|264:109,1,139.400002658844,2|2,0:0|0:0,0:0:0:0:
192,152,202772,1,2,0:0:0:0:
108,116,202955,2,0,P|73:118|38:122,1,69.700001329422,0|2,0:0|0:0,0:0:0:0:
18,210,203321,2,0,B|80:331|80:331|203:259,1,278.800005317688,2|0,0:0|0:0,0:0:0:0:
368,336,204419,1,2,0:0:0:0:
434,274,204602,2,0,P|427:239|420:205,1,69.700001329422,2|0,0:0|0:0,0:0:0:0:
477,134,204968,1,2,0:0:0:0:
424,60,205151,5,2,0:0:0:0:
424,60,205333,2,0,P|352:81|269:89,1,139.400002658844,2|0,0:0|0:0,0:0:0:0:
207,45,205882,2,0,P|156:93|96:128,1,139.400002658844,2|2,0:0|0:0,0:0:0:0:
19,177,206431,2,0,P|15:211|5:244,1,69.700001329422,2|0,0:0|0:0,0:0:0:0:
44,327,206797,2,0,P|139:286|243:293,1,209.100003988266,2|2,0:0|0:0,0:0:0:0:
317,346,207529,1,2,0:0:0:0:
468,247,207894,1,2,0:0:0:0:
408,178,208077,6,0,L|269:192,1,139.400002658844,2|0,0:0|0:0,0:0:0:0:
257,102,208626,2,0,L|395:87,1,139.400002658844,2|0,0:0|0:0,0:0:0:0:
446,12,209175,2,0,P|497:56|503:124,1,139.400002658844,2|0,0:0|0:0,0:0:0:0:
494,214,209724,2,0,L|508:352,1,139.400002658844,2|0,0:0|0:0,0:0:0:0:
418,363,210272,2,0,L|403:224,1,139.400002658844,2|2,0:0|0:0,0:0:0:0:
320,186,210821,1,2,0:0:0:0:
246,239,211004,6,0,L|107:253,1,139.400002658844,2|0,0:0|0:0,0:0:0:0:
100,162,211553,2,0,L|238:147,1,139.400002658844,2|0,0:0|0:0,0:0:0:0:
267,61,212102,2,0,P|335:57|381:106,1,139.400002658844,2|2,0:0|0:0,0:0:0:0:
394,149,212559,1,2,0:0:0:0:
394,149,212651,1,2,0:0:0:0:
479,177,212833,2,0,P|478:211|482:246,1,69.700001329422,2|0,0:0|0:0,0:0:0:0:
472,337,213199,2,0,P|335:310|196:319,1,278.800005317688,2|2,0:0|0:0,0:0:0:0:
90,190,214663,5,0,1:0:0:0:
31,121,214846,1,2,1:3:0:0:
79,44,215029,1,8,0:3:0:0:
171,64,215212,1,8,0:3:0:0:
171,64,215303,1,8,0:3:0:0:
171,64,215394,5,4,0:3:0:0:
260,144,215638,5,4,0:3:0:0:
221,257,215882,5,4,0:3:0:0:
308,344,216126,6,0,P|351:331|396:326,2,90.2000027526856,2|2|2,1:2|0:0|0:0,0:0:0:0:
308,344,216858,6,0,B|207:339|224:381|132:373,1,180.400005505371,6|2,3:2|0:0,0:0:0:0:
40,341,217407,1,2,0:0:0:0:
103,271,217590,2,0,P|112:225|92:185,1,90.2000027526856,10|0,0:0|0:0,0:0:0:0:
21,131,217956,1,2,3:2:0:0:
62,39,218139,6,0,B|162:45|141:85|234:87,1,180.400005505371,2|2,0:0|0:0,0:0:0:0:
310,26,218687,2,0,P|355:23|391:49,1,90.2000027526856,2|2,0:0|3:2,0:0:0:0:
474,99,219053,2,0,L|468:189,1,90.2000027526856,10|0,0:0|0:0,0:0:0:0:
433,268,219419,1,2,0:0:0:0:
433,268,219602,1,2,0:0:0:0:
504,367,219785,6,0,P|413:348|309:349,1,180.400005505371,6|2,3:2|0:0,0:0:0:0:
254,289,220334,1,2,0:0:0:0:
296,206,220517,2,0,P|340:201|385:199,1,90.2000027526856,10|0,0:0|0:0,0:0:0:0:
435,121,220882,1,2,3:2:0:0:
385,41,221065,6,0,B|322:41|322:41|286:84|286:84|224:84,1,180.400005505371,2|2,0:0|0:0,0:0:0:0:
144,22,221614,1,2,0:0:0:0:
144,22,221797,1,2,3:2:0:0:
74,90,221980,2,0,P|33:108|14:148,1,90.2000027526856,10|2,0:0|3:2,0:0:0:0:
68,221,222346,2,0,P|51:262|66:303,1,90.2000027526856,2|2,0:0|0:0,0:0:0:0:
135,369,222712,5,6,3:2:0:0:
218,311,222895,2,0,P|298:367|382:336,1,180.400005505371,2|0,0:0|0:0,0:0:0:0:
459,302,223443,2,0,L|454:204,1,90.2000027526856,10|0,0:0|0:0,0:0:0:0:
397,134,223809,1,2,3:2:0:0:
322,206,223992,6,0,P|243:192|224:94,1,180.400005505371,2|2,0:0|0:0,0:0:0:0:
286,30,224541,1,2,0:0:0:0:
286,30,224632,1,2,0:0:0:0:
286,30,224724,1,2,3:2:0:0:
175,20,224907,2,0,P|130:27|85:30,1,90.2000027526856,10|2,0:0|0:0,0:0:0:0:
34,102,225273,1,2,0:0:0:0:
34,102,225456,1,2,3:2:0:0:
94,169,225639,5,2,3:2:0:0:
0,246,225821,2,0,B|100:252|79:292|172:294,1,180.400005505371,2|0,0:0|0:0,0:0:0:0:
260,333,226370,2,0,L|242:199,1,135.300004129028,10|0,0:0|0:0,0:0:0:0:
212,177,226736,2,0,L|214:42,1,135.300004129028,2|0,0:0|0:0,0:0:0:0:
251,18,227102,6,0,P|316:8|370:45,1,135.300004129028,6|0,3:2|0:0,0:0:0:0:
391,87,227468,2,0,P|376:151|419:204,1,135.300004129028,6|0,3:2|0:0,0:0:0:0:
461,218,227834,2,0,P|503:267|488:330,1,135.300004129028,14|0,3:2|0:0,0:0:0:0:
444,357,228200,2,0,P|378:346|292:346,1,135.300004129028,6|0,3:2|0:0,0:0:0:0:
260,345,228565,1,6,3:2:0:0:
95,270,228931,5,2,0:0:0:0:
24,213,229114,1,2,0:0:0:0:
87,148,229297,2,0,L|80:58,1,90.2000027526856,10|2,0:0|0:0,0:0:0:0:
116,30,229571,1,2,0:0:0:0:
116,30,229663,6,0,B|215:39|185:87|280:94,1,180.400005505371,2|0,3:2|0:0,0:0:0:0:
350,36,230212,1,2,0:0:0:0:
419,92,230394,2,0,L|412:181,1,90.2000027526856,2|2,0:0|3:2,0:0:0:0:
485,235,230760,2,0,L|478:324,1,90.2000027526856,10|0,0:0|0:0,0:0:0:0:
398,369,231126,1,2,0:0:0:0:
326,314,231309,1,2,0:0:0:0:
247,358,231492,6,0,B|152:351|182:303|82:293,1,180.400005505371,6|2,3:2|0:0,0:0:0:0:
7,242,232041,1,2,0:0:0:0:
64,172,232224,2,0,L|57:82,1,90.2000027526856,10|0,0:0|0:0,0:0:0:0:
133,32,232590,1,2,3:2:0:0:
205,85,232772,6,0,P|277:134|363:118,1,180.400005505371,2|10,0:0|0:0,0:0:0:0:
449,147,233321,1,2,0:0:0:0:
483,230,233504,1,2,0:0:0:0:
449,313,233687,2,0,L|359:323,1,90.2000027526856,10|2,0:0|3:2,0:0:0:0:
279,366,234053,2,0,L|189:355,1,90.2000027526856,2|2,0:0|0:0,0:0:0:0:
132,284,234419,5,6,3:2:0:0:
64,344,234602,2,0,B|71:249|119:279|128:179,1,180.400005505371,2|0,0:0|0:0,0:0:0:0:
201,126,235151,2,0,P|241:142|260:182,1,90.2000027526856,10|2,0:0|0:0,0:0:0:0:
250,226,235425,1,2,0:0:0:0:
250,226,235516,1,2,3:2:0:0:
340,227,235699,6,0,L|429:237,1,90.2000027526856,2|0,0:0|0:0,0:0:0:0:
498,178,236065,1,2,0:0:0:0:
479,89,236248,2,0,L|389:78,1,90.2000027526856,2|2,0:0|3:2,0:0:0:0:
320,19,236614,2,0,L|230:29,1,90.2000027526856,10|0,0:0|0:0,0:0:0:0:
153,78,236980,1,2,0:0:0:0:
153,78,237163,1,2,0:0:0:0:
67,27,237346,6,0,P|8:90|32:173,1,180.400005505371,6|0,3:2|0:0,0:0:0:0:
11,261,237894,1,2,0:0:0:0:
84,312,238077,2,0,L|179:297,1,90.2000027526856,8|2,0:0|0:0,0:0:0:0:
211,322,238352,1,2,0:0:0:0:
211,322,238443,6,0,B|306:315|276:267|376:257,1,180.400005505371,2|2,3:2|0:0,0:0:0:0:
411,284,238901,1,2,0:0:0:0:
411,284,238992,1,10,0:0:0:0:
474,219,239175,2,0,B|496:179|496:179|473:140,1,90.2000027526856,0|0,0:0|3:0,0:0:0:0:
501,54,239541,2,0,P|428:106|340:116,1,180.400005505371,10|2,0:0|0:3,0:0:0:0:
267,62,240090,1,2,0:0:0:0:
190,108,240272,6,0,L|197:288,1,180.400005505371,6|2,3:2|0:3,0:0:0:0:
127,345,240821,1,2,0:0:0:0:
82,266,241004,2,0,L|78:175,1,90.2000027526856,8|2,0:0|0:3,0:0:0:0:
41,148,241279,1,2,0:3:0:0:
41,148,241370,6,0,P|49:63|130:37,1,180.400005505371,6|2,3:2|0:3,0:0:0:0:
190,108,241919,1,8,0:3:0:0:
269,65,242102,2,0,P|308:86|352:90,1,90.2000027526856,2|0,0:0|3:0,0:0:0:0:
356,180,242468,2,0,P|368:223|397:256,1,90.2000027526856,10|0,0:0|0:0,0:0:0:0:
313,289,242833,2,0,P|291:328|287:372,1,90.2000027526856,4|2,0:3|0:3,0:0:0:0:
200,349,243199,6,0,P|115:363|53:286,1,172.199994744873,6|2,3:2|0:0,0:0:0:0:
0,211,243748,1,2,0:0:0:0:
0,211,243931,2,0,B|99:202|69:154|163:149,1,172.199994744873,10|6,0:0|3:2,0:0:0:0:
232,218,244480,2,0,P|271:264|385:246,1,172.199994744873,2|10,0:0|0:0,0:0:0:0:
453,187,245029,1,2,0:0:0:0:
453,187,245212,1,0,3:0:0:0:
412,80,245394,6,0,B|296:67|296:67|275:100|235:88,1,172.199994744873,8|2,0:0|0:3,0:0:0:0:
125,19,245943,1,2,0:3:0:0:
125,19,246035,1,2,0:3:0:0:
125,19,246126,2,0,P|136:86|143:202,1,172.199994744873,4|2,3:2|0:0,0:0:0:0:
91,279,246675,1,2,0:0:0:0:
160,368,246858,6,0,P|207:322|318:349,1,172.199994744873,10|6,0:0|3:2,0:0:0:0:
426,372,247407,2,0,P|392:288|384:208,1,172.199994744873,2|10,0:0|0:0,0:0:0:0:
452,134,247955,1,2,0:0:0:0:
401,47,248138,1,0,3:0:0:0:
309,85,248321,2,0,L|204:68,1,86.0999973724366,8|2,0:0|3:2,0:0:0:0:
164,45,248596,1,2,0:0:0:0:
164,45,248687,2,0,B|184:143|140:133|161:218,1,172.199994744873,2|6,0:0|3:2,0:0:0:0:
249,289,249236,6,0,P|188:337|92:302,1,172.199994744873,2|0,0:0|0:0,0:0:0:0:
45,242,249785,2,0,L|40:145,1,86.0999973724366,10|0,0:0|0:0,0:0:0:0:
0,81,250151,1,2,3:2:0:0:
89,7,250333,2,0,P|164:73|228:56,1,172.199994744873,2|10,0:0|0:0,0:0:0:0:
305,8,250882,1,0,0:0:0:0:
305,8,251065,1,0,3:0:0:0:
403,64,251248,6,0,B|414:130|414:130|393:165|393:165|408:244,1,172.199994744873,8|2,0:0|0:3,0:0:0:0:
475,290,251797,1,2,3:2:0:0:
408,363,251980,1,6,3:2:0:0:
408,363,252163,2,0,B|309:354|339:306|250:301,1,172.199994744873,2|2,0:0|0:3,0:0:0:0:
175,354,252712,2,0,P|129:370|89:358,1,86.0999973724366,10|0,0:0|0:0,0:0:0:0:
5,319,253077,2,0,L|0:229,1,86.0999973724366,2|0,0:0|0:0,0:0:0:0:
74,135,253443,6,0,P|139:125|188:161,1,129.149996058655,6|0,3:2|0:0,0:0:0:0:
227,198,253809,2,0,L|355:189,1,129.149996058655,6|0,3:2|0:0,0:0:0:0:
417,168,254175,6,0,P|459:119|441:53,1,129.149996058655,14|0,3:2|0:0,0:0:0:0:
422,7,254541,2,0,P|356:18|279:17,1,129.149996058655,6|0,3:2|0:0,0:0:0:0:
238,20,254906,1,6,3:2:0:0:
74,135,255272,6,0,P|80:177|85:220,1,86.0999973724366,2|2,0:0|0:0,0:0:0:0:
35,290,255638,1,10,0:0:0:0:
104,359,255821,1,2,0:0:0:0:
104,359,255913,1,2,0:0:0:0:
104,359,256004,1,6,3:2:0:0:
182,324,256187,6,0,P|266:339|351:353,1,172.199994744873,2|10,0:0|0:0,0:0:0:0:
432,320,256736,2,0,P|441:279|451:237,1,86.0999973724366,2|0,0:0|3:0,0:0:0:0:
410,159,257102,2,0,P|369:150|327:140,1,86.0999973724366,8|2,0:0|0:0,0:0:0:0:
284,153,257376,1,2,0:0:0:0:
284,153,257468,2,0,L|274:194,2,43.0499986862183,2|2|2,0:0|0:0|0:0,0:0:0:0:
215,87,257833,6,0,P|133:82|94:153,1,172.199994744873,6|2,3:2|0:0,0:0:0:0:
144,224,258382,1,2,0:0:0:0:
75,276,258565,2,0,P|81:318|87:361,1,86.0999973724366,10|0,0:0|0:0,0:0:0:0:
170,333,258931,1,6,3:2:0:0:
247,369,259114,2,0,B|300:369|318:311|318:311|389:297,1,172.199994744873,2|10,0:0|0:0,0:0:0:0:
470,325,259663,2,0,P|476:282|483:239,1,86.0999973724366,2|0,0:0|0:0,0:0:0:0:
423,177,260029,5,2,0:0:0:0:
339,196,260212,2,0,P|282:187|212:145,1,123.000004692078,2|2,0:0|0:0,0:0:0:0:
193,76,260760,1,2,0:0:0:0:
119,121,260943,2,0,P|34:143|17:229,1,184.500007038117,2|2,0:0|0:0,0:0:0:0:
127,362,261858,1,2,0:0:0:0:
191,304,262041,2,0,P|252:298|313:289,1,123.000004692078,2|2,0:0|0:0,0:0:0:0:
473,351,262772,5,2,0:0:0:0:
473,351,262864,1,2,0:0:0:0:
473,351,262955,2,0,B|486:334|486:334|482:325|482:325|491:303|491:303|484:298|484:298|489:285|489:285|486:273|486:273|488:257|488:257|485:246|485:246|495:233|495:233|487:223|487:223|500:206|500:206|495:199|495:199|487:191|487:191|497:176|497:176|489:158|489:158|497:141,1,243.950004652977,10|0,0:0|0:0,0:0:0:0:
480,99,263687,6,0,B|421:139|421:139|300:104,1,180.400005505371,6|0,3:2|0:0,0:0:0:0:
250,23,264236,1,2,0:0:0:0:
163,72,264419,2,0,L|153:161,1,90.2000027526856,8|2,0:0|0:0,0:0:0:0:
177,211,264693,1,2,0:0:0:0:
177,211,264784,6,0,P|263:224|302:311,1,180.400005505371,2|2,3:2|0:0,0:0:0:0:
338,331,265242,1,2,0:0:0:0:
338,331,265333,1,10,0:0:0:0:
245,379,265516,2,0,P|201:372|156:367,1,90.2000027526856,0|0,0:0|3:0,0:0:0:0:
57,326,265882,2,0,P|45:255|16:149,1,180.400005505371,10|2,0:0|0:3,0:0:0:0:
0,69,266431,1,2,0:0:0:0:
82,1,266614,6,0,P|154:64|234:31,1,180.400005505371,6|2,3:2|0:3,0:0:0:0:
319,6,267162,1,2,0:0:0:0:
392,72,267345,2,0,L|382:168,1,90.2000027526856,8|2,0:0|0:3,0:0:0:0:
364,195,267620,1,2,0:3:0:0:
364,195,267711,6,0,P|276:203|250:298,1,180.400005505371,6|2,3:2|0:3,0:0:0:0:
199,365,268260,1,4,0:3:0:0:
311,378,268443,2,0,L|416:373,1,90.2000027526856,2|0,0:0|3:0,0:0:0:0:
448,349,268718,1,0,3:0:0:0:
448,349,268809,2,0,P|462:295|446:259,1,90.2000027526856,10|0,0:0|0:0,0:0:0:0:
391,196,269175,1,8,0:3:0:0:
391,196,269358,1,2,0:3:0:0:
461,100,269541,6,0,B|408:72|408:72|352:109|275:78,1,180.400005505371,6|0,3:2|0:0,0:0:0:0:
181,32,270090,2,0,P|194:88|204:224,1,180.400005505371,2|0,1:2|0:0,0:0:0:0:
161,302,270638,2,0,B|272:282|272:282|297:324|348:313,1,180.400005505371,8|0,0:3|0:0,0:0:0:0:
417,250,271187,2,0,P|441:206|337:182,1,180.400005505371,4|0,0:3|1:0,0:0:0:0:
256,203,271736,2,0,P|244:148|240:102,1,90.2000027526856,8|0,0:3|0:0,0:0:0:0:
306,40,272102,1,4,0:3:0:0:
306,40,272468,6,0,P|338:31|406:34,2,90.2000027526856,8|0|0,0:1|1:0|1:0,0:0:0:0:
298,132,273017,2,0,P|327:148|369:193,2,90.2000027526856,8|0|0,0:1|1:0|1:0,0:0:0:0:
219,179,273566,2,0,P|228:210|220:275,2,90.2000027526856,8|0|0,0:1|1:0|1:0,0:0:0:0:
123,178,274115,2,0,P|107:206|64:255,2,90.2000027526856,8|0|0,0:1|1:0|1:0,0:0:0:0:
103,133,274571,1,0,1:0:0:0:
103,133,274663,1,8,1:0:0:0:
