osu file format v14

[General]
AudioFilename: audio.mp3
AudioLeadIn: 0
PreviewTime: 187498
Countdown: 0
SampleSet: Soft
StackLeniency: 0.7
Mode: 0
LetterboxInBreaks: 0
WidescreenStoryboard: 0

[Editor]
DistanceSpacing: 1.1
BeatDivisor: 4
GridSize: 32
TimelineZoom: 2.3

[Metadata]
Title:Shukumei
TitleUnicode:宿命
Artist:Official HIGE DANdism
ArtistUnicode:Official髭男dism
Creator:alevi
Version:Celebration
Source:熱闘甲子園
Tags:shiwakaze kyouren gokugohan12468 kittyadventure sinn Traveler ヒゲダン HIGEDAN 楢崎誠 小笹大輔 藤原聡 松浦匡希 Satoshi Fujihara Daisuke Ozasa Makoto Narazaki Masaki Matsuura agehasprings Koichi Tsutaya jpop pop j-pop japanese fighting spirit fate 2019 ABC Summer High School Baseball Support Theme Song Atsushi Netto Nettoh Koshien abcasahi TV Arashi 2019ABC夏の高校野球応援ソング 夏の高校野球応援ソング テーマ・ソング
BeatmapID:3631356
BeatmapSetID:1773551

[Difficulty]
HPDrainRate:5
CircleSize:4.1
OverallDifficulty:8
ApproachRate:8.6
SliderMultiplier:1.9
SliderTickRate:1

[Events]
//Background and Video events
0,0,"78987902_p0.jpg",0,0
//Break Periods
//Storyboard Layer 0 (Background)
//Storyboard Layer 1 (Fail)
//Storyboard Layer 2 (Pass)
//Storyboard Layer 3 (Foreground)
//Storyboard Layer 4 (Overlay)
//Storyboard Sound Samples

[TimingPoints]
273,365.853658536585,4,2,1,70,1,0
273,-142.857142857143,4,2,1,70,0,0
2285,-142.857142857143,4,2,1,60,0,0
3199,-142.857142857143,4,2,1,70,0,0
3657,-142.857142857143,4,2,1,5,0,0
3748,-142.857142857143,4,2,1,70,0,0
4205,-142.857142857143,4,2,1,5,0,0
4297,-142.857142857143,4,2,1,70,0,0
5303,-142.857142857143,4,2,1,60,0,0
6126,-125,4,2,1,70,0,0
7681,-125,4,2,1,5,0,0
7772,-125,4,2,1,70,0,0
8230,-125,4,2,1,5,0,0
8321,-125,4,2,1,70,0,0
10151,-100,4,2,1,70,0,0
10608,-100,4,2,1,5,0,0
10699,-100,4,2,1,70,0,0
11980,-200,4,2,2,50,0,0
12026,-200,4,2,2,5,0,0
12529,-200,4,2,2,50,0,0
12574,-200,4,2,2,5,0,0
12894,-200,4,2,2,50,0,0
12986,-200,4,2,2,5,0,0
13077,-200,4,2,2,50,0,0
14952,-200,4,2,2,5,0,0
15272,-200,4,2,2,50,0,0
15364,-200,4,2,2,5,0,0
15455,-200,4,2,2,50,0,0
15501,-200,4,2,2,5,0,0
15821,-200,4,2,2,50,0,0
15913,-200,4,2,2,5,0,0
16004,-200,4,2,2,50,0,0
17879,-200,4,2,2,5,0,0
18199,-200,4,2,2,50,0,0
18291,-200,4,2,2,5,0,0
18382,-200,4,2,2,50,0,0
18428,-200,4,2,2,5,0,0
18748,-200,4,2,2,50,0,0
18840,-200,4,2,2,5,0,0
18931,-200,4,2,2,50,0,0
20806,-200,4,2,2,5,0,0
21126,-200,4,2,2,50,0,0
21309,-200,4,2,2,50,0,0
21355,-200,4,2,2,5,0,0
21492,-200,4,2,2,50,0,0
23733,-200,4,2,2,5,0,0
24236,-200,4,2,2,50,0,0
24282,-200,4,2,2,5,0,0
24602,-200,4,2,2,50,0,0
24693,-200,4,2,2,5,0,0
24785,-200,4,2,2,50,0,0
26660,-200,4,2,2,5,0,0
26980,-200,4,2,2,50,0,0
27071,-200,4,2,2,5,0,0
27163,-200,4,2,2,50,0,0
27208,-200,4,2,2,5,0,0
27529,-200,4,2,2,50,0,0
27620,-200,4,2,2,5,0,0
27712,-200,4,2,2,50,0,0
29587,-200,4,2,2,5,0,0
29907,-200,4,2,2,50,0,0
30090,-200,4,2,2,50,0,0
30135,-200,4,2,2,5,0,0
30272,-200,4,2,2,50,0,0
32513,-200,4,2,2,5,0,0
32833,-200,4,2,2,50,0,0
33062,-200,4,2,2,5,0,0
33199,-200,4,2,2,50,0,0
34297,-200,4,2,1,55,0,0
35394,-111.111111111111,4,2,1,60,0,0
36766,-111.111111111111,4,2,1,5,0,0
36858,-111.111111111111,4,2,1,60,0,0
38596,-111.111111111111,4,2,1,5,0,0
38687,-111.111111111111,4,2,1,60,0,0
40791,-111.111111111111,4,2,1,5,0,0
40882,-111.111111111111,4,2,1,60,0,0
40974,-111.111111111111,4,2,1,5,0,0
41065,-111.111111111111,4,2,1,60,0,0
41157,-111.111111111111,4,2,1,5,0,0
41248,-111.111111111111,4,2,1,60,0,0
42620,-111.111111111111,4,2,1,5,0,0
42712,-111.111111111111,4,2,1,60,0,0
48474,-111.111111111111,4,2,1,5,0,0
48565,-111.111111111111,4,2,1,60,0,0
51401,-111.111111111111,4,2,1,5,0,0
51492,-111.111111111111,4,2,1,60,0,0
52955,-125,4,2,1,65,0,0
53687,-111.111111111111,4,2,1,65,0,0
54053,-99.9999999999999,4,2,1,65,0,0
54602,-90.9090909090909,4,2,1,65,0,0
55516,-83.3333333333333,4,2,1,70,0,0
55791,-83.3333333333333,4,2,1,5,0,0
55882,-83.3333333333333,4,2,1,70,0,0
56522,-83.3333333333333,4,2,1,5,0,0
56614,-83.3333333333333,4,2,1,70,0,0
57346,-125,4,2,1,60,0,0
58809,-76.9230769230769,4,2,1,80,0,1
59083,-76.9230769230769,4,2,1,5,0,1
59175,-76.9230769230769,4,2,1,80,0,1
59266,-76.9230769230769,4,2,1,5,0,1
59358,-76.9230769230769,4,2,1,80,0,1
59449,-76.9230769230769,4,2,1,5,0,1
59541,-76.9230769230769,4,2,1,80,0,1
59815,-76.9230769230769,4,2,1,5,0,1
59907,-76.9230769230769,4,2,1,80,0,1
59998,-76.9230769230769,4,2,1,5,0,1
60090,-76.9230769230769,4,2,1,80,0,1
60364,-76.9230769230769,4,2,1,5,0,1
60455,-76.9230769230769,4,2,1,80,0,1
62010,-76.9230769230769,4,2,1,5,0,1
62102,-76.9230769230769,4,2,1,80,0,1
62193,-76.9230769230769,4,2,1,5,0,1
62285,-76.9230769230769,4,2,1,80,0,1
62376,-76.9230769230769,4,2,1,5,0,1
62468,-76.9230769230769,4,2,1,80,0,1
62742,-76.9230769230769,4,2,1,5,0,1
62833,-76.9230769230769,4,2,1,80,0,1
62925,-76.9230769230769,4,2,1,5,0,1
63016,-76.9230769230769,4,2,1,80,0,1
63291,-76.9230769230769,4,2,1,5,0,1
63382,-76.9230769230769,4,2,1,80,0,1
64571,-76.9230769230769,4,2,1,5,0,1
64663,-76.9230769230769,4,2,1,80,0,1
64754,-76.9230769230769,4,2,1,5,0,1
64846,-76.9230769230769,4,2,1,80,0,1
65303,-76.9230769230769,4,2,1,5,0,1
65394,-76.9230769230769,4,2,1,80,0,1
65852,-76.9230769230769,4,2,1,5,0,1
65943,-76.9230769230769,4,2,1,80,0,1
67498,-76.9230769230769,4,2,1,5,0,1
67590,-76.9230769230769,4,2,1,80,0,1
67681,-76.9230769230769,4,2,1,5,0,1
67772,-76.9230769230769,4,2,1,80,0,1
68230,-76.9230769230769,4,2,1,5,0,1
68321,-76.9230769230769,4,2,1,80,0,1
69053,-62.5,4,2,1,80,0,1
69327,-62.5,4,2,1,5,0,1
69419,-71.4285714285714,4,2,1,80,0,1
69693,-71.4285714285714,4,2,1,5,0,1
69785,-71.4285714285714,4,2,1,80,0,1
70059,-71.4285714285714,4,2,1,5,0,1
70151,-100,4,2,1,80,0,1
70425,-166.666666666667,4,2,1,5,0,1
70516,-76.9230769230769,4,2,1,80,0,1
70791,-76.9230769230769,4,2,1,5,0,1
70882,-76.9230769230769,4,2,1,80,0,1
70974,-76.9230769230769,4,2,1,5,0,1
71065,-76.9230769230769,4,2,1,80,0,1
71157,-76.9230769230769,4,2,1,5,0,1
71248,-76.9230769230769,4,2,1,80,0,1
71522,-76.9230769230769,4,2,1,5,0,1
71614,-76.9230769230769,4,2,1,80,0,1
71705,-76.9230769230769,4,2,1,5,0,1
71797,-76.9230769230769,4,2,1,80,0,1
72071,-76.9230769230769,4,2,1,5,0,1
72163,-76.9230769230769,4,2,1,80,0,1
73718,-76.9230769230769,4,2,1,5,0,1
73809,-76.9230769230769,4,2,1,80,0,1
73901,-76.9230769230769,4,2,1,5,0,1
73992,-76.9230769230769,4,2,1,80,0,1
74083,-76.9230769230769,4,2,1,5,0,1
74175,-76.9230769230769,4,2,1,80,0,1
74449,-76.9230769230769,4,2,1,5,0,1
74541,-76.9230769230769,4,2,1,80,0,1
74632,-76.9230769230769,4,2,1,5,0,1
74724,-76.9230769230769,4,2,1,80,0,1
74998,-76.9230769230769,4,2,1,5,0,1
75090,-76.9230769230769,4,2,1,80,0,1
76279,-76.9230769230769,4,2,1,5,0,1
76370,-76.9230769230769,4,2,1,80,0,1
76462,-76.9230769230769,4,2,1,5,0,1
76553,-76.9230769230769,4,2,1,80,0,1
77010,-76.9230769230769,4,2,1,5,0,1
77102,-76.9230769230769,4,2,1,80,0,1
77559,-76.9230769230769,4,2,1,5,0,1
77651,-76.9230769230769,4,2,1,80,0,1
77925,-76.9230769230769,4,2,1,5,0,1
78016,-76.9230769230769,4,2,1,80,0,1
79297,-90.9090909090909,4,2,1,80,0,1
79937,-90.9090909090909,4,2,1,5,0,1
80029,-83.3333333333333,4,2,1,80,0,1
80303,-83.3333333333333,4,2,1,5,0,1
80394,-76.9230769230769,4,2,1,80,0,1
80852,-76.9230769230769,4,2,1,5,0,1
80943,-76.9230769230769,4,2,1,80,0,1
82132,-76.9230769230769,4,2,1,5,0,1
82224,-83.3333333333333,4,2,1,80,0,1
82864,-83.3333333333333,4,2,1,5,0,1
82955,-76.9230769230769,4,2,1,80,0,1
83230,-76.9230769230769,4,2,1,80,0,1
83321,-71.4285714285714,4,2,1,80,0,1
83779,-71.4285714285714,4,2,1,5,0,1
83870,-71.4285714285714,4,2,1,80,0,1
85608,-71.4285714285714,4,2,1,5,0,1
85699,-71.4285714285714,4,2,1,80,0,1
86705,-71.4285714285714,4,2,1,5,0,1
86797,-71.4285714285714,4,2,1,80,0,1
88077,-125,4,2,1,70,0,0
90272,-125,4,2,1,60,0,0
91004,-200,4,2,1,50,0,0
91050,-200,4,2,1,5,0,0
91553,-200,4,2,1,50,0,0
91599,-200,4,2,1,5,0,0
91919,-200,4,2,1,50,0,0
92010,-200,4,2,1,5,0,0
92102,-200,4,2,1,50,0,0
93199,-200,4,2,1,55,0,0
93931,-125,4,2,1,60,0,0
95486,-125,4,2,1,5,0,0
95577,-125,4,2,1,60,0,0
98413,-125,4,2,1,5,0,0
98504,-125,4,2,1,60,0,0
98962,-125,4,2,1,5,0,0
99053,-125,4,2,1,60,0,0
104266,-125,4,2,1,5,0,0
104358,-125,4,2,1,60,0,0
105364,-125,4,2,1,5,0,0
105455,-125,4,2,1,60,0,0
107193,-125,4,2,1,5,0,0
107285,-125,4,2,1,60,0,0
110120,-125,4,2,1,5,0,0
110212,-125,4,2,1,60,0,0
111766,-125,4,2,1,5,0,0
111858,-125,4,2,1,60,0,0
113047,-125,4,2,1,5,0,0
113138,-125,4,2,1,60,0,0
114419,-111.111111111111,4,2,1,60,0,0
115791,-111.111111111111,4,2,1,5,0,0
115882,-111.111111111111,4,2,1,60,0,0
117620,-111.111111111111,4,2,1,5,0,0
117712,-111.111111111111,4,2,1,60,0,0
119815,-111.111111111111,4,2,1,5,0,0
119907,-111.111111111111,4,2,1,60,0,0
119998,-111.111111111111,4,2,1,5,0,0
120090,-111.111111111111,4,2,1,60,0,0
120181,-111.111111111111,4,2,1,5,0,0
120272,-111.111111111111,4,2,1,60,0,0
121644,-111.111111111111,4,2,1,5,0,0
121736,-111.111111111111,4,2,1,60,0,0
127498,-111.111111111111,4,2,1,5,0,0
127590,-111.111111111111,4,2,1,60,0,0
131980,-125,4,2,1,60,0,0
132712,-111.111111111111,4,2,1,60,0,0
133077,-99.9999999999999,4,2,1,60,0,0
133626,-90.9090909090909,4,2,1,60,0,0
134541,-83.3333333333333,4,2,1,70,0,0
134815,-83.3333333333333,4,2,1,5,0,0
134907,-83.3333333333333,4,2,1,70,0,0
135547,-83.3333333333333,4,2,1,5,0,0
135638,-83.3333333333333,4,2,1,70,0,0
136644,-83.3333333333333,4,2,1,5,0,0
136736,-76.9230769230769,4,2,1,70,0,0
137010,-76.9230769230769,4,2,1,5,0,0
137102,-71.4285714285714,4,2,1,70,0,0
137376,-250,4,2,1,5,0,0
137468,-250,4,2,1,70,0,0
137742,-250,4,2,1,5,0,0
137833,-76.9230769230769,4,2,1,80,0,1
138108,-76.9230769230769,4,2,1,5,0,1
138199,-76.9230769230769,4,2,1,80,0,1
138291,-76.9230769230769,4,2,1,5,0,1
138382,-76.9230769230769,4,2,1,80,0,1
138474,-76.9230769230769,4,2,1,5,0,1
138565,-76.9230769230769,4,2,1,80,0,1
138840,-76.9230769230769,4,2,1,5,0,1
138931,-76.9230769230769,4,2,1,80,0,1
139022,-76.9230769230769,4,2,1,5,0,1
139114,-76.9230769230769,4,2,1,80,0,1
139388,-76.9230769230769,4,2,1,5,0,1
139480,-76.9230769230769,4,2,1,80,0,1
140852,-76.9230769230769,4,2,1,5,0,1
140943,-76.9230769230769,4,2,1,80,0,1
141949,-76.9230769230769,4,2,1,5,0,1
142041,-76.9230769230769,4,2,1,80,0,1
142315,-76.9230769230769,4,2,1,5,0,1
142407,-76.9230769230769,4,2,1,80,0,1
143596,-76.9230769230769,4,2,1,5,0,1
143687,-76.9230769230769,4,2,1,80,0,1
143779,-76.9230769230769,4,2,1,5,0,1
143870,-76.9230769230769,4,2,1,80,0,1
144144,-76.9230769230769,4,2,1,5,0,1
144236,-76.9230769230769,4,2,1,80,0,1
144876,-76.9230769230769,4,2,1,5,0,1
144968,-76.9230769230769,4,2,1,80,0,1
145242,-76.9230769230769,4,2,1,5,0,1
145333,-76.9230769230769,4,2,1,80,0,1
146522,-76.9230769230769,4,2,1,5,0,1
146614,-76.9230769230769,4,2,1,80,0,1
147254,-76.9230769230769,4,2,1,5,0,1
147346,-76.9230769230769,4,2,1,80,0,1
147437,-76.9230769230769,4,2,1,5,0,1
147529,-76.9230769230769,4,2,1,80,0,1
148077,-62.5,4,2,1,80,0,1
148352,-62.5,4,2,1,5,0,1
148443,-71.4285714285714,4,2,1,80,0,1
148718,-71.4285714285714,4,2,1,5,0,1
148809,-71.4285714285714,4,2,1,80,0,1
149083,-71.4285714285714,4,2,1,5,0,1
149175,-100,4,2,1,80,0,1
149449,-166.666666666667,4,2,1,5,0,1
149541,-76.9230769230769,4,2,1,80,0,1
149815,-76.9230769230769,4,2,1,5,0,1
149907,-76.9230769230769,4,2,1,80,0,1
149998,-76.9230769230769,4,2,1,5,0,1
150090,-76.9230769230769,4,2,1,80,0,1
150181,-76.9230769230769,4,2,1,5,0,1
150272,-76.9230769230769,4,2,1,80,0,1
150730,-76.9230769230769,4,2,1,5,0,1
150821,-76.9230769230769,4,2,1,80,0,1
151096,-76.9230769230769,4,2,1,5,0,1
151187,-76.9230769230769,4,2,1,80,0,1
152742,-76.9230769230769,4,2,1,5,0,1
152833,-76.9230769230769,4,2,1,80,0,1
152925,-76.9230769230769,4,2,1,5,0,1
153016,-76.9230769230769,4,2,1,80,0,1
153108,-76.9230769230769,4,2,1,5,0,1
153199,-76.9230769230769,4,2,1,80,0,1
153474,-76.9230769230769,4,2,1,5,0,1
153565,-76.9230769230769,4,2,1,80,0,1
154022,-76.9230769230769,4,2,1,5,0,1
154114,-76.9230769230769,4,2,1,80,0,1
154205,-76.9230769230769,4,2,1,5,0,1
154297,-76.9230769230769,4,2,1,80,0,1
155303,-76.9230769230769,4,2,1,5,0,1
155394,-76.9230769230769,4,2,1,80,0,1
155486,-76.9230769230769,4,2,1,5,0,1
155577,-76.9230769230769,4,2,1,80,0,1
155852,-76.9230769230769,4,2,1,5,0,1
155943,-76.9230769230769,4,2,1,80,0,1
156583,-76.9230769230769,4,2,1,5,0,1
156675,-76.9230769230769,4,2,1,80,0,1
156949,-76.9230769230769,4,2,1,5,0,1
157041,-76.9230769230769,4,2,1,80,0,1
158321,-90.9090909090909,4,2,1,80,0,1
158962,-90.9090909090909,4,2,1,5,0,1
159053,-83.3333333333333,4,2,1,80,0,1
159327,-83.3333333333333,4,2,1,5,0,1
159419,-76.9230769230769,4,2,1,80,0,1
159876,-76.9230769230769,4,2,1,5,0,1
159968,-76.9230769230769,4,2,1,80,0,1
161157,-76.9230769230769,4,2,1,5,0,1
161248,-83.3333333333333,4,2,1,80,0,1
161888,-83.3333333333333,4,2,1,5,0,1
161980,-76.9230769230769,4,2,1,80,0,1
162254,-76.9230769230769,4,2,1,80,0,1
162346,-71.4285714285714,4,2,1,80,0,1
162803,-71.4285714285714,4,2,1,5,0,1
162894,-71.4285714285714,4,2,1,80,0,1
164175,-71.4285714285714,4,2,1,70,0,0
164907,-142.857142857143,4,2,1,70,0,0
165181,-142.857142857143,4,2,1,5,0,0
165272,-90.9090909090909,4,2,1,70,0,0
166370,-76.9230769230769,4,2,1,70,0,0
166416,-76.9230769230769,4,2,1,5,0,0
166553,-76.9230769230769,4,2,1,70,0,0
166599,-76.9230769230769,4,2,1,5,0,0
166736,-76.9230769230769,4,2,1,70,0,0
166782,-76.9230769230769,4,2,1,5,0,0
166919,-76.9230769230769,4,2,1,70,0,0
166965,-76.9230769230769,4,2,1,5,0,0
167102,-76.9230769230769,4,2,1,70,0,0
167376,-76.9230769230769,4,2,1,5,0,0
167468,-76.9230769230769,4,2,1,70,0,0
167559,-76.9230769230769,4,2,1,5,0,0
167651,-76.9230769230769,4,2,1,70,0,0
167925,-76.9230769230769,4,2,1,5,0,0
168016,-76.9230769230769,4,2,1,70,0,0
168108,-76.9230769230769,4,2,1,5,0,0
168199,-76.9230769230769,4,2,1,70,0,0
168474,-76.9230769230769,4,2,1,5,0,0
168565,-76.9230769230769,4,2,1,70,0,0
170029,-83.3333333333333,4,2,1,70,0,0
171583,-83.3333333333333,4,2,1,5,0,0
171675,-83.3333333333333,4,2,1,70,0,0
172955,-125,4,2,1,70,0,0
173962,-125,4,2,1,5,0,0
174053,-100,4,2,1,70,0,0
174510,-100,4,2,1,5,0,0
174602,-100,4,2,1,70,0,0
175882,-142.857142857143,4,2,1,70,0,0
179266,-142.857142857143,4,2,1,5,0,0
179358,-142.857142857143,4,2,1,70,0,0
180364,-142.857142857143,4,2,1,5,0,0
180455,-142.857142857143,4,2,1,70,0,0
181736,-125,4,2,1,70,0,0
183291,-125,4,2,1,5,0,0
183382,-125,4,2,1,70,0,0
183840,-125,4,2,1,5,0,0
183931,-125,4,2,1,70,0,0
185760,-100,4,2,1,70,0,0
186218,-100,4,2,1,5,0,0
186309,-100,4,2,1,70,0,0
187590,-200,4,2,1,50,0,0
187635,-200,4,2,1,5,0,0
188138,-200,4,2,1,50,0,0
188184,-200,4,2,1,5,0,0
188504,-200,4,2,1,50,0,0
188596,-200,4,2,1,5,0,0
188687,-200,4,2,1,50,0,0
189785,-200,4,2,1,50,0,0
189968,-200,4,2,1,50,0,0
190562,-200,4,2,1,5,0,0
190882,-200,4,2,1,50,0,0
190974,-200,4,2,1,5,0,0
191065,-200,4,2,1,50,0,0
191111,-200,4,2,1,5,0,0
191431,-200,4,2,1,50,0,0
191522,-200,4,2,1,5,0,0
191614,-200,4,2,1,50,0,0
193489,-200,4,2,1,5,0,0
193809,-200,4,2,1,50,0,0
193901,-200,4,2,1,5,0,0
193992,-200,4,2,1,50,0,0
194038,-200,4,2,1,5,0,0
194358,-200,4,2,1,50,0,0
194449,-200,4,2,1,5,0,0
194541,-200,4,2,1,50,0,0
196416,-200,4,2,1,5,0,0
196736,-200,4,2,1,50,0,0
196919,-200,4,2,1,50,0,0
196965,-200,4,2,1,5,0,0
197102,-200,4,2,1,50,0,0
198931,-200,4,2,1,55,0,0
199297,-142.857142857143,4,2,1,60,0,0
199754,-142.857142857143,4,2,1,5,0,0
199846,-166.666666666667,4,2,1,60,0,0
200120,-166.666666666667,4,2,1,5,0,0
200212,-166.666666666667,4,2,1,60,0,0
200394,-200,4,2,1,60,0,0
202132,-200,4,2,1,5,0,0
202224,-200,4,2,1,60,0,0
202498,-200,4,2,1,5,0,0
202590,-200,4,2,1,60,0,0
203321,-166.666666666667,4,2,1,60,0,0
206157,-166.666666666667,4,2,1,5,0,0
206248,-166.666666666667,4,2,1,60,0,0
211004,-142.857142857143,4,2,1,60,0,0
212102,-125,4,2,1,60,0,0
214663,-125,4,2,1,70,0,0
216126,-125,4,2,1,60,0,0
216858,-76.9230769230769,4,2,1,80,0,1
217132,-76.9230769230769,4,2,1,5,0,1
217224,-76.9230769230769,4,2,1,80,0,1
217315,-76.9230769230769,4,2,1,5,0,1
217407,-76.9230769230769,4,2,1,80,0,1
217498,-76.9230769230769,4,2,1,5,0,1
217590,-76.9230769230769,4,2,1,80,0,1
217864,-76.9230769230769,4,2,1,5,0,1
217955,-76.9230769230769,4,2,1,80,0,1
218047,-76.9230769230769,4,2,1,5,0,1
218138,-76.9230769230769,4,2,1,80,0,1
218413,-76.9230769230769,4,2,1,5,0,1
218504,-76.9230769230769,4,2,1,80,0,1
220059,-76.9230769230769,4,2,1,5,0,1
220151,-76.9230769230769,4,2,1,80,0,1
220242,-76.9230769230769,4,2,1,5,0,1
220333,-76.9230769230769,4,2,1,80,0,1
220425,-76.9230769230769,4,2,1,5,0,1
220516,-76.9230769230769,4,2,1,80,0,1
220791,-76.9230769230769,4,2,1,5,0,1
220882,-76.9230769230769,4,2,1,80,0,1
220974,-76.9230769230769,4,2,1,5,0,1
221065,-76.9230769230769,4,2,1,80,0,1
221340,-76.9230769230769,4,2,1,5,0,1
221431,-76.9230769230769,4,2,1,80,0,1
222620,-76.9230769230769,4,2,1,5,0,1
222712,-76.9230769230769,4,2,1,80,0,1
222803,-76.9230769230769,4,2,1,5,0,1
222894,-76.9230769230769,4,2,1,80,0,1
223352,-76.9230769230769,4,2,1,5,0,1
223443,-76.9230769230769,4,2,1,80,0,1
223901,-76.9230769230769,4,2,1,5,0,1
223992,-76.9230769230769,4,2,1,80,0,1
224266,-76.9230769230769,4,2,1,5,0,1
224358,-76.9230769230769,4,2,1,80,0,1
225547,-76.9230769230769,4,2,1,5,0,1
225638,-76.9230769230769,4,2,1,80,0,1
225730,-76.9230769230769,4,2,1,5,0,1
225821,-76.9230769230769,4,2,1,80,0,1
226279,-76.9230769230769,4,2,1,5,0,1
226370,-76.9230769230769,4,2,1,80,0,1
227102,-62.5,4,2,1,80,0,1
227376,-62.5,4,2,1,5,0,1
227468,-71.4285714285714,4,2,1,80,0,1
227742,-71.4285714285714,4,2,1,5,0,1
227833,-71.4285714285714,4,2,1,80,0,1
228108,-71.4285714285714,4,2,1,5,0,1
228199,-100,4,2,1,80,0,1
228474,-166.666666666667,4,2,1,5,0,1
228565,-76.923076923077,4,2,1,80,0,1
228840,-76.923076923077,4,2,1,5,0,1
228931,-76.923076923077,4,2,1,80,0,1
229022,-76.923076923077,4,2,1,5,0,1
229114,-76.923076923077,4,2,1,80,0,1
229205,-76.923076923077,4,2,1,5,0,1
229297,-76.923076923077,4,2,1,80,0,1
229571,-76.923076923077,4,2,1,5,0,1
229663,-76.923076923077,4,2,1,80,0,1
229754,-76.923076923077,4,2,1,5,0,1
229846,-76.923076923077,4,2,1,80,0,1
230120,-76.923076923077,4,2,1,5,0,1
230212,-76.923076923077,4,2,1,80,0,1
231766,-76.923076923077,4,2,1,5,0,1
231858,-76.923076923077,4,2,1,80,0,1
231949,-76.923076923077,4,2,1,5,0,1
232041,-76.923076923077,4,2,1,80,0,1
232132,-76.923076923077,4,2,1,5,0,1
232224,-76.923076923077,4,2,1,80,0,1
232498,-76.923076923077,4,2,1,5,0,1
232590,-76.923076923077,4,2,1,80,0,1
232681,-76.923076923077,4,2,1,5,0,1
232772,-76.923076923077,4,2,1,80,0,1
233047,-76.923076923077,4,2,1,5,0,1
233138,-76.923076923077,4,2,1,80,0,1
234327,-76.923076923077,4,2,1,5,0,1
234419,-76.923076923077,4,2,1,80,0,1
234510,-76.923076923077,4,2,1,5,0,1
234602,-76.923076923077,4,2,1,80,0,1
235059,-76.923076923077,4,2,1,5,0,1
235151,-76.923076923077,4,2,1,80,0,1
235608,-76.923076923077,4,2,1,5,0,1
235699,-76.923076923077,4,2,1,80,0,1
235974,-76.923076923077,4,2,1,5,0,1
236065,-76.923076923077,4,2,1,80,0,1
237346,-90.9090909090909,4,2,1,80,0,1
237986,-90.9090909090909,4,2,1,5,0,1
238077,-83.3333333333333,4,2,1,80,0,1
238352,-83.3333333333333,4,2,1,5,0,1
238443,-76.9230769230769,4,2,1,80,0,1
238901,-76.9230769230769,4,2,1,5,0,1
238992,-76.9230769230769,4,2,1,80,0,1
240181,-76.9230769230769,4,2,1,5,0,1
240272,-83.3333333333333,4,2,1,80,0,1
240913,-83.3333333333333,4,2,1,5,0,1
241004,-76.9230769230769,4,2,1,80,0,1
241279,-76.9230769230769,4,2,1,80,0,1
241370,-71.4285714285714,4,2,1,80,0,1
241827,-71.4285714285714,4,2,1,5,0,1
241919,-71.4285714285714,4,2,1,80,0,1
243199,-83.3333333333333,4,2,1,70,0,0
243474,-83.3333333333333,4,2,1,5,0,0
243565,-83.3333333333333,4,2,1,70,0,0
243657,-83.3333333333333,4,2,1,5,0,0
243748,-83.3333333333333,4,2,1,70,0,0
243840,-83.3333333333333,4,2,1,5,0,0
243931,-83.3333333333333,4,2,1,70,0,0
244205,-83.3333333333333,4,2,1,5,0,0
244297,-83.3333333333333,4,2,1,70,0,0
244388,-83.3333333333333,4,2,1,5,0,0
244480,-83.3333333333333,4,2,1,70,0,0
244754,-83.3333333333333,4,2,1,5,0,0
244846,-83.3333333333333,4,2,1,70,0,0
246401,-83.3333333333333,4,2,1,5,0,0
246492,-83.3333333333333,4,2,1,70,0,0
246583,-83.3333333333333,4,2,1,5,0,0
246675,-83.3333333333333,4,2,1,70,0,0
246766,-83.3333333333333,4,2,1,5,0,0
246858,-83.3333333333333,4,2,1,70,0,0
247132,-83.3333333333333,4,2,1,5,0,0
247224,-83.3333333333333,4,2,1,70,0,0
247315,-83.3333333333333,4,2,1,5,0,0
247407,-83.3333333333333,4,2,1,70,0,0
247681,-83.3333333333333,4,2,1,5,0,0
247772,-83.3333333333333,4,2,1,70,0,0
249144,-83.3333333333333,4,2,1,5,0,0
249236,-83.3333333333333,4,2,1,70,0,0
250242,-83.3333333333333,4,2,1,5,0,0
250333,-83.3333333333333,4,2,1,70,0,0
250608,-83.3333333333333,4,2,1,5,0,0
250699,-83.3333333333333,4,2,1,70,0,0
251888,-83.3333333333333,4,2,1,5,0,0
251980,-83.3333333333333,4,2,1,70,0,0
252071,-83.3333333333333,4,2,1,5,0,0
252163,-83.3333333333333,4,2,1,70,0,0
253443,-76.9230769230769,4,2,1,70,0,0
253718,-76.9230769230769,4,2,1,5,0,0
253809,-90.9090909090909,4,2,1,70,0,0
254083,-90.9090909090909,4,2,1,5,0,0
254175,-90.9090909090909,4,2,1,70,0,0
254449,-90.9090909090909,4,2,1,5,0,0
254541,-250,4,2,1,70,0,0
254815,-250,4,2,1,5,0,0
254907,-83.3333333333333,4,2,1,70,0,0
255181,-83.3333333333333,4,2,1,5,0,0
255272,-83.3333333333333,4,2,1,70,0,0
255364,-83.3333333333333,4,2,1,5,0,0
255455,-83.3333333333333,4,2,1,70,0,0
255547,-83.3333333333333,4,2,1,5,0,0
255638,-83.3333333333333,4,2,1,70,0,0
255913,-83.3333333333333,4,2,1,5,0,0
256004,-83.3333333333333,4,2,1,70,0,0
256096,-83.3333333333333,4,2,1,5,0,0
256187,-83.3333333333333,4,2,1,70,0,0
256462,-83.3333333333333,4,2,1,5,0,0
256553,-83.3333333333333,4,2,1,70,0,0
258108,-83.3333333333333,4,2,1,5,0,0
258199,-83.3333333333333,4,2,1,70,0,0
258291,-83.3333333333333,4,2,1,5,0,0
258382,-83.3333333333333,4,2,1,70,0,0
258474,-83.3333333333333,4,2,1,5,0,0
258565,-83.3333333333333,4,2,1,70,0,0
258840,-83.3333333333333,4,2,1,5,0,0
258931,-83.3333333333333,4,2,1,70,0,0
259022,-83.3333333333333,4,2,1,5,0,0
259114,-83.3333333333333,4,2,1,70,0,0
259388,-83.3333333333333,4,2,1,5,0,0
259480,-83.3333333333333,4,2,1,70,0,0
260029,-125,4,2,1,60,0,0
260760,-200,4,2,1,60,0,0
262955,-200,4,2,1,70,0,0
263596,-200,4,2,1,5,0,0
263687,-100,4,2,1,80,0,0
264327,-100,4,2,1,5,0,0
264419,-90.9090909090909,4,2,1,80,0,0
264693,-90.9090909090909,4,2,1,5,0,0
264785,-83.3333333333333,4,2,1,80,0,0
265242,-83.3333333333333,4,2,1,5,0,0
265333,-83.3333333333333,4,2,1,80,0,0
266522,-83.3333333333333,4,2,1,5,0,0
266614,-90.9090909090909,4,2,1,80,0,0
267254,-90.9090909090909,4,2,1,5,0,0
267346,-83.3333333333333,4,2,1,80,0,0
267620,-83.3333333333333,4,2,1,80,0,0
267712,-76.9230769230769,4,2,1,80,0,0
269541,-100,4,2,1,70,0,0
272468,-142.857142857143,4,2,1,60,0,0
273016,-125,4,2,1,60,0,0
273565,-111.111111111111,4,2,1,60,0,0
274114,-99.9999999999999,4,2,1,60,0,0

[Colours]
Combo1 : 183,122,243
Combo2 : 140,244,244
Combo3 : 68,145,238

[HitObjects]
466,101,273,6,0,B|473:73|526:61|526:61|397:72|465:165|350:162,1,265.999991882324,4|10,3:2|0:0,0:0:0:0:
215,265,1370,2,0,B|153:230|82:208|82:208|60:140|144:108,1,265.999991882324,6|2,3:2|0:0,0:0:0:0:
282,47,2285,1,8,0:3:0:0:
303,60,2376,1,8,0:3:0:0:
294,79,2468,5,8,0:3:0:0:
388,176,2651,1,4,0:3:0:0:
294,259,2833,1,4,0:3:0:0:
362,322,3016,1,4,0:3:0:0:
184,384,3199,6,0,B|163:344|135:315|135:315|167:293|195:257,1,166.249994926453,4|0,3:2|0:0,0:0:0:0:
193,258,3748,1,2,3:2:0:0:
64,144,3931,2,0,B|76:189|76:189|75:195|75:195|88:246,1,99.7499969558717,10|0,0:0|0:0,0:0:0:0:
26,298,4297,6,0,P|141:256|280:213,1,265.999991882324,6|2,3:2|0:0,0:0:0:0:
168,66,5303,1,0,3:0:0:0:
159,73,5394,5,10,0:0:0:0:
333,162,5638,5,0,3:0:0:0:
212,261,5882,5,2,0:0:0:0:
201,271,5943,2,0,P|183:263|160:256,1,33.2499989852906,2|2,0:0|0:0,0:0:0:0:
295,350,6126,6,0,P|304:315|317:277,2,76,6|2|2,3:2|0:0|0:0,0:0:0:0:
223,384,6675,1,2,3:2:0:0:
65,219,6858,2,0,P|77:254|86:291,1,76,10|2,0:0|0:0,0:0:0:0:
246,173,7224,2,0,B|290:147|341:132|341:132|356:83|296:60,1,190,6|0,3:2|0:0,0:0:0:0:
305,64,7772,1,2,3:2:0:0:
477,276,8138,2,0,P|496:284|519:291,1,38,0|0,3:0|0:0,0:0:0:0:
362,342,8321,5,8,0:0:0:0:
416,195,8504,1,2,3:2:0:0:
431,180,8596,1,2,0:0:0:0:
453,185,8687,1,2,0:0:0:0:
327,248,8870,1,2,0:0:0:0:
492,116,9053,6,0,P|467:225|446:344,1,228,6|2,3:2|0:3,0:0:0:0:
271,384,9785,1,8,0:0:0:0:
209,338,9968,2,0,P|187:346|165:352,1,38,2|2,0:0|0:0,0:0:0:0:
277,134,10151,6,0,B|329:164|391:182|391:182|409:241|337:268,1,237.5,6|0,3:2|0:0,0:0:0:0:
337,267,10699,1,2,0:3:0:0:
277,307,10882,1,2,0:3:0:0:
227,251,11065,1,2,0:3:0:0:
89,347,11248,5,8,0:0:0:0:
365,30,11980,6,0,L|372:49,1,11.875,2|0,0:0|0:0,0:0:0:0:
507,259,12529,2,0,L|512:243,1,11.875,2|0,0:0|0:0,0:0:0:0:
308,123,12894,2,0,L|320:155,1,23.75,2|0,0:0|0:0,0:0:0:0:
437,174,13077,6,0,B|444:146|497:134|497:134|368:145|436:238|323:247,1,285,2|8,0:0|0:0,0:0:0:0:
244,187,14358,1,2,0:0:0:0:
184,230,14541,1,2,0:0:0:0:
214,298,14724,1,2,0:0:0:0:
18,196,14907,6,0,L|11:176,1,11.875,2|0,0:0|0:0,0:0:0:0:
206,1,15272,2,0,L|197:26,1,23.75,2|0,0:0|0:0,0:0:0:0:
98,76,15455,2,0,L|91:56,1,11.875,2|0,0:0|0:0,0:0:0:0:
251,164,15821,2,0,L|242:189,1,23.75,2|0,0:0|0:0,0:0:0:0:
214,298,16004,6,0,B|169:272|118:257|118:257|103:208|163:185,1,190,2|0,0:0|0:0,0:0:0:0:
87,348,17102,2,0,P|45:363|-1:385,1,95,10|2,0:0|0:0,0:0:0:0:
304,266,17833,6,0,L|297:248,1,11.875,2|0,0:0|0:0,0:0:0:0:
127,87,18199,2,0,L|118:108,1,23.75,2|0,0:0|0:0,0:0:0:0:
31,179,18382,2,0,L|36:191,1,11.875,2|0,0:0|0:0,0:0:0:0:
296,91,18748,2,0,L|308:58,1,23.75,2|0,0:0|0:0,0:0:0:0:
227,157,18931,6,0,B|264:177|301:180|301:180|318:219|318:219|356:225|390:246,1,190,2|0,0:0|0:0,0:0:0:0:
182,379,20029,2,0,P|155:349|167:298,1,95,10|2,0:0|0:0,0:0:0:0:
378,357,20760,6,0,L|392:362,1,11.875,2|0,0:0|0:0,0:0:0:0:
512,171,21126,1,2,0:0:0:0:
458,222,21309,2,0,L|462:236,1,11.875,2|0,0:0|0:0,0:0:0:0:
391,193,21492,1,10,0:0:0:0:
326,227,21675,1,2,0:0:0:0:
217,133,21858,6,0,B|112:169|181:223|84:264,1,190,2|0,0:0|0:0,0:0:0:0:
31,218,22772,1,2,0:0:0:0:
5,151,22955,2,0,P|16:127|23:101,2,47.5,10|2|2,0:0|0:0|0:0,0:0:0:0:
189,358,23687,6,0,L|194:374,1,11.875,2|0,0:0|0:0,0:0:0:0:
353,171,24236,2,0,L|348:187,1,11.875,2|0,0:0|0:0,0:0:0:0:
101,261,24602,2,0,L|108:286,1,23.75,2|0,0:0|0:0,0:0:0:0:
279,332,24785,6,0,B|342:295|415:273|415:273|438:203|352:170,1,285,2|8,0:0|0:0,0:0:0:0:
271,110,26065,1,2,0:0:0:0:
207,145,26248,1,2,0:0:0:0:
164,84,26431,1,2,0:0:0:0:
342,32,26614,6,0,L|337:51,1,11.875,2|0,0:0|0:0,0:0:0:0:
105,230,26980,2,0,L|97:202,1,23.75,2|0,0:0|0:0,0:0:0:0:
21,137,27163,2,0,L|24:123,1,11.875,2|0,0:0|0:0,0:0:0:0:
210,26,27529,2,0,L|203:3,1,23.75,2|0,0:0|0:0,0:0:0:0:
271,110,27712,6,0,P|358:141|451:182,1,190,2|0,0:0|0:0,0:0:0:0:
303,289,28809,2,0,P|254:309|210:334,1,95,10|2,0:0|0:0,0:0:0:0:
444,368,29541,6,0,L|438:349,1,11.875,2|0,0:0|0:0,0:0:0:0:
288,186,29907,1,2,0:0:0:0:
221,210,30090,2,0,L|217:221,1,11.875,2|0,0:0|0:0,0:0:0:0:
164,163,30272,2,0,P|141:153|112:143,1,47.5,10|0,0:0|0:0,0:0:0:0:
349,277,30638,6,0,B|362:232|402:206|402:206|368:151|358:111,1,190,2|0,0:0|0:0,0:0:0:0:
137,279,31736,2,0,P|122:324|143:365,1,95,10|2,0:0|0:0,0:0:0:0:
249,177,32468,6,0,L|232:171,1,11.875,2|0,0:0|0:0,0:0:0:0:
44,89,32833,1,2,0:0:0:0:
107,53,33016,2,0,L|113:69,1,11.875,2|0,0:0|0:0,0:0:0:0:
174,104,33199,1,10,0:0:0:0:
240,78,33382,1,2,0:0:0:0:
153,257,33565,6,0,B|220:238|220:238|243:205|243:205|321:185,1,190,2|2,0:0|0:0,0:0:0:0:
394,216,34480,1,2,0:0:0:0:
343,106,34663,1,10,0:0:0:0:
405,58,34846,1,2,0:0:0:0:
343,106,35029,2,0,P|314:94|291:85,1,47.5,2|0,0:0|0:0,0:0:0:0:
512,140,35394,6,0,P|489:212|462:317,1,170.999994781494,0|2,1:2|0:0,0:0:0:0:
400,344,35943,1,2,1:2:0:0:
267,222,36126,2,0,P|301:193|349:192,1,85.4999973907472,10|0,0:0|0:0,0:0:0:0:
197,334,36492,2,0,P|138:311|58:289,1,128.249996086121,0|0,1:2|0:0,0:0:0:0:
75,293,36858,1,2,0:0:0:0:
153,239,37041,1,2,1:2:0:0:
29,124,37224,2,0,P|12:73|-4:36,1,85.4999973907472,2|0,0:0|0:0,0:0:0:0:
176,164,37590,5,8,0:0:0:0:
0,228,37772,1,2,0:0:0:0:
138,88,37955,1,2,1:2:0:0:
74,200,38138,1,2,0:0:0:0:
281,265,38321,2,0,B|299:236|318:216|318:216|294:192|275:152,1,128.249996086121,2|0,1:2|0:0,0:0:0:0:
279,161,38687,1,2,0:0:0:0:
398,36,38870,2,0,P|435:53|486:69,1,85.4999973907472,2|8,1:2|0:0,0:0:0:0:
512,133,39236,1,2,0:0:0:0:
374,245,39419,6,0,B|279:274|338:329|244:360,1,170.999994781494,2|0,1:2|0:0,0:0:0:0:
115,275,39968,1,2,1:2:0:0:
177,231,40151,1,2,0:0:0:0:
115,285,40333,1,2,0:0:0:0:
263,221,40516,2,0,P|244:156|233:86,1,128.249996086121,10|0,0:0|0:0,0:0:0:0:
234,96,40882,2,0,P|254:90|278:78,1,42.7499986953736,2|0,1:2|0:0,0:0:0:0:
381,15,41065,2,0,P|360:8|341:0,1,42.7499986953736,2|0,0:0|0:0,0:0:0:0:
182,154,41248,6,0,P|260:121|350:95,1,170.999994781494,0|2,1:2|0:0,0:0:0:0:
413,136,41797,1,2,1:2:0:0:
313,279,41980,2,0,P|296:235|290:189,1,85.4999973907472,10|0,0:0|0:0,0:0:0:0:
494,293,42346,2,0,P|459:244|394:246,1,128.249996086121,0|0,1:2|0:0,0:0:0:0:
395,245,42712,1,2,0:0:0:0:
331,352,42894,1,2,1:2:0:0:
490,160,43077,2,0,P|507:116|513:70,1,85.4999973907472,2|0,0:0|0:0,0:0:0:0:
314,0,43443,5,8,0:0:0:0:
429,110,43626,1,2,0:0:0:0:
287,143,43809,1,2,1:2:0:0:
393,29,43992,1,2,1:2:0:0:
157,4,44175,6,0,P|148:49|133:92,1,85.4999973907472,2|2,1:2|0:0,0:0:0:0:
73,129,44541,1,2,0:0:0:0:
308,225,44724,2,0,P|294:184|286:142,1,85.4999973907472,2|8,1:2|0:0,0:0:0:0:
226,92,45090,1,2,0:0:0:0:
70,226,45272,2,0,B|113:215|155:193|155:193|196:215|172:266,1,170.999994781494,2|0,1:2|0:0,0:0:0:0:
389,379,45821,5,2,1:2:0:0:
359,308,46004,2,0,P|366:289|372:263,2,42.7499986953736,2|2|2,0:0|0:0|0:0,0:0:0:0:
182,347,46370,1,10,0:0:0:0:
284,269,46553,1,2,1:2:0:0:
202,218,46736,1,2,1:2:0:0:
267,161,46919,1,2,0:0:0:0:
172,70,47102,6,0,P|92:100|10:124,1,170.999994781494,2|2,1:2|0:0,0:0:0:0:
59,184,47651,1,2,1:2:0:0:
184,290,47833,2,0,P|211:250|191:207,1,85.4999973907472,10|0,0:0|0:0,0:0:0:0:
11,263,48199,2,0,P|31:317|46:387,1,128.249996086121,0|0,1:2|0:0,0:0:0:0:
45,384,48565,1,2,0:0:0:0:
115,341,48748,1,2,1:2:0:0:
224,384,48931,2,0,B|267:371|267:371|270:367|270:367|315:354,1,85.4999973907472,2|0,0:0|1:0,0:0:0:0:
201,217,49297,1,8,0:0:0:0:
189,224,49663,2,0,P|185:242|176:268,3,42.7499986953736,0|0|0|0,1:0|1:0|1:0|1:0,0:0:0:0:
270,170,50029,5,0,1:0:0:0:
270,170,50212,1,2,0:0:0:0:
338,196,50394,1,2,0:0:0:0:
377,129,50577,1,2,1:2:0:0:
498,185,50760,2,0,P|484:231|473:285,1,85.4999973907472,10|0,0:0|0:0,0:0:0:0:
331,354,51126,2,0,B|255:336|273:383|193:367,1,128.249996086121,2|0,1:2|0:0,0:0:0:0:
206,369,51492,1,2,0:0:0:0:
132,315,51675,1,2,1:2:0:0:
221,197,51858,2,0,P|231:243|247:286,1,85.4999973907472,2|0,0:0|1:2,0:0:0:0:
55,378,52224,5,10,0:0:0:0:
12,318,52407,1,2,0:0:0:0:
69,255,52590,1,2,1:2:0:0:
1,176,52772,1,2,0:0:0:0:
112,99,52955,6,0,B|200:125|141:166|229:200,1,152,2|0,1:2|0:0,0:0:0:0:
248,264,53504,1,2,1:2:0:0:
375,127,53687,2,0,P|328:134|284:152,1,85.4999973907472,8|0,0:0|0:0,0:0:0:0:
401,269,54053,6,0,B|364:289|327:292|327:292|310:331|310:331|272:337|238:358,1,190,2|0,1:2|0:0,0:0:0:0:
78,253,54602,2,0,P|57:163|158:138,1,209.000006378174,2|0,1:2|0:0,0:0:0:0:
311,109,55151,2,0,P|341:69|327:10,1,104.500003189087,10|0,0:0|0:0,0:0:0:0:
188,220,55516,6,0,P|167:136|140:44,1,170.999994781494,2|0,1:2|0:0,0:0:0:0:
143,54,55882,1,0,1:2:0:0:
263,171,56065,1,0,1:2:0:0:
70,265,56248,2,0,B|103:283|137:286|137:286|153:321|153:321|188:327|219:346,1,170.999994781494,0|0,1:2|0:0,0:0:0:0:
210,341,56614,1,8,0:0:0:0:
361,217,56797,1,0,1:0:0:0:
365,196,56888,1,0,1:0:0:0:
348,182,56980,1,0,1:0:0:0:
425,378,57163,2,0,P|438:352|445:323,1,56.9999982604981,0|0,1:0|1:0,0:0:0:0:
263,171,57346,6,0,B|186:190|111:229|111:229|38:190|81:99,1,304,2|2,0:0|0:0,0:0:0:0:
430,15,58809,6,0,B|455:114|367:87|397:189,1,185.249991519928,6|0,3:2|0:0,0:0:0:0:
349,245,59175,2,0,P|316:255|287:269,1,61.7499971733095,2|0,0:0|0:0,0:0:0:0:
174,195,59358,2,0,P|207:185|236:171,1,61.7499971733095,2|0,0:0|0:0,0:0:0:0:
420,258,59541,2,0,P|330:288|244:323,1,185.249991519928,10|0,0:0|0:0,0:0:0:0:
95,207,59907,2,0,P|90:173|107:146,1,61.7499971733095,2|0,3:2|0:0,0:0:0:0:
219,92,60090,2,0,B|266:103|313:127|313:127|358:103|331:47,1,185.249991519928,2|0,0:0|0:0,0:0:0:0:
288,0,60455,5,2,0:0:0:0:
435,94,60638,1,2,0:0:0:0:
406,25,60821,1,2,3:2:0:0:
252,202,61004,1,10,0:0:0:0:
260,209,61370,1,2,0:0:0:0:
299,140,61553,1,2,0:0:0:0:
71,23,61736,6,0,B|46:62|20:90|20:90|53:123|79:178,1,185.249991519928,6|0,3:2|0:0,0:0:0:0:
146,205,62102,2,0,P|136:235|129:270,1,61.7499971733095,2|0,0:0|0:0,0:0:0:0:
25,314,62285,2,0,P|18:283|8:254,1,61.7499971733095,2|0,0:0|0:0,0:0:0:0:
197,149,62468,2,0,P|167:237|146:340,1,185.249991519928,10|0,0:0|0:0,0:0:0:0:
315,379,62833,2,0,P|343:365|382:356,1,61.7499971733095,2|0,3:2|0:0,0:0:0:0:
433,261,63016,2,0,P|341:236|258:187,1,185.249991519928,2|0,0:0|0:0,0:0:0:0:
197,149,63382,5,2,0:0:0:0:
285,95,63565,1,2,0:0:0:0:
197,149,63748,1,2,3:2:0:0:
268,12,63931,1,10,0:0:0:0:
116,183,64114,1,2,3:2:0:0:
301,258,64297,1,2,0:0:0:0:
109,23,64480,2,0,P|121:49|130:82,1,61.7499971733095,2|0,0:0|0:0,0:0:0:0:
382,128,64663,6,0,P|370:154|361:187,1,61.7499971733095,6|0,3:2|0:0,0:0:0:0:
182,316,64846,2,0,B|106:333|31:372|31:372|-40:333|2:243,1,308.749985866547,2|0,0:0|0:0,0:0:0:0:
36,179,65394,1,10,0:0:0:0:
190,229,65577,1,2,0:0:0:0:
198,219,65669,1,2,0:0:0:0:
208,207,65760,2,0,P|195:174|186:142,1,61.7499971733095,2|0,3:2|0:0,0:0:0:0:
30,28,65943,2,0,B|5:67|-21:95|-21:95|12:128|38:183,1,185.249991519928,2|0,0:0|0:0,0:0:0:0:
99,221,66309,5,2,0:0:0:0:
267,103,66492,1,2,0:0:0:0:
285,122,66583,1,2,0:0:0:0:
276,147,66675,1,2,3:2:0:0:
98,67,66858,1,10,0:0:0:0:
189,148,67041,1,2,0:0:0:0:
99,221,67224,1,2,0:0:0:0:
159,290,67407,2,0,P|184:278|218:266,1,61.7499971733095,2|0,3:2|0:0,0:0:0:0:
413,184,67590,6,0,P|383:173|355:160,1,61.7499971733095,2|0,3:2|0:0,0:0:0:0:
238,31,67772,2,0,P|272:154|310:331,1,308.749985866547,2|0,0:0|0:0,0:0:0:0:
375,372,68321,1,10,0:0:0:0:
461,296,68504,1,2,0:0:0:0:
458,270,68596,1,2,0:0:0:0:
432,260,68687,2,0,P|406:272|368:286,1,61.7499971733095,2|2,0:0|0:0,0:0:0:0:
254,384,68870,2,0,P|230:367|199:341,1,61.7499971733095,2|2,0:0|0:0,0:0:0:0:
58,265,69053,6,0,B|34:210|62:160|114:177|147:122|107:63,1,228,6|0,3:2|0:0,0:0:0:0:
146,229,69419,2,0,B|140:175|95:149|62:186|11:157|16:94,1,199.499993911743,6|0,3:2|0:0,0:0:0:0:
170,0,69785,6,0,P|245:32|361:65,1,199.499993911743,14|0,3:2|0:0,0:0:0:0:
442,51,70151,2,0,B|448:22|481:-7|481:-7|446:21|415:16,1,142.5,6|0,3:2|0:0,0:0:0:0:
340,133,70516,6,0,B|334:183|291:208|260:173|212:200|216:261,1,185.249991519928,6|0,3:2|0:0,0:0:0:0:
224,320,70882,2,0,P|255:328|283:339,1,61.7499971733095,2|0,0:0|0:0,0:0:0:0:
146,229,71065,2,0,P|117:240|87:247,1,61.7499971733095,2|0,0:0|0:0,0:0:0:0:
50,384,71248,2,0,B|69:338|46:296|2:310|-24:265|8:216,1,185.249991519928,10|0,0:0|0:0,0:0:0:0:
136,105,71614,2,0,P|156:127|157:164,1,61.7499971733095,2|0,3:2|0:0,0:0:0:0:
34,130,71797,2,0,B|75:104|125:88|125:88|140:39|81:18,1,185.249991519928,2|0,0:0|0:0,0:0:0:0:
18,0,72163,5,2,0:0:0:0:
136,105,72346,1,2,0:0:0:0:
195,52,72529,1,2,3:2:0:0:
70,208,72712,1,10,0:0:0:0:
79,198,73077,1,2,0:0:0:0:
34,130,73260,1,2,0:0:0:0:
204,258,73443,6,0,B|258:244|310:226|310:226|344:263|385:256,1,185.249991519928,6|0,3:2|0:0,0:0:0:0:
435,210,73809,2,0,P|441:176|426:149,1,61.7499971733095,2|0,0:0|0:0,0:0:0:0:
298,72,73992,2,0,P|292:106|307:133,1,61.7499971733095,2|0,0:0|0:0,0:0:0:0:
512,242,74175,2,0,P|422:258|415:346,1,185.249991519928,10|0,0:0|0:0,0:0:0:0:
287,384,74541,2,0,P|253:368|223:358,1,61.7499971733095,2|0,3:2|0:0,0:0:0:0:
127,272,74724,2,0,B|86:298|36:314|36:314|21:363|80:384,1,185.249991519928,2|0,0:0|0:0,0:0:0:0:
139,353,75090,5,10,0:0:0:0:
46,231,75272,1,2,0:0:0:0:
139,353,75455,1,2,0:0:0:0:
203,209,75638,1,10,0:0:0:0:
0,313,75821,1,2,3:2:0:0:
217,379,76004,1,2,0:0:0:0:
111,124,76187,2,0,P|121:152|129:191,1,61.7499971733095,2|0,0:0|0:0,0:0:0:0:
318,297,76370,6,0,P|324:266|334:237,1,61.7499971733095,6|0,3:2|0:0,0:0:0:0:
217,379,76553,2,0,B|207:300|139:261|91:316|15:273|22:177,1,308.749985866547,2|0,0:0|0:0,0:0:0:0:
37,106,77102,1,10,0:0:0:0:
188,189,77285,1,2,0:0:0:0:
212,200,77376,1,2,0:0:0:0:
228,184,77468,2,0,P|235:153|249:120,1,61.7499971733095,2|0,3:2|0:0,0:0:0:0:
149,262,77651,6,0,P|246:223|333:201,1,185.249991519928,2|0,0:0|0:0,0:0:0:0:
375,146,78016,1,2,0:0:0:0:
474,247,78199,1,2,0:0:0:0:
512,183,78382,1,2,3:2:0:0:
348,330,78565,1,10,0:0:0:0:
359,335,78931,1,2,0:0:0:0:
312,270,79114,1,2,0:0:0:0:
465,365,79297,6,0,B|444:314|469:268|517:284|545:235|510:181,1,209.000006378174,6|0,3:2|0:0,0:0:0:0:
355,70,79846,2,0,B|333:78|333:78|330:82|330:82|306:91,1,52.2500015945435,2|0,0:0|0:0,0:0:0:0:
427,79,80029,2,0,B|395:96|362:99|362:99|347:132|347:132|314:138|284:156,1,170.999994781494,8|0,0:0|0:0,0:0:0:0:
184,239,80394,6,0,B|117:196|36:170|36:170|12:91|107:57,1,308.749985866547,2|0,3:2|0:0,0:0:0:0:
162,20,80943,1,8,0:0:0:0:
239,96,81126,1,0,0:0:0:0:
179,151,81309,1,0,3:0:0:0:
327,197,81492,2,0,L|342:152,4,30.8749985866547,10|2|2|2|2,0:0|0:3|0:3|0:3|0:3,0:0:0:0:
185,322,81858,1,2,0:3:0:0:
239,375,82041,2,0,P|267:364|302:353,1,61.7499971733095,2|0,0:0|0:0,0:0:0:0:
179,151,82224,6,0,B|221:173|265:177|265:177|284:221|284:221|328:229|368:252,1,227.999993041992,6|2,3:2|0:3,0:0:0:0:
185,322,82772,2,0,P|200:297|203:265,1,56.9999982604981,2|0,0:0|0:0,0:0:0:0:
99,363,82955,2,0,B|119:313|95:268|48:284|21:236|55:184,1,185.249991519928,8|2,0:0|0:3,0:0:0:0:
179,151,83321,6,0,B|170:117|106:102|106:102|262:115|180:228|319:224,1,332.499989852906,6|0,3:2|0:0,0:0:0:0:
359,177,83870,1,8,0:0:0:0:
203,269,84053,1,2,0:0:0:0:
250,330,84236,1,0,3:0:0:0:
381,99,84419,2,0,P|396:161|422:228,1,132.999995941162,10|0,0:0|0:0,0:0:0:0:
99,308,84785,2,0,P|123:246|138:181,1,132.999995941162,2|2,0:0|0:3,0:0:0:0:
300,384,85151,6,0,B|289:306|262:275|262:275|289:212|289:212|257:182|241:67,1,332.499989852906,6|0,3:2|0:0,0:0:0:0:
191,21,85699,1,2,0:0:0:0:
330,100,85882,1,10,0:0:0:0:
156,179,86065,1,2,0:3:0:0:
141,153,86157,1,2,0:3:0:0:
159,131,86248,6,0,B|306:156|202:241|359:270|359:270|303:255|291:203,1,332.499989852906,0|0,3:0|0:0,0:0:0:0:
370,197,86797,1,8,0:0:0:0:
383,204,87163,1,0,3:0:0:0:
251,329,87346,6,0,P|186:303|123:285,1,132.999995941162,8|2,0:0|0:3,0:0:0:0:
214,67,87712,2,0,P|279:93|342:111,1,132.999995941162,2|0,0:3|0:0,0:0:0:0:
130,156,88077,6,0,P|120:122|103:82,2,76,8|0|0,0:1|1:0|1:0,0:0:0:0:
277,247,88626,2,0,P|287:210|302:175,2,76,8|0|0,0:1|1:0|1:0,0:0:0:0:
75,324,89175,2,0,P|65:290|48:250,2,76,8|0|0,0:1|1:0|1:0,0:0:0:0:
349,384,89724,2,0,P|359:347|374:312,1,76,8|0,0:1|1:0,0:0:0:0:
208,130,90090,2,0,P|215:147|220:165,1,38,0|0,1:0|1:0,0:0:0:0:
271,319,90272,5,4,0:3:0:0:
271,319,91004,6,0,L|253:313,1,11.875,2|0,0:0|0:0,0:0:0:0:
67,384,91553,2,0,L|80:371,1,11.875,2|0,0:0|0:0,0:0:0:0:
109,168,91919,2,0,L|117:200,1,23.75,2|0,0:0|0:0,0:0:0:0:
145,292,92102,6,0,B|190:266|241:251|241:251|256:202|196:179,1,190,2|0,0:0|0:0,0:0:0:0:
364,58,93016,2,0,L|360:71,3,11.875,2|2|2|2,0:3|0:3|0:3|0:3,0:0:0:0:
300,118,93199,5,8,0:1:0:0:
422,208,93382,1,2,1:2:0:0:
337,281,93565,1,2,0:0:0:0:
391,338,93748,1,2,0:0:0:0:
260,384,93931,6,0,P|186:354|111:334,1,152,2|2,1:2|0:0,0:0:0:0:
68,278,94480,1,2,0:0:0:0:
201,165,94663,2,0,P|187:199|175:242,1,76,8|2,0:0|0:0,0:0:0:0:
14,126,95029,1,2,1:2:0:0:
75,165,95212,2,0,P|125:142|139:83,1,114
140,88,95577,1,0,1:0:0:0:
264,41,95760,1,0,1:0:0:0:
201,0,95943,1,2,0:0:0:0:
341,112,96126,2,0,P|350:150|368:194,1,76,10|0,0:0|0:0,0:0:0:0:
173,264,96492,2,0,P|186:228|195:191,1,76,2|0,0:0|0:0,0:0:0:0:
307,354,96858,6,0,P|344:295|422:291,1,152,2|2,1:2|0:0,0:0:0:0:
473,343,97407,1,2,0:0:0:0:
330,267,97590,2,0,P|316:231|307:194,1,76,8|2,0:0|0:0,0:0:0:0:
454,80,97955,1,2,1:2:0:0:
396,126,98138,2,0,B|333:107|369:82|301:63,1,114
303,63,98504,1,0,1:0:0:0:
165,162,98687,2,0,P|129:122|156:62,1,114,0|0,1:0|0:0,0:0:0:0:
146,69,99053,2,0,P|180:82|222:92,1,76,10|0,0:0|0:0,0:0:0:0:
88,217,99419,2,0,P|51:225|15:239,1,76,2|0,0:0|0:0,0:0:0:0:
208,360,99785,6,0,P|266:334|254:247,1,152,2|2,1:2|0:0,0:0:0:0:
211,198,100333,1,2,0:0:0:0:
325,103,100516,1,10,0:0:0:0:
388,152,100699,1,2,0:0:0:0:
325,103,100882,2,0,P|310:68|300:31,1,76,2|0,1:2|0:0,0:0:0:0:
451,106,101248,1,0,0:0:0:0:
451,106,101431,1,0,1:2:0:0:
388,248,101614,1,0,1:2:0:0:
322,199,101797,1,2,0:0:0:0:
402,324,101980,1,10,0:0:0:0:
500,200,102163,1,2,0:0:0:0:
304,319,102346,2,0,P|262:300|217:288,1,76,2|0,0:0|0:0,0:0:0:0:
80,165,102712,6,0,P|153:157|190:92,1,152,2|0,1:2|0:0,0:0:0:0:
252,48,103260,1,2,0:0:0:0:
78,5,103443,2,0,P|93:40|105:85,1,76,8|2,0:0|0:0,0:0:0:0:
241,187,103809,1,2,1:2:0:0:
179,233,103992,2,0,B|121:254|161:281|98:309,1,114
99,308,104358,1,0,1:0:0:0:
32,278,104541,1,0,1:0:0:0:
103,199,104724,1,0,0:0:0:0:
4,106,104907,1,8,0:0:0:0:
47,46,105090,2,0,B|89:34|89:34|103:16|103:16|148:4,1,114,2|0,0:0|0:0,0:0:0:0:
148,3,105455,1,2,0:0:0:0:
265,170,105638,6,0,B|228:148|187:136|187:136|175:97|223:78,1,152,2|2,1:2|0:0,0:0:0:0:
400,1,106187,2,0,P|393:36|375:83,1,76,2|8,0:0|0:0,0:0:0:0:
314,108,106553,1,2,0:0:0:0:
470,243,106736,1,2,1:2:0:0:
405,205,106919,2,0,B|360:217|360:217|346:235|346:235|304:247,1,114
303,247,107285,1,0,1:0:0:0:
225,151,107468,2,0,P|192:167|148:178,1,76,0|0,1:0|0:0,0:0:0:0:
379,73,107833,2,0,P|392:37|399:0,1,76,10|0,0:0|0:0,0:0:0:0:
506,106,108199,2,0,P|492:141|485:178,1,76,2|0,0:0|0:0,0:0:0:0:
303,247,108565,6,0,B|220:227|240:278|153:261,1,152,2|2,1:2|0:0,0:0:0:0:
101,209,109114,1,2,0:0:0:0:
223,108,109297,2,0,P|258:122|306:135,1,76,10|0,0:0|0:0,0:0:0:0:
417,276,109663,1,2,1:2:0:0:
358,324,109846,2,0,P|310:303|307:239,1,114
302,246,110212,1,0,1:0:0:0:
415,101,110394,2,0,P|402:133|393:175,1,76,0|0,1:0|0:0,0:0:0:0:
201,319,110760,2,0,P|160:301|114:291,1,76,10|0,0:0|0:0,0:0:0:0:
180,141,111126,2,0,P|221:159|267:169,1,76,2|0,0:0|0:0,0:0:0:0:
76,170,111492,6,0,P|59:117|33:55,1,114,2|0,1:2|0:0,0:0:0:0:
36,63,111858,1,2,0:0:0:0:
97,14,112041,1,2,0:0:0:0:
242,83,112224,2,0,P|252:49|269:10,1,76,10|0,0:0|0:0,0:0:0:0:
180,141,112590,1,2,1:2:0:0:
236,195,112772,2,0,B|284:211|284:211|295:225|295:225|349:244,1,114
338,240,113138,1,2,1:2:0:0:
461,192,113321,1,2,1:3:0:0:
512,250,113504,2,0,P|506:267|500:296,1,38,2|2,0:3|0:3,0:0:0:0:
343,372,113687,1,10,0:0:0:0:
417,296,113870,1,2,1:2:0:0:
343,372,114053,2,0,P|307:359|268:347,1,76,8|0,0:0|0:0,0:0:0:0:
96,234,114419,6,0,P|181:221|224:152,1,170.999994781494,4|2,1:2|0:0,0:0:0:0:
279,97,114968,1,2,0:0:0:0:
186,13,115151,2,0,P|150:31|107:46,1,85.4999973907472,10|0,0:0|0:0,0:0:0:0:
223,153,115516,2,0,B|303:174|255:209|337:228,1,128.249996086121,0|0,1:0|0:0,0:0:0:0:
324,224,115883,1,2,0:0:0:0:
282,326,116066,1,2,1:2:0:0:
435,219,116249,2,0,P|452:168|468:131,1,85.4999973907472,2|0,1:2|0:0,0:0:0:0:
297,24,116615,5,8,0:0:0:0:
381,120,116797,1,2,0:0:0:0:
442,65,116980,1,2,0:0:0:0:
278,148,117163,1,2,0:0:0:0:
144,0,117346,2,0,P|163:46|187:124,1,128.249996086121,2|0,1:2|0:0,0:0:0:0:
186,120,117712,1,2,0:0:0:0:
69,224,117894,2,0,P|21:214|-3:181,1,85.4999973907472,2|8,0:0|0:0,0:0:0:0:
64,151,118261,1,2,0:0:0:0:
216,247,118443,6,0,B|257:222|304:208|304:208|319:162|263:141,1,170.999994781494,2|0,1:2|0:0,0:0:0:0:
322,42,118993,1,2,1:2:0:0:
386,83,119176,1,2,1:2:0:0:
308,45,119358,1,2,0:0:0:0:
503,4,119541,2,0,P|483:65|468:132,1,128.249996086121,10|0,0:0|0:0,0:0:0:0:
468,127,119907,2,0,P|447:137|419:149,1,42.7499986953736,2|0,0:0|0:0,0:0:0:0:
306,200,120090,2,0,P|325:208|344:217,1,42.7499986953736,2|0,0:0|0:0,0:0:0:0:
503,245,120272,6,0,B|468:263|433:266|433:266|417:303|417:303|381:308|350:328,1,170.999994781494,0|2,1:2|0:0,0:0:0:0:
311,375,120822,1,2,0:0:0:0:
185,247,121004,2,0,P|228:264|276:276,1,85.4999973907472,10|0,0:0|0:0,0:0:0:0:
89,357,121370,2,0,P|41:324|60:256,1,128.249996086121,0|0,1:0|0:0,0:0:0:0:
52,262,121737,1,2,0:0:0:0:
130,197,121919,1,2,1:2:0:0:
0,97,122102,2,0,P|15:140|27:185,1,85.4999973907472,2|0,1:2|0:0,0:0:0:0:
162,303,122468,5,8,0:0:0:0:
309,203,122651,1,2,0:0:0:0:
179,124,122834,1,2,0:0:0:0:
228,192,123017,1,2,0:0:0:0:
361,56,123199,6,0,P|331:28|280:26,1,85.4999973907472,2|2,1:2|0:0,0:0:0:0:
231,72,123566,1,2,0:0:0:0:
49,140,123748,2,0,P|79:168|130:170,1,85.4999973907472,2|8,0:0|0:0,0:0:0:0:
179,124,124115,1,2,0:0:0:0:
340,192,124297,2,0,B|362:225|393:255|393:255|358:288|340:338,1,170.999994781494,2|0,1:2|0:0,0:0:0:0:
202,384,124846,5,2,1:2:0:0:
116,316,125029,2,0,P|123:336|128:356,2,42.7499986953736,2|2|2,1:2|0:0|0:0,0:0:0:0:
235,238,125395,1,10,0:0:0:0:
128,164,125578,1,2,0:0:0:0:
230,95,125761,1,2,0:0:0:0:
206,170,125944,1,2,0:0:0:0:
41,69,126126,6,0,B|87:56|131:33|131:33|174:55|149:110,1,170.999994781494,2|2,1:2|0:0,0:0:0:0:
128,164,126676,1,2,0:0:0:0:
20,262,126858,2,0,P|-5:230|1:184,1,85.4999973907472,10|0,0:0|0:0,0:0:0:0:
116,307,127224,2,0,B|180:328|180:328|182:331|182:331|247:350,1,128.249996086121,0|0,1:0|0:0,0:0:0:0:
236,347,127590,1,2,0:0:0:0:
320,291,127773,1,2,1:2:0:0:
206,177,127955,2,0,P|219:217|228:264,1,85.4999973907472,2|0,1:2|0:0,0:0:0:0:
344,124,128322,1,8,0:0:0:0:
356,132,128688,2,0,P|360:111|367:90,3,42.7499986953736,2|2|2|2,0:0|0:0|0:0|0:0,0:0:0:0:
281,65,129054,5,2,1:2:0:0:
281,65,129237,1,2,0:0:0:0:
221,113,129419,1,2,0:0:0:0:
147,34,129602,1,2,0:0:0:0:
37,125,129785,2,0,P|54:166|65:210,1,85.4999973907472,10|2,0:0|0:0,0:0:0:0:
227,284,130151,2,0,P|237:242|254:203,1,85.4999973907472,2|2,1:2|0:0,0:0:0:0:
110,286,130517,1,2,0:0:0:0:
163,338,130700,1,2,1:2:0:0:
2,378,130882,2,0,B|12:337|12:337|14:335|14:335|22:296,1,85.4999973907472,2|0,1:2|0:0,0:0:0:0:
165,229,131249,5,10,0:0:0:0:
227,284,131432,1,2,0:0:0:0:
311,205,131615,1,2,0:0:0:0:
390,315,131797,1,2,0:0:0:0:
507,220,131980,6,0,B|488:145|488:145|489:140|489:140|470:62,1,152,6|0,1:2|0:0,0:0:0:0:
421,15,132529,1,2,1:2:0:0:
285,121,132712,2,0,P|330:122|361:91,1,85.4999973907472,8|0,0:0|0:0,0:0:0:0:
165,22,133077,6,0,P|187:95|212:208,1,190,2|0,1:2|0:0,0:0:0:0:
354,323,133626,2,0,B|405:336|454:362|454:362|503:338|475:276,1,209.000006378174,2|0,1:2|0:0,0:0:0:0:
384,163,134175,2,0,P|326:145|270:116,1,104.500003189087,10|0,0:0|0:0,0:0:0:0:
127,355,134541,6,0,B|146:342|181:336|181:336|197:300|197:300|232:297|267:278,1,170.999994781494,2|0,1:2|0:0,0:0:0:0:
266,278,134907,1,8,0:0:0:0:
181,210,135090,1,0,1:0:0:0:
384,163,135272,2,0,P|362:231|337:330,1,170.999994781494,0|0,1:0|0:0,0:0:0:0:
337,327,135639,1,8,0:0:0:0:
487,383,135822,1,2,0:3:0:0:
508,376,135913,1,2,0:3:0:0:
512,355,136005,1,0,1:0:0:0:
451,223,136187,2,0,P|459:257|470:291,1,56.9999982604981,2|2,0:3|0:3,0:0:0:0:
274,384,136370,6,0,P|200:343|219:262,1,170.999994781494,6|0,1:2|0:0,0:0:0:0:
303,224,136736,6,0,P|214:249|166:172,1,185.249991519928,6|0,1:2|0:0,0:0:0:0:
208,73,137102,6,0,P|162:155|71:134,1,199.499993911743,6|0,1:2|0:0,0:0:0:0:
41,72,137468,6,0,P|53:42|61:11,1,57,6|0,1:2|0:0,0:0:0:0:
67,237,137833,6,0,P|146:208|263:175,1,185.249991519928,6|0,3:2|0:0,0:0:0:0:
312,215,138199,2,0,P|324:234|322:274,1,61.7499971733095,2|0,0:0|0:0,0:0:0:0:
193,343,138382,2,0,P|181:324|183:284,1,61.7499971733095,2|0,0:0|0:0,0:0:0:0:
312,136,138565,2,0,B|317:84|360:59|391:95|440:67|435:7,1,185.249991519928,10|0,0:0|0:0,0:0:0:0:
254,57,138931,2,0,P|246:27|232:0,1,61.7499971733095,2|0,3:2|0:0,0:0:0:0:
132,92,139114,2,0,B|85:103|38:127|38:127|-7:103|20:47,1,185.249991519928,2|0,0:0|0:0,0:0:0:0:
84,22,139480,5,2,0:0:0:0:
199,134,139663,1,2,0:0:0:0:
136,184,139846,1,2,3:2:0:0:
272,292,140029,1,10,0:0:0:0:
282,283,140394,1,2,0:0:0:0:
246,214,140577,1,2,0:0:0:0:
441,88,140760,6,0,P|432:111|420:153,1,61.7499971733095,6|0,3:2|0:0,0:0:0:0:
358,190,140943,1,2,0:0:0:0:
512,319,141126,1,2,0:0:0:0:
469,256,141309,1,2,0:0:0:0:
313,345,141492,1,10,0:0:0:0:
389,384,141675,1,2,0:0:0:0:
404,360,141766,1,2,0:0:0:0:
402,337,141858,2,0,P|393:307|382:278,1,61.7499971733095,2|0,3:2|0:0,0:0:0:0:
246,214,142041,2,0,B|145:241|208:297|106:331,1,185.249991519928,2|0,0:0|0:0,0:0:0:0:
48,287,142407,5,2,0:0:0:0:
127,193,142590,1,2,0:0:0:0:
54,136,142772,1,2,3:2:0:0:
195,95,142955,1,10,0:0:0:0:
11,208,143138,1,2,3:2:0:0:
220,280,143321,1,2,0:0:0:0:
93,26,143504,2,0,P|104:52|115:91,1,61.7499971733095,2|0,0:0|0:0,0:0:0:0:
303,154,143687,6,0,P|292:180|281:219,1,61.7499971733095,6|0,3:2|0:0,0:0:0:0:
135,299,143870,2,0,B|240:280|198:370|305:348,1,185.249991519928,2|0,0:0|0:0,0:0:0:0:
353,289,144236,1,2,0:0:0:0:
512,379,144419,1,10,0:0:0:0:
441,293,144602,1,2,0:0:0:0:
429,307,144693,1,2,0:0:0:0:
419,326,144785,2,0,P|429:354|437:384,1,61.7499971733095,2|0,3:2|0:0,0:0:0:0:
281,275,144968,2,0,P|311:187|335:98,1,185.249991519928,2|0,0:0|0:0,0:0:0:0:
407,69,145333,5,2,0:0:0:0:
254,21,145516,1,2,0:0:0:0:
234,39,145608,1,2,0:0:0:0:
239,64,145699,1,2,3:2:0:0:
400,188,145882,5,10,0:0:0:0:
281,275,146065,1,2,0:0:0:0:
183,202,146248,1,2,0:0:0:0:
118,246,146431,2,0,P|129:275|138:312,1,61.7499971733095,2|0,3:2|0:0,0:0:0:0:
193,383,146614,5,2,3:2:0:0:
48,301,146797,1,2,0:0:0:0:
193,383,146980,1,2,0:0:0:0:
281,275,147163,2,0,P|288:245|299:216,1,61.7499971733095,2|0,0:0|0:0,0:0:0:0:
110,160,147346,2,0,P|102:129|92:101,1,61.7499971733095,10|0,0:0|0:0,0:0:0:0:
207,0,147529,1,2,0:0:0:0:
223,13,147620,1,2,0:0:0:0:
233,27,147712,2,0,P|222:55|215:85,1,61.7499971733095,2|2,0:0|0:0,0:0:0:0:
283,122,147894,1,2,0:0:0:0:
321,139,147986,1,2,0:0:0:0:
388,108,148077,6,0,B|412:163|384:213|332:196|299:251|339:310,1,228,6|0,3:2|0:0,0:0:0:0:
423,339,148443,2,0,B|300:298|341:401|220:373,1,199.499993911743,6|0,3:2|0:0,0:0:0:0:
68,315,148809,6,0,B|46:269|10:227|10:227|24:175|88:189,1,199.499993911743,14|0,3:2|0:0,0:0:0:0:
138,243,149175,2,0,P|192:248|155:187,1,142.5,6|0,3:2|0:0,0:0:0:0:
105,68,149541,6,0,P|190:97|303:126,1,185.249991519928,6|0,3:2|0:0,0:0:0:0:
346,83,149907,2,0,P|331:54|333:23,1,61.7499971733095,2|0,0:0|0:0,0:0:0:0:
434,61,150090,2,0,P|434:30|420:3,1,61.7499971733095,2|0,0:0|0:0,0:0:0:0:
410,151,150272,1,10,0:0:0:0:
483,123,150455,1,2,0:0:0:0:
351,249,150638,2,0,P|357:281|369:315,1,61.7499971733095,2|0,3:2|0:0,0:0:0:0:
480,248,150821,2,0,P|383:225|299:194,1,185.249991519928,2|0,0:0|0:0,0:0:0:0:
249,133,151187,5,2,0:0:0:0:
167,262,151370,1,2,0:0:0:0:
239,244,151553,1,2,3:2:0:0:
91,78,151736,1,10,0:0:0:0:
92,88,152102,1,2,0:0:0:0:
159,43,152285,1,2,0:0:0:0:
12,159,152468,6,0,B|-8:206|15:250|60:235|89:283|54:335,1,185.249991519928,6|0,3:2|0:0,0:0:0:0:
114,378,152833,2,0,P|145:367|186:357,1,61.7499971733095,2|0,0:0|0:0,0:0:0:0:
297,262,153016,2,0,P|267:254|238:243,1,61.7499971733095,2|0,0:0|0:0,0:0:0:0:
87,181,153199,2,0,B|107:166|145:160|145:160|163:120|163:120|201:117|239:96,1,185.249991519928,10|0,0:0|0:0,0:0:0:0:
309,126,153565,1,2,3:2:0:0:
228,26,153748,1,2,0:0:0:0:
411,120,153931,2,0,P|398:150|389:188,1,61.7499971733095,2|0,0:0|0:0,0:0:0:0:
236,273,154114,2,0,P|268:269|305:258,1,61.7499971733095,10|0,0:0|0:0,0:0:0:0:
474,360,154297,2,0,P|439:313|389:266,1,123.499994346619,2|2,0:0|0:0,0:0:0:0:
233,140,154663,5,10,0:0:0:0:
354,54,154846,1,2,3:2:0:0:
431,197,155029,1,2,0:0:0:0:
255,15,155212,2,0,P|267:45|276:81,1,61.7499971733095,2|0,0:0|0:0,0:0:0:0:
450,138,155394,6,0,P|438:168|429:204,1,61.7499971733095,6|0,3:2|0:0,0:0:0:0:
297,285,155577,2,0,B|192:266|234:356|127:334,1,185.249991519928,2|0,0:0|0:0,0:0:0:0:
69,285,155943,1,2,0:0:0:0:
197,165,156126,1,10,0:0:0:0:
100,101,156309,1,2,0:0:0:0:
81,115,156401,1,2,0:0:0:0:
72,140,156492,2,0,P|83:167|92:203,1,61.7499971733095,2|0,3:2|0:0,0:0:0:0:
251,105,156675,6,0,P|219:182|193:286,1,185.249991519928,2|0,0:0|0:0,0:0:0:0:
129,334,157041,1,2,0:0:0:0:
287,256,157224,1,2,0:0:0:0:
355,303,157407,1,2,3:2:0:0:
197,165,157590,1,10,0:0:0:0:
186,152,157955,1,2,0:0:0:0:
251,105,158138,1,2,0:0:0:0:
25,31,158321,6,0,B|4:82|29:128|77:112|105:161|70:215,1,209.000006378174,6|0,3:2|0:0,0:0:0:0:
237,273,158870,2,0,P|265:264|294:252,1,52.2500015945435,2|0,0:0|0:0,0:0:0:0:
178,328,159053,2,0,B|225:318|272:294|272:294|317:319|289:375,1,170.999994781494,8|0,0:0|0:0,0:0:0:0:
165,339,159419,6,0,B|131:262|70:216|70:216|129:170|181:102,1,308.749985866547,2|0,3:2|0:0,0:0:0:0:
233,58,159968,1,8,0:0:0:0:
312,130,160151,1,0,0:0:0:0:
289,203,160333,1,0,3:0:0:0:
413,108,160516,2,0,L|428:63,4,30.8749985866547,10|2|2|2|2,0:0|0:3|0:3|0:3|0:3,0:0:0:0:
374,215,160882,1,2,0:3:0:0:
310,260,161065,2,0,P|301:230|288:202,1,61.7499971733095,2|0,0:0|0:0,0:0:0:0:
465,326,161248,6,0,B|308:287|383:387|243:364,1,227.999993041992,6|2,3:2|0:3,0:0:0:0:
133,186,161797,2,0,P|161:180|193:168,1,56.9999982604981,2|0,0:0|0:0,0:0:0:0:
72,236,161980,2,0,B|126:222|178:204|178:204|212:241|253:234,1,185.249991519928,8|2,0:0|0:3,0:0:0:0:
252,365,162346,6,0,B|218:284|258:211|334:236|378:158|323:73,1,332.499989852906,6|0,3:2|0:0,0:0:0:0:
265,22,162894,1,4,0:3:0:0:
159,117,163077,1,2,0:0:0:0:
94,67,163260,1,0,3:0:0:0:
254,141,163443,6,0,P|270:207|293:278,1,132.999995941162,10|0,0:0|0:0,0:0:0:0:
101,384,163809,2,0,P|85:318|62:247,1,132.999995941162,8|2,0:3|0:3,0:0:0:0:
289,268,164175,6,0,B|282:293|233:305|233:305|351:295|289:209|395:212,1,265.999991882324,6|2,3:2|0:0,0:0:0:0:
505,253,164724,1,2,0:0:0:0:
437,55,164907,6,0,P|399:80|401:134,1,99.7499969558717,10|0,0:0|0:0,0:0:0:0:
512,88,165272,6,0,P|513:138|471:167,1,104.500003189087,6|2,3:2|0:0,0:0:0:0:
393,212,165638,1,2,0:0:0:0:
320,171,165821,1,2,0:0:0:0:
245,264,166004,1,2,0:0:0:0:
148,141,166187,1,8,0:3:0:0:
161,113,166279,1,8,0:3:0:0:
190,103,166370,6,0,P|208:110|234:115,1,30.8749985866547,8|0,0:0|0:0,0:0:0:0:
245,264,166553,6,0,P|259:269|274:273,1,30.8749985866547,4|0,0:3|0:0,0:0:0:0:
393,212,166736,6,0,P|407:217|422:221,1,30.8749985866547,4|0,0:3|0:0,0:0:0:0:
477,309,166919,6,0,P|491:314|506:318,1,30.8749985866547,4|0,0:3|0:0,0:0:0:0:
350,374,167102,6,0,B|330:327|353:286|396:300|421:256|390:207,1,185.249991519928,6|0,3:2|0:0,0:0:0:0:
330,165,167468,2,0,P|300:183|263:196,1,61.7499971733095,10|0,0:0|0:0,0:0:0:0:
117,249,167651,6,0,B|137:202|114:161|71:175|46:131|77:82,1,185.249991519928,6|0,3:2|0:0,0:0:0:0:
137,40,168017,2,0,P|167:58|204:71,1,61.7499971733095,8|0,0:0|0:0,0:0:0:0:
330,165,168199,6,0,B|348:133|416:115|416:115|363:128|326:104,1,185.249991519928,6|0,3:2|0:0,0:0:0:0:
374,45,168565,1,10,0:0:0:0:
492,140,168748,1,2,3:2:0:0:
372,236,168931,1,2,3:2:0:0:
476,17,169205,1,0,3:0:0:0:
483,22,169297,5,10,0:0:0:0:
296,144,169541,5,0,3:0:0:0:
495,241,169785,5,2,3:2:0:0:
489,255,169846,2,0,P|466:265|432:285,1,61.7499971733095,2|2,0:0|0:0,0:0:0:0:
306,322,170029,6,0,P|271:269|303:214,2,113.999996520996,6|2|2,3:2|0:0|0:0,0:0:0:0:
399,378,170577,1,2,3:2:0:0:
193,301,170760,2,0,P|140:327|66:351,1,113.999996520996,10|2,0:0|0:0,0:0:0:0:
202,287,171126,6,0,B|171:215|206:152|272:174|310:107|262:32,1,284.999991302491,6|0,3:2|0:0,0:0:0:0:
204,0,171675,1,2,3:2:0:0:
193,6,172041,1,0,3:0:0:0:
361,110,172224,1,8,0:0:0:0:
236,199,172407,1,2,0:0:0:0:
212,172,172498,1,2,0:0:0:0:
222,142,172590,1,2,0:0:0:0:
299,161,172772,1,2,0:0:0:0:
159,278,172955,6,0,B|204:253|280:284|238:326|314:357|370:326,1,228,6|0,3:2|0:0,0:0:0:0:
512,218,173687,1,8,0:0:0:0:
473,282,173870,2,0,P|481:306|487:337,1,38
331,252,174053,6,0,B|356:192|327:139|272:157|241:102|281:39,1,237.5,6|0,3:2|0:0,0:0:0:0:
337,0,174602,1,0,3:0:0:0:
348,10,174968,1,0,3:0:0:0:
188,90,175151,1,8,0:0:0:0:
119,55,175333,2,0,P|112:35|106:5,5,47.5,2|2|2|2|2|2,0:3|0:3|0:3|0:3|0:3|0:3,0:0:0:0:
189,104,175882,6,0,B|251:139|322:161|322:161|344:229|260:261,1,265.999991882324,6|10,3:2|0:0,0:0:0:0:
71,306,176980,2,0,B|64:278|11:266|11:266|140:277|72:370|187:367,1,265.999991882324,6|2,3:2|0:0,0:0:0:0:
261,301,177894,1,8,0:3:0:0:
281,280,177986,1,8,0:3:0:0:
271,256,178077,5,8,0:0:0:0:
180,169,178260,1,4,0:3:0:0:
267,96,178443,1,4,0:3:0:0:
214,39,178626,1,4,0:3:0:0:
401,0,178809,6,0,P|380:69|358:169,1,166.249994926453,6|0,3:2|0:0,0:0:0:0:
359,160,179358,1,2,3:2:0:0:
503,285,179541,2,0,P|516:251|500:219,1,66.4999979705811,10|0,0:0|0:0,0:0:0:0:
369,278,179907,2,0,B|281:306|341:352|242:387,1,166.249994926453,6|0,3:2|0:0,0:0:0:0:
249,384,180455,1,2,3:2:0:0:
138,326,180638,1,2,3:2:0:0:
266,202,180913,1,0,3:0:0:0:
271,212,181004,5,10,0:0:0:0:
114,102,181248,5,0,3:0:0:0:
65,277,181492,5,2,0:0:0:0:
72,262,181553,2,0,P|90:253|124:238,1,33.2499989852906,2|2,0:0|0:0,0:0:0:0:
135,174,181736,6,0,P|118:130|113:88,2,76,6|2|2,3:2|0:0|0:0,0:0:0:0:
194,229,182285,1,2,3:2:0:0:
318,115,182468,2,0,P|286:90|242:94,1,76,10|2,0:0|0:0,0:0:0:0:
251,310,182833,2,0,B|226:263|194:230|194:230|231:204|263:162,1,190,6|0,3:2|0:0,0:0:0:0:
260,167,183382,1,2,3:2:0:0:
502,251,183748,2,0,P|507:271|516:297,1,38,0|0,3:2|0:0,0:0:0:0:
400,212,183931,5,8,0:0:0:0:
301,297,184114,1,2,0:0:0:0:
324,320,184205,1,2,0:0:0:0:
357,310,184297,1,2,0:0:0:0:
260,167,184480,1,2,0:0:0:0:
388,101,184663,6,0,P|362:202|316:335,1,228,6|2,3:2|0:3,0:0:0:0:
148,384,185394,1,8,0:0:0:0:
99,324,185577,2,0,P|103:311|108:281,1,38,2|2,0:3|0:3,0:0:0:0:
221,253,185760,6,0,B|244:195|216:143|162:161|130:106|170:45,1,237.5,6|0,3:2|0:0,0:0:0:0:
170,45,186309,1,2,3:2:0:0:
292,105,186492,1,2,0:3:0:0:
253,37,186675,1,4,0:3:0:0:
105,174,186858,1,8,0:0:0:0:
408,357,187590,6,0,L|403:339,1,11.875,2|0,0:0|0:0,0:0:0:0:
248,200,188138,2,0,L|253:182,1,11.875,2|0,0:0|0:0,0:0:0:0:
462,111,188504,2,0,L|455:87,1,23.75,2|0,0:0|0:0,0:0:0:0:
355,15,188687,6,0,B|299:44|244:48|244:48|219:106|219:106|162:116|111:146,1,285,2|0,0:0|0:0,0:0:0:0:
7,248,189968,1,2,0:0:0:0:
76,228,190151,1,2,0:0:0:0:
121,287,190333,1,2,0:0:0:0:
37,351,190516,6,0,L|43:331,1,11.875,2|0,0:0|0:0,0:0:0:0:
213,226,190882,2,0,L|205:199,1,23.75,2|0,0:0|0:0,0:0:0:0:
134,144,191065,2,0,L|140:124,1,11.875,2|0,0:0|0:0,0:0:0:0:
0,26,191431,2,0,L|6:48,1,23.75,2|0,0:0|0:0,0:0:0:0:
57,143,191614,6,0,B|101:116|153:102|153:102|167:53|108:30,1,190,2|0,0:0|0:0,0:0:0:0:
243,84,192529,1,2,0:0:0:0:
232,157,192712,2,0,P|247:202|259:258,1,95,2|2,0:0|0:0,0:0:0:0:
150,370,193443,6,0,L|133:364,1,11.875,2|0,0:0|0:0,0:0:0:0:
0,215,193809,2,0,L|24:206,1,23.75,2|0,0:0|0:0,0:0:0:0:
67,125,193992,2,0,L|50:119,1,11.875,2|0,0:0|0:0,0:0:0:0:
235,256,194358,2,0,L|259:247,1,23.75,2|0,0:0|0:0,0:0:0:0:
136,215,194541,6,0,B|117:156|81:100|81:100|107:41|180:68,1,237.5,2|2,0:0|0:0,0:0:0:0:
235,115,195638,2,0,P|277:100|326:86,1,95,2|2,0:0|0:0,0:0:0:0:
512,207,196370,6,0,L|506:222,1,11.875,2|0,0:0|0:0,0:0:0:0:
337,343,196736,1,2,0:0:0:0:
394,299,196919,2,0,L|388:284,1,11.875,2|0,0:0|0:0,0:0:0:0:
329,247,197102,1,2,0:0:0:0:
365,184,197285,1,2,0:0:0:0:
246,110,197468,6,0,B|253:82|306:70|306:70|177:81|245:174|132:183,1,285,2|0,0:0|0:0,0:0:0:0:
6,384,198931,2,0,L|0:361,3,23.75,2|2|2|2,0:0|0:0|0:0|0:0,0:0:0:0:
51,302,199297,6,0,P|122:329|216:351,1,166.249994926453,2|0,0:0|0:0,0:0:0:0:
192,270,199846,2,0,P|147:258|103:239,1,85.4999973907472,2|0,0:0|0:0,0:0:0:0:
110,243,200212,1,2,0:0:0:0:
198,163,200394,6,0,P|290:167|305:257,1,190,2|2,0:0|0:0,0:0:0:0:
308,249,201858,1,2,0:0:0:0:
370,294,202041,2,0,P|385:289|401:285,1,23.75,2|0,0:0|0:0,0:0:0:0:
455,209,202224,6,0,P|464:171|477:134,1,71.25,2|0,0:0|0:0,0:0:0:0:
474,140,202590,1,2,0:0:0:0:
414,61,202772,2,0,P|406:28|395:-2,2,47.5,2|0|2,0:0|0:0|0:0,0:0:0:0:
309,155,203321,6,0,B|255:186|194:204|194:204|176:262|248:290,1,227.999993041992,2|0,0:0|0:0,0:0:0:0:
476,371,204419,2,0,P|462:331|454:300,1,56.9999982604981,2|2,0:0|0:0,0:0:0:0:
462,306,204968,1,2,0:0:0:0:
301,329,205151,5,2,0:0:0:0:
234,368,205333,2,0,B|183:349|183:349|170:332|170:332|124:315,1,113.999996520996,2|0,0:0|0:0,0:0:0:0:
27,270,205882,2,0,B|63:256|63:256|72:244|72:244|105:232,1,85.4999973907472,2|0,0:0|0:0,0:0:0:0:
102,233,206248,2,0,B|78:176|105:124|159:142|193:84|152:22,1,227.999993041992,2|0,0:0|0:0,0:0:0:0:
158,32,207894,1,2,0:0:0:0:
222,79,208077,6,0,B|317:59|285:129|393:106,1,170.999994781494,2|2,0:0|0:0,0:0:0:0:
221,266,209175,2,0,B|180:242|134:229|134:229|121:185|175:165,1,170.999994781494,2|2,0:0|0:0,0:0:0:0:
379,234,210272,2,0,P|392:285|413:352,1,113.999996520996,2|2,0:0|0:0,0:0:0:0:
477,379,210821,1,2,0:0:0:0:
338,357,211004,6,0,B|299:336|261:333|261:333|244:293|244:293|205:286|169:265,1,199.499993911743,2|2,0:0|0:0,0:0:0:0:
27,145,212102,2,0,B|144:107|144:107|175:96|197:68|187:13|144:-4|88:13|89:61,1,304,2|2,0:0|0:0,0:0:0:0:
27,228,213199,2,0,P|50:289|70:387,1,152,2|0,0:0|0:0,0:0:0:0:
256,192,213931,5,2,0:0:0:0:
256,192,214663,1,0,1:0:0:0:
397,98,214846,1,2,1:3:0:0:
209,24,215029,2,0,P|216:41|225:72,1,38,8|8,0:3|0:3,0:0:0:0:
313,121,215212,1,8,0:3:0:0:
323,138,215303,1,8,0:3:0:0:
334,157,215394,5,4,0:3:0:0:
153,258,215638,5,4,0:3:0:0:
346,361,215882,5,4,0:3:0:0:
284,257,216126,5,2,1:2:0:0:
284,257,216858,6,0,B|224:236|193:288|203:292|176:339|121:320,1,185.249991519928,6|0,3:2|0:0,0:0:0:0:
64,273,217224,2,0,P|53:243|65:215,1,61.7499971733095,2|0,0:0|0:0,0:0:0:0:
205,124,217407,2,0,P|216:154|204:182,1,61.7499971733095,2|0,0:0|0:0,0:0:0:0:
7,134,217590,2,0,P|44:67|153:79,1,185.249991519928,10|0,0:0|0:0,0:0:0:0:
306,157,217955,2,0,P|323:133|328:99,1,61.7499971733095,2|0,3:2|0:0,0:0:0:0:
205,124,218138,2,0,B|103:159|175:208|71:251,1,185.249991519928,2|0,0:0|0:0,0:0:0:0:
14,207,218504,5,2,0:0:0:0:
152,300,218687,1,2,0:0:0:0:
96,355,218870,1,2,3:2:0:0:
273,269,219053,1,10,0:0:0:0:
286,268,219419,1,2,0:0:0:0:
252,199,219602,1,2,0:0:0:0:
468,122,219785,6,0,B|493:161|519:189|519:189|486:222|460:277,1,185.249991519928,6|0,3:2|0:0,0:0:0:0:
412,328,220151,2,0,P|382:317|345:308,1,61.7499971733095,2|0,0:0|0:0,0:0:0:0:
252,199,220333,2,0,P|281:191|310:180,1,61.7499971733095,2|0,0:0|0:0,0:0:0:0:
160,311,220516,2,0,B|139:267|105:228|105:228|118:179|178:192,1,185.249991519928,10|0,0:0|0:0,0:0:0:0:
315,101,220882,2,0,P|328:68|335:35,1,61.7499971733095,2|0,3:2|0:0,0:0:0:0:
220,0,221065,2,0,B|166:15|112:27|112:27|102:76|63:91,1,185.249991519928,2|0,0:0|0:0,0:0:0:0:
36,152,221431,5,2,0:0:0:0:
135,228,221614,1,2,0:0:0:0:
77,280,221797,1,2,3:2:0:0:
165,333,221980,1,10,0:0:0:0:
2,235,222163,1,2,3:2:0:0:
237,156,222346,1,2,0:0:0:0:
53,28,222529,2,0,P|64:54|74:93,1,61.7499971733095,2|0,0:0|0:0,0:0:0:0:
243,240,222712,6,0,P|274:229|305:216,1,61.7499971733095,6|0,3:2|0:0,0:0:0:0:
241,374,222894,2,0,B|273:298|235:230|164:253|119:178|174:98,1,308.749985866547,2|0,0:0|0:0,0:0:0:0:
217,45,223443,1,10,0:0:0:0:
348,113,223626,1,2,0:0:0:0:
362,136,223718,1,2,0:0:0:0:
353,160,223809,2,0,P|320:170|285:186,1,61.7499971733095,2|0,3:2|0:0,0:0:0:0:
123,284,223992,6,0,B|81:262|31:251|31:251|13:205|67:180,1,185.249991519928,2|0,0:0|0:0,0:0:0:0:
135,145,224358,1,2,0:0:0:0:
24,24,224541,1,2,0:0:0:0:
2,39,224632,1,2,0:0:0:0:
2,65,224724,1,2,3:2:0:0:
178,3,224907,1,10,0:0:0:0:
79,78,225090,1,2,0:0:0:0:
145,149,225272,1,2,0:0:0:0:
88,206,225455,2,0,P|56:196|20:186,1,61.7499971733095,2|0,3:2|0:0,0:0:0:0:
220,313,225638,6,0,P|252:303|288:293,1,61.7499971733095,2|0,3:2|0:0,0:0:0:0:
142,360,225821,2,0,B|109:284|147:216|218:239|263:164|208:84,1,308.749985866547,2|0,0:0|0:0,0:0:0:0:
227,16,226370,1,10,0:0:0:0:
79,78,226553,1,2,0:0:0:0:
69,104,226644,1,2,0:0:0:0:
88,127,226736,2,0,P|117:139|151:146,1,61.7499971733095,2|2,0:0|0:0,0:0:0:0:
282,229,226919,2,0,P|306:209|329:183,1,61.7499971733095,2|2,0:0|0:0,0:0:0:0:
161,242,227102,6,0,P|171:348|291:352,1,228,6|0,3:2|0:0,0:0:0:0:
46,358,227468,2,0,P|131:327|258:287,1,199.499993911743,6|0,3:2|0:0,0:0:0:0:
405,203,227833,6,0,B|427:151|401:105|353:121|322:70|359:15,1,199.499993911743,14|0,3:2|0:0,0:0:0:0:
276,0,228199,2,0,P|211:17|239:68,1,142.5,6|0,3:2|0:0,0:0:0:0:
43,107,228565,6,0,B|144:139|78:189|178:222,1,185.249991519928,6|0,3:2|0:0,0:0:0:0:
254,256,228931,2,0,P|272:280|267:321,1,61.7499971733095,2|0,0:0|0:0,0:0:0:0:
150,294,229114,2,0,P|149:324|167:348,1,61.7499971733095,2|0,0:0|0:0,0:0:0:0:
357,257,229297,2,0,B|380:176|417:74|418:74,1,185.249991519928,10|0,0:0|0:0,0:0:0:0:
276,0,229663,2,0,P|248:15|208:27,1,61.7499971733095,2|0,3:2|0:0,0:0:0:0:
129,91,229846,2,0,P|224:112|261:192,1,185.249991519928,2|0,0:0|0:0,0:0:0:0:
254,256,230212,5,2,0:0:0:0:
96,204,230394,1,2,0:0:0:0:
167,174,230577,1,2,3:2:0:0:
31,321,230760,1,10,0:0:0:0:
42,323,231126,1,2,0:0:0:0:
10,252,231309,1,2,0:0:0:0:
130,371,231492,6,0,B|135:319|178:294|209:330|258:302|253:242,1,185.249991519928,6|0,3:2|0:0,0:0:0:0:
316,209,231858,2,0,P|304:177|296:144,1,61.7499971733095,2|0,0:0|0:0,0:0:0:0:
191,79,232041,2,0,P|183:108|172:137,1,61.7499971733095,2|0,0:0|0:0,0:0:0:0:
328,218,232224,2,0,B|382:203|434:185|434:185|468:222|509:215,1,185.249991519928,10|0,0:0|0:0,0:0:0:0:
413,99,232590,2,0,P|420:127|432:158,1,61.7499971733095,2|0,3:2|0:0,0:0:0:0:
376,307,232772,2,0,B|255:266|295:367|177:340,1,185.249991519928,2|0,0:0|0:0,0:0:0:0:
141,301,233138,5,10,0:0:0:0:
219,216,233321,1,2,0:0:0:0:
154,172,233504,1,2,0:0:0:0:
264,125,233687,1,10,0:0:0:0:
97,223,233870,1,2,3:2:0:0:
304,279,234053,1,2,0:0:0:0:
177,41,234236,2,0,P|185:70|196:103,1,61.7499971733095,2|0,0:0|0:0,0:0:0:0:
24,183,234419,6,0,P|33:153|41:123,1,61.7499971733095,6|0,3:2|0:0,0:0:0:0:
184,34,234602,2,0,B|249:75|330:101|330:101|352:178|259:212,1,308.749985866547,2|0,0:0|0:0,0:0:0:0:
199,259,235151,1,10,0:0:0:0:
329,347,235333,1,2,0:0:0:0:
350,335,235425,1,2,0:0:0:0:
363,309,235516,2,0,P|353:279|344:247,1,61.7499971733095,2|0,3:2|0:0,0:0:0:0:
188,174,235699,6,0,B|81:211|166:257|51:299,1,185.249991519928,2|0,0:0|0:0,0:0:0:0:
0,249,236065,1,2,0:0:0:0:
150,326,236248,1,2,0:0:0:0:
103,382,236431,1,2,3:2:0:0:
276,287,236614,1,10,0:0:0:0:
287,289,236980,1,2,0:0:0:0:
253,218,237163,1,2,0:0:0:0:
428,326,237346,6,0,P|450:226|480:113,1,209.000006378174,6|0,3:2|0:0,0:0:0:0:
334,13,237894,2,0,P|316:29|289:42,1,52.2500015945435,2|0,0:0|0:0,0:0:0:0:
407,11,238077,2,0,B|313:41|372:85|256:122,1,170.999994781494,8|0,0:0|0:0,0:0:0:0:
129,211,238443,6,0,B|95:141|40:77|40:77|62:-1|159:19,1,308.749985866547,2|0,3:2|0:0,0:0:0:0:
211,75,238992,1,8,0:0:0:0:
313,183,239175,1,0,0:0:0:0:
380,141,239358,1,0,3:0:0:0:
250,260,239541,2,0,P|246:249|238:226,4,30.8749985866547,10|2|2|2|2,0:0|0:3|0:3|0:3|0:3,0:0:0:0:
363,341,239907,1,2,0:3:0:0:
448,234,240090,2,0,P|436:269|418:317,1,61.7499971733095,2|0,0:0|0:0,0:0:0:0:
272,345,240272,6,0,B|115:306|190:406|50:383,1,227.999993041992,6|2,3:2|0:3,0:0:0:0:
0,190,240821,2,0,P|12:214|22:245,1,56.9999982604981,2|0,0:0|0:0,0:0:0:0:
144,270,241004,2,0,B|188:246|241:233|241:233|259:184|201:158,1,185.249991519928,8|2,0:0|0:3,0:0:0:0:
343,53,241370,6,0,B|377:134|337:207|261:182|217:260|272:345,1,332.499989852906,6|0,3:2|0:0,0:0:0:0:
337,384,241919,1,8,0:3:0:0:
448,245,242102,1,2,0:0:0:0:
389,293,242285,1,0,3:0:0:0:
270,178,242468,2,0,P|244:113|232:49,1,132.999995941162,10|0,0:0|0:0,0:0:0:0:
0,178,242833,2,0,P|26:243|38:307,1,132.999995941162,4|2,0:3|0:3,0:0:0:0:
201,367,243199,6,0,P|273:345|260:250,1,170.999994781494,6|0,3:2|0:0,0:0:0:0:
272,261,243565,2,0,P|240:256|205:238,1,56.9999982604981,2|0,0:0|0:0,0:0:0:0:
143,242,243748,2,0,P|131:211|129:172,1,56.9999982604981,2|0,0:0|0:0,0:0:0:0:
0,178,243931,2,0,P|34:123|65:20,1,170.999994781494,10|0,0:0|0:0,0:0:0:0:
64,21,244297,2,0,P|95:13|127:1,1,56.9999982604981,6|0,3:2|0:0,0:0:0:0:
206,61,244480,6,0,B|306:90|249:136|342:166,1,170.999994781494,2|0,0:0|0:0,0:0:0:0:
335,163,244846,1,10,0:0:0:0:
482,61,245029,2,0,P|424:65|388:116,1,113.999996520996,2|0,0:0|3:0,0:0:0:0:
272,261,245394,1,8,0:0:0:0:
287,269,245760,2,0,P|301:324|322:389,1,113.999996520996,2|2,0:3|0:3,0:0:0:0:
111,319,246126,6,0,P|137:235|159:150,1,170.999994781494,4|0,3:2|0:0,0:0:0:0:
158,154,246492,2,0,P|184:141|218:137,1,56.9999982604981,2|0,0:0|0:0,0:0:0:0:
260,80,246675,2,0,P|284:96|304:123,1,56.9999982604981,2|0,0:0|0:0,0:0:0:0:
440,142,246858,2,0,P|410:227|392:320,1,170.999994781494,10|0,0:0|0:0,0:0:0:0:
393,306,247224,2,0,P|361:319|327:339,1,56.9999982604981,6|0,3:2|0:0,0:0:0:0:
237,384,247407,6,0,B|205:367|172:364|172:364|157:331|157:331|124:325|94:307,1,170.999994781494,2|0,0:0|0:0,0:0:0:0:
95,307,247772,1,10,0:0:0:0:
0,201,247955,2,0,P|55:185|118:158,1,113.999996520996,2|0,0:0|3:0,0:0:0:0:
272,24,248321,2,0,P|267:50|259:80,1,56.9999982604981,8|2,0:0|0:0,0:0:0:0:
261,10,248504,2,0,P|256:36|248:66,1,56.9999982604981,2|2,3:2|0:0,0:0:0:0:
157,83,248687,2,0,P|248:107|276:177,1,170.999994781494,2|2,0:0|0:0,0:0:0:0:
234,276,249053,6,0,P|263:265|303:257,1,56.9999982604981,6|0,3:2|0:0,0:0:0:0:
162,311,249236,2,0,B|291:267|248:376|375:346,1,227.999993041992,2|0,0:0|0:0,0:0:0:0:
476,210,249785,2,0,P|493:153|506:92,1,113.999996520996,10|0,0:0|0:0,0:0:0:0:
317,3,250151,2,0,P|323:30|331:58,1,56.9999982604981,2|0,3:2|0:0,0:0:0:0:
421,69,250333,6,0,P|335:83|305:155,1,170.999994781494,2|0,0:0|0:0,0:0:0:0:
304,153,250699,1,10,0:0:0:0:
167,233,250882,2,0,P|111:212|54:195,1,113.999996520996,0|0,0:0|3:0,0:0:0:0:
242,376,251248,1,8,0:0:0:0:
252,384,251614,1,2,0:3:0:0:
146,308,251797,2,0,P|159:336|169:370,1,56.9999982604981,2|0,3:2|0:0,0:0:0:0:
351,243,251980,6,0,P|338:271|328:305,1,56.9999982604981,6|0,3:2|0:0,0:0:0:0:
167,233,252163,2,0,P|190:131|309:123,1,227.999993041992,2|2,0:0|0:3,0:0:0:0:
441,100,252712,2,0,P|474:55|490:-7,1,113.999996520996,10|0,0:0|0:0,0:0:0:0:
298,116,253077,2,0,P|265:71|249:9,1,113.999996520996,2|0,0:0|0:0,0:0:0:0:
380,174,253443,6,0,B|399:218|376:259|334:245|307:290|340:338,1,185.249991519928,6|0,3:2|0:0,0:0:0:0:
411,308,253809,2,0,P|335:280|243:252,1,156.750004783631,6|0,3:2|0:0,0:0:0:0:
141,299,254175,6,0,P|84:242|116:177,1,156.750004783631,14|0,3:2|0:0,0:0:0:0:
184,163,254541,2,0,B|215:167|215:167|194:191,1,57,6|0,3:2|0:0,0:0:0:0:
361,151,254907,6,0,P|422:89|388:18,1,170.999994781494,6|0,3:2|0:0,0:0:0:0:
392,22,255273,2,0,P|360:27|325:45,1,56.9999982604981,2|0,0:0|0:0,0:0:0:0:
263,41,255456,2,0,P|251:72|249:111,1,56.9999982604981,2|0,0:0|0:0,0:0:0:0:
118,136,255639,2,0,P|152:191|183:294,1,170.999994781494,10|0,0:0|0:0,0:0:0:0:
182,292,256004,2,0,P|170:320|160:355,1,56.9999982604981,6|0,3:2|0:0,0:0:0:0:
273,384,256187,6,0,B|305:367|338:364|338:364|353:331|353:331|386:325|416:307,1,170.999994781494,2|0,0:0|0:0,0:0:0:0:
414,307,256554,1,10,0:0:0:0:
509,186,256736,2,0,P|448:169|382:137,1,113.999996520996,2|0,0:0|3:0,0:0:0:0:
511,281,257102,1,8,0:0:0:0:
296,215,257285,5,2,0:0:0:0:
303,206,257376,5,2,0:0:0:0:
285,194,257468,5,2,0:0:0:0:
311,167,257559,5,2,0:0:0:0:
280,135,257651,5,2,0:0:0:0:
324,102,257742,5,2,0:0:0:0:
267,57,257833,6,0,P|185:37|102:9,1,170.999994781494,6|0,3:2|0:0,0:0:0:0:
102,9,258200,2,0,P|89:35|84:69,1,56.9999982604981,2|0,0:0|0:0,0:0:0:0:
28,111,258383,2,0,P|44:135|71:155,1,56.9999982604981,2|0,0:0|0:0,0:0:0:0:
145,255,258565,2,0,B|248:278|187:326|283:351,1,170.999994781494,10|0,0:0|0:0,0:0:0:0:
279,349,258932,2,0,P|304:335|330:325,1,56.9999982604981,6|0,3:2|0:0,0:0:0:0:
458,349,259114,6,0,P|430:276|410:181,1,170.999994781494,2|0,0:0|0:0,0:0:0:0:
410,185,259480,1,10,0:0:0:0:
264,56,259663,2,0,P|251:114|230:170,1,113.999996520996,2|0,0:0|0:0,0:0:0:0:
144,283,260029,5,2,0:0:0:0:
204,326,260212,2,0,P|288:299|291:237,1,152,2|2,0:0|0:0,0:0:0:0:
167,132,260760,5,2,0:0:0:0:
167,132,260943,2,0,P|117:157|32:190,1,142.5,2|2,0:0|0:0,0:0:0:0:
143,355,261858,1,2,0:0:0:0:
143,355,262041,2,0,P|177:337|236:314,1,95,2|2,0:0|0:0,0:0:0:0:
410,34,262955,5,10,0:0:0:0:
474,62,263138,1,2,0:0:0:0:
506,131,263321,1,2,0:0:0:0:
493,210,263504,2,0,P|480:216|454:227,1,23.75,2|0,0:0|0:0,0:0:0:0:
340,297,263687,6,0,B|220:261|262:347|145:319,1,190,6|0,3:2|0:0,0:0:0:0:
19,222,264236,2,0,P|40:214|72:199,1,47.5,2|0,0:0|0:0,0:0:0:0:
160,125,264419,2,0,P|174:46|117:9,1,156.750004783631,8|0,0:0|0:0,0:0:0:0:
9,105,264785,6,0,P|137:147|290:208,1,284.999991302491,2|0,3:2|0:0,0:0:0:0:
276,202,265333,1,8,0:0:0:0:
423,80,265516,2,0,P|405:129|392:195,1,113.999996520996,0|0,0:0|3:0,0:0:0:0:
251,314,265882,2,0,P|248:302|239:282,4,28.4999991302491,10|2|2|2|2,0:0|0:3|0:3|0:3|0:3,0:0:0:0:
333,384,266248,1,2,0:3:0:0:
390,335,266431,2,0,P|395:312|412:274,1,56.9999982604981,2|0,0:0|0:0,0:0:0:0:
276,202,266614,6,0,P|176:224|157:321,1,209.000006378174,6|2,3:2|0:3,0:0:0:0:
21,384,267163,2,0,P|14:362|1:329,1,52.2500015945435,2|0,0:0|0:0,0:0:0:0:
46,247,267346,2,0,P|75:176|97:72,1,170.999994781494,8|2,0:0|0:3,0:0:0:0:
19,49,267712,6,0,B|166:93|114:-12|258:22,1,246.999988693238,6|2,3:2|0:3,0:0:0:0:
369,146,268260,1,4,0:3:0:0:
312,203,268443,2,0,P|252:227|194:257,1,123.499994346619,2|0,0:0|3:0,0:0:0:0:
373,384,268809,2,0,P|400:332|371:268,1,123.499994346619,10|0,0:0|0:0,0:0:0:0:
136,199,269175,2,0,P|109:251|138:315,1,123.499994346619,8|2,0:3|0:3,0:0:0:0:
312,203,269541,6,0,B|331:157|307:115|264:130|236:83|270:34,1,190,6|0,3:2|0:0,0:0:0:0:
165,0,270090,2,0,B|61:37|145:87|18:141,1,190,2|0,1:2|0:0,0:0:0:0:
0,228,270638,2,0,P|99:264|192:308,1,190,8|0,0:3|0:0,0:0:0:0:
107,368,271187,2,0,P|193:328|282:296,1,190,4|0,0:3|1:0,0:0:0:0:
403,208,271736,2,0,P|379:155|370:105,1,95,8|0,0:3|0:0,0:0:0:0:
228,37,272102,2,0,P|216:83|196:125,1,95,4|0,0:3|0:0,0:0:0:0:
64,225,272468,6,0,P|23:213|-12:202,2,66.4999979705811,8|0|0,0:1|1:0|1:0,0:0:0:0:
196,125,273016,2,0,P|157:136|119:147,2,76,8|0|0,0:1|1:0|1:0,0:0:0:0:
272,308,273565,2,0,P|215:291|167:276,2,85.4999973907472,8|0|0,0:1|1:0|1:0,0:0:0:0:
415,69,274114,2,0,P|365:84|316:98,1,95,8|0,0:1|1:0,0:0:0:0:
503,376,274480,2,0,P|480:369|457:361,1,47.5,0|0,1:0|1:0,0:0:0:0:
379,241,274663,5,8,1:0:0:0:
