osu file format v14

[General]
AudioFilename: audio.mp3
AudioLeadIn: 0
PreviewTime: 93275
Countdown: 0
SampleSet: Soft
StackLeniency: 0.7
Mode: 0
LetterboxInBreaks: 0
WidescreenStoryboard: 1

[Editor]
Bookmarks: 80232,93928,131998,135667,140803,253547
DistanceSpacing: 1
BeatDivisor: 8
GridSize: 32
TimelineZoom: 1.7

[Metadata]
Title:Pretender
TitleUnicode:Pretender
Artist:Official HIGE DANdism
ArtistUnicode:Official髭男dism
Creator:Sekai
Version:Fallen Leaves...
Source:コンフィデンスマンJP ーロマンス編ー
Tags:Sekaii Sekai-nyan 052519 The Confidence Man JP The Movie Traveler HIGEDAN 楢崎誠 小笹大輔 藤原聡 松浦匡希 Satoshi Fujihara Daisuke Ozasa Makoto Narazaki Masaki Matsuura Tatsuya Mochiduki Innovator Associates Inc. inc Genki Wada Masahito Komori Ted Jensen STERLING SOUND KittyAdventure Kyouren Addy2607 KaedeharaKazuha j-pop jpop pop japanese drama Confidenceman lover sad cry love goodbye marathon gokugohan12468 romance-hen romansu-hen romance romansu hen オフィシャルヒゲダンディズム japan Kaedehara Kazuha オフィシャルヒゲダンディズム
BeatmapID:3736827
BeatmapSetID:1821118

[Difficulty]
HPDrainRate:5.5
CircleSize:4
OverallDifficulty:8.5
ApproachRate:9.3
SliderMultiplier:3.4
SliderTickRate:2

[Events]
//Background and Video events
Video,-220,"video.mp4"
0,0,"sadkazuha.jpg",0,0
//Break Periods
//Storyboard Layer 0 (Background)
//Storyboard Layer 1 (Fail)
//Storyboard Layer 2 (Pass)
//Storyboard Layer 3 (Foreground)
//Storyboard Layer 4 (Overlay)
//Storyboard Sound Samples

[TimingPoints]
15,652.173913043478,4,2,1,35,1,0
15,-133.333333333333,4,2,1,35,0,0
10449,-100,4,2,1,80,0,1
20803,-100,4,2,1,80,0,0
20884,-100,4,2,1,80,0,1
31319,-303.030303030303,4,2,1,50,0,0
33846,-200,4,2,1,5,0,0
33928,-200,4,2,1,50,0,0
35150,-200,4,2,1,5,0,0
35232,-200,4,2,1,50,0,0
36455,-200,4,2,1,5,0,0
36536,-200,4,2,1,50,0,0
38982,-200,4,2,1,5,0,0
39145,-303.030303030303,4,2,1,50,0,0
41591,-303.030303030303,4,2,1,5,0,0
41754,-303.030303030303,4,2,1,50,0,0
44199,-232.558139534884,4,2,1,5,0,0
44362,-250,4,2,1,50,0,0
45585,-250,4,2,1,5,0,0
45667,-250,4,2,1,50,0,0
46889,-250,4,2,1,5,0,0
46971,-181.818181818181,4,2,1,60,0,0
47623,-142.857142857143,4,2,1,55,0,0
67351,-250.000000000001,4,2,1,45,0,0
67759,-250.000000000001,4,2,1,5,0,0
67841,-95.2380952380952,4,2,1,70,0,1
68085,-95.2380952380952,4,2,1,5,0,0
68167,-95.2380952380952,4,2,1,70,0,0
68411,-95.2380952380952,4,2,1,5,0,0
68493,-95.2380952380952,4,2,1,70,0,0
69063,-95.2380952380952,4,2,1,5,0,0
69145,-95.2380952380952,4,2,1,70,0,0
69553,-95.2380952380952,4,2,1,5,0,0
69634,-95.2380952380952,4,2,1,70,0,0
69716,-95.2380952380952,4,2,1,5,0,0
69797,-90.9090909090909,4,2,1,70,0,0
70042,-90.9090909090909,4,2,1,5,0,0
70123,-83.3333333333333,4,2,1,70,0,0
70368,-83.3333333333333,4,2,1,5,0,0
70449,-95.2380952380952,4,2,1,70,0,0
70694,-95.2380952380952,4,2,1,5,0,0
70775,-95.2380952380952,4,2,1,70,0,0
71020,-95.2380952380952,4,2,1,5,0,0
71101,-95.2380952380952,4,2,1,70,0,0
71672,-95.2380952380952,4,2,1,5,0,0
71754,-95.2380952380952,4,2,1,70,0,0
71917,-105.263157894737,4,2,1,70,0,0
72161,-105.263157894737,4,2,1,5,0,0
72243,-95.2380952380952,4,2,1,70,0,0
72324,-95.2380952380952,4,2,1,5,0,0
72406,-90.9090909090909,4,2,1,70,0,0
72650,-90.9090909090909,4,2,1,5,0,0
72732,-83.3333333333333,4,2,1,70,0,0
72976,-83.3333333333333,4,2,1,5,0,0
73058,-95.2380952380952,4,2,1,70,0,0
73303,-95.2380952380952,4,2,1,5,0,0
73384,-95.2380952380952,4,2,1,70,0,0
73466,-95.2380952380952,4,2,1,5,0,0
73547,-95.2380952380952,4,2,1,70,0,0
73629,-95.2380952380952,4,2,1,5,0,0
73710,-80,4,2,1,70,0,0
73955,-80,4,2,1,5,0,0
74036,-66.6666666666667,4,2,1,70,0,0
74118,-66.6666666666667,4,2,1,5,0,0
74199,-66.6666666666667,4,2,1,70,0,0
74281,-66.6666666666667,4,2,1,5,0,0
74362,-95.2380952380952,4,2,1,70,0,0
74770,-95.2380952380952,4,2,1,5,0,0
74851,-95.2380952380952,4,2,1,70,0,0
74933,-95.2380952380952,4,2,1,5,0,0
75014,-90.9090909090909,4,2,1,70,0,0
75259,-90.9090909090909,4,2,1,5,0,0
75341,-133.333333333333,4,2,1,70,0,0
75585,-133.333333333333,4,2,1,5,0,0
75667,-1000,4,2,1,70,0,0
75911,-1000,4,2,1,5,0,0
75993,-95.2380952380952,4,2,1,70,0,0
76237,-95.2380952380952,4,2,1,5,0,0
76319,-95.2380952380952,4,2,1,70,0,0
76563,-95.2380952380952,4,2,1,5,0,0
76645,-95.2380952380952,4,2,1,70,0,0
76889,-95.2380952380952,4,2,1,5,0,0
76971,-95.2380952380952,4,2,1,70,0,0
77134,-105.263157894737,4,2,1,70,0,0
77379,-105.263157894737,4,2,1,5,0,0
77460,-66.6666666666667,4,2,1,70,0,0
77542,-66.6666666666667,4,2,1,5,0,0
77623,-90.9090909090909,4,2,1,70,0,0
77868,-90.9090909090909,4,2,1,5,0,0
77949,-133.333333333333,4,2,1,70,0,0
78194,-133.333333333333,4,2,1,5,0,0
78275,-166.666666666667,4,2,1,70,0,0
78520,-166.666666666667,4,2,1,5,0,0
78601,-285.714285714286,4,2,1,70,0,0
78846,-285.714285714286,4,2,1,5,0,0
78928,-142.857142857143,4,2,1,70,0,0
79498,-142.857142857143,4,2,1,5,0,0
79580,-95.2380952380952,4,2,1,70,0,0
79987,-95.2380952380952,4,2,1,5,0,0
80069,-95.2380952380952,4,2,1,70,0,0
80150,-95.2380952380952,4,2,1,5,0,0
80232,-90.9090909090909,4,2,1,70,0,0
80476,-90.9090909090909,4,2,1,5,0,0
80558,-83.3333333333333,4,2,1,70,0,0
80803,-83.3333333333333,4,2,1,5,0,0
80884,-95.2380952380952,4,2,1,70,0,0
81129,-95.2380952380952,4,2,1,5,0,0
81210,-90.9090909090909,4,2,1,70,0,0
81455,-90.9090909090909,4,2,1,5,0,0
81536,-95.2380952380952,4,2,1,70,0,0
81862,-80,4,2,1,70,0,0
81944,-80,4,2,1,5,0,0
82025,-95.2380952380952,4,2,1,70,0,0
82188,-95.2380952380952,4,2,1,70,0,0
82351,-80,4,2,1,70,0,0
82596,-80,4,2,1,5,0,0
82678,-95.2380952380952,4,2,1,70,0,0
82759,-95.2380952380952,4,2,1,5,0,0
82841,-90.9090909090909,4,2,1,70,0,0
83085,-90.9090909090909,4,2,1,5,0,0
83167,-133.333333333333,4,2,1,70,0,0
83411,-133.333333333333,4,2,1,5,0,0
83493,-142.857142857143,4,2,1,70,0,0
83737,-142.857142857143,4,2,1,5,0,0
83819,-142.857142857143,4,2,1,70,0,0
84063,-142.857142857143,4,2,1,5,0,0
84145,-86.9565217391304,4,2,1,70,0,0
84389,-86.9565217391304,4,2,1,5,0,0
84471,-86.9565217391304,4,2,1,70,0,0
84797,-95.2380952380952,4,2,1,70,0,0
85205,-95.2380952380952,4,2,1,5,0,0
85286,-95.2380952380952,4,2,1,70,0,0
85368,-95.2380952380952,4,2,1,5,0,0
85449,-74.0740740740741,4,2,1,70,0,0
85694,-74.0740740740741,4,2,1,5,0,0
85775,-66.6666666666667,4,2,1,70,0,0
86020,-66.6666666666667,4,2,1,5,0,0
86101,-333.333333333333,4,2,1,70,0,0
86346,-200,4,2,1,5,0,0
86428,-66.6666666666667,4,2,1,70,0,0
86672,-66.6666666666667,4,2,1,5,0,0
86754,-95.2380952380952,4,2,1,70,0,0
87406,-95.2380952380952,4,2,1,70,0,0
87569,-105.263157894737,4,2,1,70,0,0
87976,-105.263157894737,4,2,1,5,0,0
88058,-83.3333333333333,4,2,1,70,0,0
88139,-83.3333333333333,4,2,1,5,0,0
88221,-90.9090909090909,4,2,1,70,0,0
88303,-90.9090909090909,4,2,1,5,0,0
88384,-100,4,2,1,70,0,0
88466,-100,4,2,1,5,0,0
88547,-133.333333333333,4,2,1,70,0,0
88629,-133.333333333333,4,2,1,5,0,0
88710,-111.111111111111,4,2,1,60,0,0
89362,-117.647058823529,4,2,1,60,0,0
90014,-133.333333333333,4,2,1,60,0,0
90667,-153.846153846154,4,2,1,60,0,0
91319,-166.666666666667,4,2,1,60,0,0
91971,-181.818181818182,4,2,1,60,0,0
92623,-200,4,2,1,60,0,0
93275,-250.000000000001,4,2,1,35,0,0
93520,-250.000000000001,4,2,1,5,0,0
93601,-250.000000000001,4,2,1,35,0,0
93846,-250.000000000001,4,2,1,5,0,0
93928,-86.9565217391304,4,2,1,80,0,1
105911,-86.9565217391304,4,2,1,5,0,1
105993,-86.9565217391304,4,2,1,80,0,1
106237,-86.9565217391304,4,2,1,5,0,1
106319,-86.9565217391304,4,2,1,80,0,1
106563,-86.9565217391304,4,2,1,5,0,1
106645,-83.3333333333333,4,2,1,80,0,1
106971,-86.9565217391304,4,2,1,80,0,1
114716,-86.9565217391304,4,2,1,80,0,0
114797,-86.9565217391304,4,2,1,80,0,1
126781,-86.9565217391304,4,2,1,5,0,1
126862,-86.9565217391304,4,2,1,80,0,1
127107,-86.9565217391304,4,2,1,5,0,1
127188,-86.9565217391304,4,2,1,80,0,1
127433,-86.9565217391304,4,2,1,5,0,1
127514,-83.3333333333333,4,2,1,80,0,1
127841,-86.9565217391304,4,2,1,80,0,1
135667,-250,4,2,1,80,0,1
140803,-222.222222222222,4,2,1,5,0,0
140884,-133.333333333333,4,2,1,60,0,0
141210,-66.6666666666667,4,2,1,60,0,0
141536,-133.333333333333,4,2,1,60,0,0
142841,-133.333333333333,4,2,1,70,0,0
143493,-100,4,2,1,70,0,0
148302,-100,4,2,1,5,0,0
148384,-100,4,2,1,70,0,0
150177,-95.2380952380952,4,2,1,70,0,0
150422,-95.2380952380952,4,2,1,5,0,0
150504,-95.2380952380952,4,2,1,70,0,0
157596,-100,4,2,1,5,0,0
157677,-100,4,2,1,70,0,0
157922,-100,4,2,1,5,0,0
158004,-100,4,2,1,70,0,0
161101,-285.714285714286,4,2,1,60,0,0
161672,-285.714285714286,4,2,1,5,0,0
161754,-95.2380952380952,4,2,1,70,0,1
161998,-95.2380952380952,4,2,1,5,0,0
162080,-95.2380952380952,4,2,1,70,0,0
162324,-95.2380952380952,4,2,1,5,0,0
162406,-95.2380952380952,4,2,1,70,0,0
162976,-95.2380952380952,4,2,1,5,0,0
163058,-95.2380952380952,4,2,1,70,0,0
163466,-95.2380952380952,4,2,1,5,0,0
163547,-95.2380952380952,4,2,1,70,0,0
163629,-95.2380952380952,4,2,1,5,0,0
163710,-90.9090909090909,4,2,1,70,0,0
163955,-90.9090909090909,4,2,1,5,0,0
164036,-83.3333333333333,4,2,1,70,0,0
164281,-83.3333333333333,4,2,1,5,0,0
164362,-95.2380952380952,4,2,1,70,0,0
164607,-95.2380952380952,4,2,1,5,0,0
164688,-95.2380952380952,4,2,1,70,0,0
164933,-95.2380952380952,4,2,1,5,0,0
165014,-95.2380952380952,4,2,1,70,0,0
165585,-95.2380952380952,4,2,1,5,0,0
165667,-95.2380952380952,4,2,1,70,0,0
165830,-105.263157894737,4,2,1,70,0,0
166074,-105.263157894737,4,2,1,5,0,0
166156,-95.2380952380952,4,2,1,70,0,0
166237,-95.2380952380952,4,2,1,5,0,0
166319,-90.9090909090909,4,2,1,70,0,0
166563,-90.9090909090909,4,2,1,5,0,0
166645,-83.3333333333333,4,2,1,70,0,0
166889,-83.3333333333333,4,2,1,5,0,0
166971,-95.2380952380952,4,2,1,70,0,0
167216,-95.2380952380952,4,2,1,5,0,0
167297,-95.2380952380952,4,2,1,70,0,0
167379,-95.2380952380952,4,2,1,5,0,0
167460,-95.2380952380952,4,2,1,70,0,0
167542,-95.2380952380952,4,2,1,5,0,0
167623,-80,4,2,1,70,0,0
167868,-80,4,2,1,5,0,0
167949,-66.6666666666667,4,2,1,70,0,0
168031,-66.6666666666667,4,2,1,5,0,0
168112,-66.6666666666667,4,2,1,70,0,0
168194,-66.6666666666667,4,2,1,5,0,0
168275,-95.2380952380952,4,2,1,70,0,0
168683,-95.2380952380952,4,2,1,5,0,0
168764,-95.2380952380952,4,2,1,70,0,0
168846,-95.2380952380952,4,2,1,5,0,0
168927,-90.9090909090909,4,2,1,70,0,0
169172,-90.9090909090909,4,2,1,5,0,0
169254,-133.333333333333,4,2,1,70,0,0
169498,-133.333333333333,4,2,1,5,0,0
169580,-1000,4,2,1,70,0,0
169824,-1000,4,2,1,5,0,0
169906,-87.719298245614,4,2,1,70,0,0
170150,-87.719298245614,4,2,1,5,0,0
170232,-95.2380952380952,4,2,1,70,0,0
170476,-95.2380952380952,4,2,1,5,0,0
170558,-133.333333333333,4,2,1,70,0,0
170802,-133.333333333333,4,2,1,5,0,0
170884,-95.2380952380952,4,2,1,70,0,0
171047,-90.9090909090909,4,2,1,70,0,0
171292,-90.9090909090909,4,2,1,5,0,0
171373,-66.6666666666667,4,2,1,70,0,0
171455,-66.6666666666667,4,2,1,5,0,0
171536,-90.9090909090909,4,2,1,70,0,0
171781,-90.9090909090909,4,2,1,5,0,0
171862,-133.333333333333,4,2,1,70,0,0
172107,-133.333333333333,4,2,1,5,0,0
172188,-166.666666666667,4,2,1,70,0,0
172433,-166.666666666667,4,2,1,5,0,0
172514,-285.714285714286,4,2,1,70,0,0
172759,-285.714285714286,4,2,1,5,0,0
172841,-142.857142857143,4,2,1,70,0,0
173330,-100,4,2,1,70,0,0
173411,-100,4,2,1,5,0,0
173493,-95.2380952380952,4,2,1,70,0,0
173900,-95.2380952380952,4,2,1,5,0,0
173982,-95.2380952380952,4,2,1,70,0,0
174063,-95.2380952380952,4,2,1,5,0,0
174145,-90.9090909090909,4,2,1,70,0,0
174389,-90.9090909090909,4,2,1,5,0,0
174471,-90.9090909090909,4,2,1,70,0,0
174716,-90.9090909090909,4,2,1,5,0,0
174797,-117.647058823529,4,2,1,70,0,0
175042,-117.647058823529,4,2,1,5,0,0
175123,-90.9090909090909,4,2,1,70,0,0
175368,-90.9090909090909,4,2,1,5,0,0
175449,-95.2380952380952,4,2,1,70,0,0
175775,-80,4,2,1,70,0,0
175938,-95.2380952380952,4,2,1,70,0,0
176101,-95.2380952380952,4,2,1,70,0,0
176264,-80,4,2,1,70,0,0
176509,-80,4,2,1,5,0,0
176591,-66.6666666666667,4,2,1,70,0,0
176672,-66.6666666666667,4,2,1,5,0,0
176754,-90.9090909090909,4,2,1,70,0,0
176998,-90.9090909090909,4,2,1,5,0,0
177080,-133.333333333333,4,2,1,70,0,0
177324,-133.333333333333,4,2,1,5,0,0
177406,-142.857142857143,4,2,1,70,0,0
177650,-142.857142857143,4,2,1,5,0,0
177732,-80,4,2,1,70,0,0
177976,-80,4,2,1,5,0,0
178058,-66.6666666666667,4,2,1,70,0,0
178302,-66.6666666666667,4,2,1,5,0,0
178384,-86.9565217391304,4,2,1,70,0,0
178710,-95.2380952380952,4,2,1,70,0,0
179118,-95.2380952380952,4,2,1,5,0,0
179199,-95.2380952380952,4,2,1,70,0,0
179281,-95.2380952380952,4,2,1,5,0,0
179362,-74.0740740740741,4,2,1,70,0,0
179607,-74.0740740740741,4,2,1,5,0,0
179688,-66.6666666666667,4,2,1,70,0,0
179933,-66.6666666666667,4,2,1,5,0,0
180014,-333.333333333333,4,2,1,70,0,0
180259,-200,4,2,1,5,0,0
180341,-66.6666666666667,4,2,1,70,0,0
180585,-66.6666666666667,4,2,1,5,0,0
180667,-95.2380952380952,4,2,1,70,0,0
181319,-95.2380952380952,4,2,1,70,0,0
181482,-105.263157894737,4,2,1,70,0,0
181889,-105.263157894737,4,2,1,5,0,0
181971,-83.3333333333333,4,2,1,70,0,0
182052,-83.3333333333333,4,2,1,5,0,0
182134,-90.9090909090909,4,2,1,70,0,0
182216,-90.9090909090909,4,2,1,5,0,0
182297,-100,4,2,1,70,0,0
182379,-100,4,2,1,5,0,0
182460,-133.333333333333,4,2,1,70,0,0
182542,-133.333333333333,4,2,1,5,0,0
182623,-133.333333333333,4,2,1,65,0,0
183275,-117.647058823529,4,2,1,65,0,0
183928,-111.111111111111,4,2,1,65,0,0
184580,-100,4,2,1,65,0,0
185232,-95.2380952380952,4,2,1,65,0,0
185884,-90.9090909090909,4,2,1,65,0,0
186536,-83.3333333333333,4,2,1,65,0,0
187188,-100,4,2,1,75,0,0
187841,-86.9565217391304,4,2,1,80,0,1
199824,-86.9565217391304,4,2,1,5,0,1
199906,-86.9565217391304,4,2,1,80,0,1
200150,-86.9565217391304,4,2,1,5,0,1
200232,-86.9565217391304,4,2,1,80,0,1
200476,-86.9565217391304,4,2,1,5,0,1
200558,-83.3333333333333,4,2,1,80,0,1
200884,-86.9565217391304,4,2,1,80,0,1
208629,-100,4,2,1,80,0,0
208710,-100,4,2,1,85,0,0
219797,-74.0740740740741,4,2,1,85,0,0
220123,-83.3333333333333,4,2,1,85,0,0
220612,-83.3333333333333,4,2,1,85,0,0
221998,-83.3333333333333,4,2,1,5,0,0
222080,-83.3333333333333,4,2,1,85,0,0
222324,-83.3333333333333,4,2,1,5,0,0
222406,-74.0740740740741,4,2,1,85,0,0
222732,-83.3333333333333,4,2,1,85,0,0
223058,-83.3333333333333,4,2,1,85,0,0
227949,-71.4285714285714,4,2,1,85,0,0
228928,-100,4,2,1,75,0,0
229580,-86.9565217391304,4,2,1,90,0,1
241563,-86.9565217391304,4,2,1,5,0,1
241645,-86.9565217391304,4,2,1,90,0,1
241889,-86.9565217391304,4,2,1,5,0,1
241971,-86.9565217391304,4,2,1,90,0,1
242215,-86.9565217391304,4,2,1,5,0,1
242297,-83.3333333333333,4,2,1,90,0,1
242623,-86.9565217391304,4,2,1,90,0,1
250368,-86.9565217391304,4,2,1,90,0,0
250449,-86.9565217391304,4,2,1,90,0,1
253710,-86.9795001054908,4,2,1,90,0,1
254362,-86.9565217391304,4,2,1,90,0,1
262433,-86.9565217391304,4,2,1,5,0,1
262514,-86.9565217391304,4,2,1,90,0,1
262759,-86.9565217391304,4,2,1,5,0,1
262840,-86.9565217391304,4,2,1,90,0,1
263085,-86.9565217391304,4,2,1,5,0,1
263166,-83.3333333333333,4,2,1,90,0,1
263493,-86.9565217391304,4,2,1,90,0,1
271237,-86.9565217391304,4,2,1,90,0,0
271319,-80,4,2,1,95,0,1
289498,-80,4,2,1,95,0,0
289580,-250,4,2,1,95,0,1
294716,-250,4,2,1,5,0,0
294835,648.648648648649,4,2,2,50,1,0
294835,-133.333333333333,4,2,2,50,0,0
294997,-133.333333333333,4,2,3,35,0,0
295159,-133.333333333333,4,2,4,35,0,0
295321,-133.333333333333,4,2,5,35,0,0
295645,-133.333333333333,4,2,7,35,0,0
295807,-133.333333333333,4,2,4,35,0,0
295984,618.556701030928,4,2,3,35,1,0
295984,-133.333333333333,4,2,3,35,0,0
296293,666.666666666667,4,2,4,35,1,0
296293,-133.333333333333,4,2,4,35,0,0
296450,655.737704918033,4,2,3,35,1,0
296450,-133.333333333333,4,2,3,35,0,0
296613,-133.333333333333,4,2,2,35,0,0
296777,-133.333333333333,4,2,3,35,0,0
296941,-133.333333333333,4,2,4,35,0,0
297105,-133.333333333333,4,2,6,35,0,0
297270,597.014925373134,4,2,4,35,1,0
297270,-133.333333333333,4,2,4,35,0,0
297419,644.122383252818,4,2,2,50,1,0
297419,-133.333333333333,4,2,2,50,0,0
297580,-133.333333333333,4,2,3,35,0,0
297741,-133.333333333333,4,2,4,35,0,0
297902,-133.333333333333,4,2,5,35,0,0
298224,-133.333333333333,4,2,7,35,0,0
298385,-133.333333333333,4,2,4,35,0,0
298546,-133.333333333333,4,2,3,35,0,0
298707,652.173913043478,4,2,8,50,1,0
298707,-133.333333333333,4,2,8,50,0,0
298870,-133.333333333333,4,2,4,35,0,0
299033,-133.333333333333,4,2,3,35,0,0
299196,-133.333333333333,4,2,2,35,0,0
299359,-133.333333333333,4,2,3,35,0,0
299522,-133.333333333333,4,2,4,35,0,0
299685,-133.333333333333,4,2,6,35,0,0
299848,-133.333333333333,4,2,4,35,0,0
300011,-133.333333333333,4,2,2,50,0,0
300174,-133.333333333333,4,2,3,35,0,0
300337,-133.333333333333,4,2,4,35,0,0
300500,-133.333333333333,4,2,5,35,0,0
300826,612.244897959184,4,2,7,35,1,0
300826,-133.333333333333,4,2,7,35,0,0
300979,-133.333333333333,4,2,4,35,0,0
301152,652.173913043478,4,2,3,35,1,0
301152,-133.333333333333,4,2,3,35,0,0
301478,-133.333333333333,4,2,4,35,0,0
301641,625,4,2,3,35,1,0
301641,-133.333333333333,4,2,3,35,0,0
301797,-133.333333333333,4,2,2,35,0,0
301953,645.161290322581,4,2,3,35,1,0
301953,-133.333333333333,4,2,3,35,0,0
302114,-133.333333333333,4,2,4,35,0,0
302275,-133.333333333333,4,2,6,35,0,0
302436,737.735153080044,4,2,4,35,1,0
302436,-133.333333333333,4,2,4,35,0,0
302608,638.297872340426,4,2,2,50,1,0
302608,-133.333333333333,4,2,2,50,0,0
302779,638.297872340426,4,2,3,35,1,0
302779,-133.333333333333,4,2,3,35,0,0
302939,-133.333333333333,4,2,4,35,0,0
303098,-133.333333333333,4,2,5,35,0,0
303417,-133.333333333333,4,2,7,35,0,0
303577,-133.333333333333,4,2,4,35,0,0
303737,685.714285714286,4,2,3,35,1,0
303737,-133.333333333333,4,2,3,35,0,0
304079,641.711229946524,4,2,4,35,1,0
304079,-133.333333333333,4,2,4,35,0,0
304239,-133.333333333333,4,2,3,35,0,0
304399,-133.333333333333,4,2,2,35,0,0
304560,-133.333333333333,4,2,3,35,0,0
304720,-133.333333333333,4,2,4,35,0,0
304881,-133.333333333333,4,2,6,35,0,0
305041,-133.333333333333,4,2,4,35,0,0
305214,648.648648648649,4,2,2,50,1,0
305214,-153.846153846153,4,2,2,50,0,0
305376,-153.846153846153,4,2,3,35,0,0
305538,-153.846153846153,4,2,4,35,0,0
305700,681.818181818182,4,2,5,35,1,0
305700,-153.846153846153,4,2,5,35,0,0
306040,-153.846153846153,4,2,7,35,0,0
306186,648.648648648649,4,2,4,35,1,0
306186,-153.846153846153,4,2,4,35,0,0
306355,652.173913043478,4,2,3,35,1,0
306355,-153.846153846153,4,2,3,35,0,0
306681,-153.846153846153,4,2,4,35,0,0
306844,-153.846153846153,4,2,3,35,0,0
307007,638.297872340426,4,2,2,35,1,0
307007,-153.846153846153,4,2,2,35,0,0
307166,-153.846153846153,4,2,3,35,0,0
307326,-153.846153846153,4,2,4,35,0,0
307485,-153.846153846153,4,2,6,35,0,0
307645,710.059171597633,4,2,4,35,1,0
307645,-153.846153846153,4,2,4,35,0,0
307822,648.648648648649,4,2,2,50,1,0
307822,-153.846153846153,4,2,2,50,0,0
307984,-153.846153846153,4,2,3,35,0,0
308146,-153.846153846153,4,2,4,35,0,0
308308,-153.846153846153,4,2,5,35,0,0
308632,-153.846153846153,4,2,7,35,0,0
308794,-153.846153846153,4,2,4,35,0,0
308957,-153.846153846153,4,2,3,35,0,0
309281,-153.846153846153,4,2,4,35,0,0
309443,-153.846153846153,4,2,3,35,0,0
309605,-153.846153846153,4,2,2,35,0,0
309767,638.297872340426,4,2,3,35,1,0
309767,-153.846153846153,4,2,3,35,0,0
309926,714.285714285714,4,2,4,35,1,0
309926,-153.846153846153,4,2,4,35,0,0
310104,612.244897959184,4,2,6,35,1,0
310104,-153.846153846153,4,2,6,35,0,0
310257,-153.846153846153,4,2,4,35,0,0
310438,648.648648648649,4,2,2,50,1,0
310438,-181.818181818181,4,2,2,50,0,0
310600,-181.818181818181,4,2,3,35,0,0
310629,-181.818181818181,4,2,2,35,0,0
310774,648.648648648649,4,2,4,35,1,0
310774,-181.818181818181,4,2,4,35,0,0
310936,-181.818181818181,4,2,5,35,0,0
311260,-181.818181818181,4,2,7,35,0,0
311422,-181.818181818181,4,2,4,35,0,0
311605,645.161290322581,4,2,3,35,1,0
311605,-181.818181818181,4,2,3,35,0,0
311927,-181.818181818181,4,2,4,35,0,0
312088,-181.818181818181,4,2,3,35,0,0
312250,-181.818181818181,4,2,2,35,0,0
312411,-181.818181818181,4,2,3,35,0,0
312572,-181.818181818181,4,2,4,35,0,0
312734,-181.818181818181,4,2,7,35,0,0
312895,-181.818181818181,4,2,4,35,0,0
313056,-200,4,2,2,35,0,0
313217,-200,4,2,3,35,0,0
313379,-200,4,2,4,35,0,0
313410,-200,4,2,2,35,0,0
313540,697.674418604651,4,2,5,35,1,0
313540,-200,4,2,5,35,0,0
313888,-200,4,2,7,35,0,0
314040,652.173913043478,4,2,4,35,1,0
314040,-200,4,2,4,35,0,0
314203,-200,4,2,3,35,0,0
314529,-200,4,2,4,35,0,0
314692,-200,4,2,3,35,0,0
314855,-200,4,2,2,35,0,0
315018,-200,4,2,3,35,0,0
315181,674.157303370787,4,2,4,35,1,0
315181,-200,4,2,4,35,0,0
315349,-200,4,2,7,35,0,0
315518,645.161290322581,4,2,4,50,1,0
315518,-200,4,2,4,50,0,0
315598,-200,4,2,1,5,0,0
322614,-200,4,2,1,5,0,0

[Colours]
Combo1 : 255,192,0
Combo2 : 255,128,0
Combo3 : 255,128,64
Combo4 : 255,255,0

[HitObjects]
112,64,15,6,0,P|174:55|207:51,1,63.7500024318696,2|0,0:0|0:0,0:0:0:0:
265,67,341,1,0,0:0:0:0:
278,174,504,2,0,P|206:160|144:147,1,127.500004863739,2|0,0:0|0:0,0:0:0:0:
97,230,993,1,0,0:0:0:0:
97,230,1156,2,0,P|96:258|101:299,2,63.7500024318696,2|0|0,0:0|0:0|0:0,0:0:0:0:
195,239,1645,1,2,0:0:0:0:
159,317,1808,2,0,L|97:292,1,63.7500024318696,2|2,0:0|0:0,0:0:0:0:
195,239,2134,1,2,0:0:0:0:
243,325,2297,2,0,L|218:387,1,63.7500024318696,2|2,0:0|0:0,0:0:0:0:
389,330,2623,6,0,P|390:284|392:254,1,63.7500024318696,2|0,0:0|0:0,0:0:0:0:
487,271,2949,1,0,0:0:0:0:
450,171,3112,2,0,P|390:180|315:192,1,127.500004863739,2|0,0:0|0:0,0:0:0:0:
229,173,3601,1,0,0:0:0:0:
314,127,3764,2,0,P|320:165|326:217,1,63.7500024318696,2|0,0:0|0:0,0:0:0:0:
400,101,4091,1,0,0:0:0:0:
295,37,4254,2,0,P|262:62|234:85,1,63.7500024318696,2|2,0:0|0:0,0:0:0:0:
150,23,4580,1,2,0:0:0:0:
118,121,4743,2,0,P|155:155|176:172,1,63.7500024318696,2|2,0:0|0:0,0:0:0:0:
256,165,5069,1,2,0:0:0:0:
229,311,5232,6,0,P|233:279|225:248,1,63.7500024318696,2|0,0:0|0:0,0:0:0:0:
158,285,5558,1,0,0:0:0:0:
36,311,5721,2,0,B|99:323|76:283|157:284,1,127.500004863739,2|0,0:0|0:0,0:0:0:0:
144,364,6210,1,0,0:0:0:0:
229,311,6373,2,0,P|259:303|291:307,1,63.7500024318696,2|0,0:0|0:0,0:0:0:0:
356,360,6699,1,0,0:0:0:0:
405,283,6862,2,0,P|401:248|392:212,1,63.7500024318696,2|2,0:0|0:0,0:0:0:0:
436,134,7188,2,0,P|389:128|359:134,1,63.7500024318696,2|2,0:0|0:0,0:0:0:0:
282,97,7514,2,0,P|280:149|294:180,1,63.7500024318696,2|2,0:0|0:0,0:0:0:0:
318,11,7841,6,0,P|256:7|220:-9,2,63.7500024318696,2|0|0,0:0|0:0|0:0,0:0:0:0:
282,97,8330,2,0,P|204:78|144:62,1,127.500004863739,2|0,0:0|0:0,0:0:0:0:
56,20,8819,1,0,0:0:0:0:
56,20,8982,2,0,P|64:89|74:158,1,127.500004863739,2|0,0:0|0:0,0:0:0:0:
53,242,9471,2,0,P|116:226|148:221,1,63.7500024318696,2|2,0:0|0:0,0:0:0:0:
218,313,9797,1,2,0:0:0:0:
208,180,9960,1,2,0:0:0:0:
134,309,10123,1,2,0:0:0:0:
292,191,10286,1,2,0:0:0:0:
134,309,10449,6,0,P|62:319|27:325,1,85,6|0,1:2|0:0,0:0:0:0:
208,180,10775,2,0,P|280:190|315:196,1,85,2|0,1:2|0:0,0:0:0:0:
460,263,11101,2,0,B|345:268|413:321|287:315,1,170,10|2,0:0|1:2,0:0:0:0:
445,351,11591,1,2,1:2:0:0:
496,169,11754,2,0,P|454:163|397:155,1,85,2|0,0:0|0:0,0:0:0:0:
253,39,12080,2,0,P|295:33|337:27,1,85,2|0,1:2|0:0,0:0:0:0:
191,148,12406,5,8,0:0:0:0:
121,19,12569,1,0,0:0:0:0:
91,180,12732,1,0,0:0:0:0:
173,70,12895,1,0,0:0:0:0:
39,18,13058,6,0,P|28:73|39:106,1,85,2|0,1:2|0:0,0:0:0:0:
194,229,13384,2,0,P|202:187|190:147,1,85,2|0,1:2|0:0,0:0:0:0:
133,334,13710,2,0,P|205:316|311:288,1,170,8|2,0:0|1:2,0:0:0:0:
401,353,14199,1,2,1:2:0:0:
406,192,14362,2,0,P|359:188|313:182,1,85,2|0,0:0|0:0,0:0:0:0:
224,8,14688,2,0,P|220:55|214:101,1,85,2|0,1:2|0:0,0:0:0:0:
348,90,15014,5,8,0:0:0:0:
217,165,15178,1,0,0:0:0:0:
224,8,15341,1,0,0:0:0:0:
290,142,15504,1,0,0:0:0:0:
147,55,15667,6,0,P|99:47|56:41,1,85,2|0,1:2|0:0,0:0:0:0:
8,218,15993,2,0,P|71:197|99:187,1,85,2|0,1:2|0:0,0:0:0:0:
147,55,16319,2,0,B|210:116|210:116|228:165|199:192,1,170,8|2,0:0|1:2,0:0:0:0:
98,306,16808,1,2,1:2:0:0:
234,301,16971,2,0,P|296:291|333:285,1,85,2|0,0:0|0:0,0:0:0:0:
466,212,17297,5,2,1:2:0:0:
401,348,17460,1,0,0:0:0:0:
370,200,17623,1,8,0:0:0:0:
478,298,17786,1,0,0:0:0:0:
317,287,17949,1,0,0:0:0:0:
466,212,18112,1,0,0:0:0:0:
412,23,18275,6,0,P|362:43|324:58,1,85,2|0,1:2|0:0,0:0:0:0:
181,123,18601,2,0,P|178:72|178:22,1,85,2|0,1:2|0:0,0:0:0:0:
310,155,18928,2,0,P|266:187|162:258,1,170,8|2,0:0|1:2,0:0:0:0:
30,253,19417,1,2,1:2:0:0:
125,362,19580,2,0,P|174:351|223:340,1,85,2|0,0:0|0:0,0:0:0:0:
337,379,19906,2,0,P|326:330|315:281,1,85,2|0,1:2|0:0,0:0:0:0:
414,118,20232,5,8,0:0:0:0:
423,314,20395,1,8,0:0:0:0:
503,116,20558,1,8,0:0:0:0:
318,296,20721,1,8,0:0:0:0:
405,38,20884,6,0,P|398:88|426:128,1,85,6|0,1:2|0:0,0:0:0:0:
476,265,21210,2,0,P|413:242|384:232,1,85,2|0,1:2|0:0,0:0:0:0:
270,70,21536,2,0,B|302:121|302:121|252:232,1,170,8|2,0:0|1:2,0:0:0:0:
305,353,22025,1,2,1:2:0:0:
166,320,22188,2,0,P|152:260|142:223,1,85,2|0,0:0|0:0,0:0:0:0:
81,106,22514,5,2,1:2:0:0:
58,257,22678,1,0,0:0:0:0:
174,126,22841,1,8,0:0:0:0:
13,193,23004,1,0,0:0:0:0:
146,237,23167,1,0,0:0:0:0:
81,106,23330,1,0,0:0:0:0:
258,119,23493,6,0,P|194:124|151:128,1,85,2|0,1:2|0:0,0:0:0:0:
61,302,23819,2,0,P|125:307|168:311,1,85,2|0,1:2|0:0,0:0:0:0:
391,191,24145,2,0,B|324:205|324:205|308:232|308:232|232:246,1,170,8|2,0:0|1:2,0:0:0:0:
386,278,24634,1,2,1:2:0:0:
429,121,24797,2,0,P|383:110|338:132,1,85,2|0,0:0|0:0,0:0:0:0:
256,16,25123,5,2,1:2:0:0:
348,122,25286,1,0,0:0:0:0:
206,143,25449,1,8,0:0:0:0:
332,43,25612,1,0,0:0:0:0:
284,194,25775,1,0,0:0:0:0:
198,58,25938,1,0,0:0:0:0:
196,278,26101,6,0,P|194:222|194:182,1,85,2|0,1:2|0:0,0:0:0:0:
343,286,26428,2,0,P|342:328|340:370,1,85,2|0,1:2|0:0,0:0:0:0:
193,193,26754,2,0,B|166:176|125:179|125:179|47:252,1,170,8|2,0:0|1:2,0:0:0:0:
71,88,27243,1,2,1:2:0:0:
218,111,27406,2,0,P|196:182|186:211,1,85,2|0,0:0|0:0,0:0:0:0:
337,53,27732,5,2,1:2:0:0:
180,34,27895,1,0,0:0:0:0:
293,147,28058,1,8,0:0:0:0:
255,1,28221,1,0,0:0:0:0:
192,139,28384,1,0,0:0:0:0:
337,53,28547,1,0,0:0:0:0:
463,183,28710,6,0,P|411:174|371:166,1,85,2|0,1:2|0:0,0:0:0:0:
254,294,29036,2,0,B|305:302|345:310,1,85,2|0,1:2|0:0,0:0:0:0:
463,183,29362,2,0,B|477:83|403:120|419:15,1,170,8|2,0:0|1:2,0:0:0:0:
377,161,29851,1,2,1:2:0:0:
499,26,30014,2,0,B|454:14|454:14|415:27,1,85,2|0,0:0|0:0,0:0:0:0:
295,161,30341,2,0,B|340:173|340:173|379:160,1,85,2|0,1:2|0:0,0:0:0:0:
146,34,30667,5,8,0:0:0:0:
196,230,30830,1,8,0:0:0:0:
252,5,30993,1,8,0:0:0:0:
53,188,31156,1,8,0:0:0:0:
283,194,31319,6,0,B|225:161|246:105|246:105|275:104|275:104|290:78|290:78|349:86|351:152|351:152|366:88|425:90|425:90|434:118|434:118|465:124|465:124|475:182|412:206|412:206|479:199|495:256|495:256|472:274|472:274|474:303|474:303|422:331|381:279|381:279|407:340|358:372|358:372|334:357|334:357|307:370|307:370|263:329|301:273|301:273|250:318|204:281|204:281|211:253|211:253|192:231|192:231|210:196|243:196,1,1318.34999597672,4|0,1:2|0:0,0:0:0:0:
381,279,39145,6,0,B|325:258|249:280|249:280|156:260|91:217|117:108|208:136|208:136|295:115|346:226|175:273|175:273|51:305|1:218,1,869.549997346344,2|0,0:0|0:0,0:0:0:0:
1,218,44362,6,0,B|-5:141|54:101|54:101|132:85|140:16,1,255,2|0,0:0|0:0,0:0:0:0:
139,27,45667,6,0,B|210:14|240:71|240:71|315:108|374:42,1,255,2|0,0:0|0:0,0:0:0:0:
364,51,46971,6,0,P|397:85|397:143,1,93.5000028533936,4|0,3:1|0:0,0:0:0:0:
462,300,47623,2,0,P|421:281|350:248,1,118.999996368408,2|0,0:0|0:0,0:0:0:0:
288,320,48112,1,0,1:0:0:0:
211,282,48275,2,0,P|206:245|228:163,1,118.999996368408,2|0,0:0|1:0,0:0:0:0:
125,24,48928,2,0,P|130:61|108:143,1,118.999996368408,2|0,0:0|0:0,0:0:0:0:
91,225,49417,1,0,0:0:0:0:
110,139,49580,6,0,P|160:152|246:170,1,118.999996368408,0|0,1:0|0:0,0:0:0:0:
300,109,50069,1,0,0:0:0:0:
369,165,50232,2,0,P|379:194|419:297,1,118.999996368408,2|0,0:0|0:0,0:0:0:0:
457,362,50721,1,0,1:0:0:0:
360,358,50884,2,0,P|305:334|252:307,1,118.999996368408,2|0,0:0|1:0,0:0:0:0:
167,356,51373,1,0,0:0:0:0:
134,268,51536,2,0,B|121:198|161:226|146:142,1,118.999996368408,2|0,0:0|0:0,0:0:0:0:
70,178,52025,1,0,0:0:0:0:
110,76,52188,6,0,P|161:69|219:110,1,118.999996368408,0|0,1:0|0:0,0:0:0:0:
301,67,52678,1,0,0:0:0:0:
300,161,52841,2,0,P|341:149|429:126,1,118.999996368408,2|0,0:0|0:0,0:0:0:0:
496,188,53330,1,0,1:0:0:0:
428,275,53493,2,0,P|417:234|408:197,1,59.4999981842042,2|0,0:0|0:0,0:0:0:0:
414,129,53819,2,0,P|367:143|350:147,1,59.4999981842042,0|0,1:0|0:0,0:0:0:0:
506,147,54145,1,2,0:0:0:0:
443,49,54308,2,0,P|406:45|377:39,2,59.4999981842042
356,145,54797,6,0,P|321:138|230:121,1,118.999996368408,0|0,1:0|0:0,0:0:0:0:
147,103,55286,1,0,0:0:0:0:
229,65,55449,2,0,P|240:112|237:131,1,59.4999981842042,2|0,0:0|0:0,0:0:0:0:
208,205,55775,1,0,0:0:0:0:
137,160,55938,2,0,P|137:130|146:102,1,59.4999981842042,0|0,1:0|0:0,0:0:0:0:
43,221,56264,1,2,0:0:0:0:
43,221,56428,2,0,P|87:234|177:259,1,118.999996368408,0|2,1:0|0:0,0:0:0:0:
255,278,56917,2,0,P|232:307|207:340,1,59.4999981842042
157,253,57243,1,0,0:0:0:0:
254,168,57406,5,0,1:0:0:0:
254,168,57569,2,0,P|294:199|314:213,1,59.4999981842042
367,283,57895,1,0,0:0:0:0:
367,283,58058,2,0,P|390:265|414:246,1,59.4999981842042,2|0,0:0|0:0,0:0:0:0:
483,189,58384,1,0,0:0:0:0:
410,117,58547,2,0,P|393:141|376:166,1,59.4999981842042,0|0,1:0|0:0,0:0:0:0:
333,69,58873,1,2,0:0:0:0:
410,24,59036,2,0,P|444:41|471:54,1,59.4999981842042,0|0,1:0|0:0,0:0:0:0:
333,69,59362,2,0,B|276:57|276:57|257:66|257:66|204:55,1,118.999996368408,2|2,0:0|0:0,0:0:0:0:
131,13,59851,1,2,0:0:0:0:
78,80,60014,6,0,B|64:114|64:114|70:138,1,59.4999981842042,0|2,1:0|0:0,0:0:0:0:
159,152,60341,2,0,P|129:193|79:259,1,118.999996368408,2|2,0:0|0:0,0:0:0:0:
47,328,60830,1,0,0:0:0:0:
156,308,60993,2,0,P|179:277|197:251,1,59.4999981842042,2|0,0:0|1:0,0:0:0:0:
286,234,61319,2,0,P|269:209|253:184,1,59.4999981842042,0|0,1:0|0:0,0:0:0:0:
261,307,61645,2,0,P|319:308|359:257,1,118.999996368408,0|2,1:0|0:0,0:0:0:0:
416,182,62134,1,0,0:0:0:0:
485,280,62297,2,0,P|452:274|418:267,1,59.4999981842042,2|0,0:0|0:0,0:0:0:0:
416,182,62623,6,0,B|404:144|404:144|443:62,1,118.999996368408,0|0,1:0|0:0,0:0:0:0:
369,3,63112,1,0,0:0:0:0:
332,85,63275,2,0,P|262:68|202:55,1,118.999996368408,2|0,0:0|0:0,0:0:0:0:
132,38,63764,1,0,1:0:0:0:
132,38,64254,2,0,P|132:75|131:106,1,59.4999981842042,0|0,1:0|0:0,0:0:0:0:
94,189,64580,2,0,P|164:172|224:159,1,118.999996368408,2|2,0:0|0:0,0:0:0:0:
301,192,65069,1,0,0:0:0:0:
221,247,65232,6,0,B|205:295|205:295|244:360,1,118.999996368408,0|2,1:0|0:0,0:0:0:0:
298,287,65721,1,2,0:0:0:0:
298,287,65884,2,0,P|340:284|431:277,1,118.999996368408,2|2,0:0|0:0,0:0:0:0:
467,191,66373,1,0,1:0:0:0:
409,123,66536,1,0,0:0:0:0:
349,56,66699,2,0,P|306:64|274:70,1,59.4999981842042,2|0,0:0|1:0,0:0:0:0:
409,123,67025,2,0,P|452:115|484:109,1,59.4999981842042,2|2,0:0|0:0,0:0:0:0:
467,191,67351,6,0,P|477:217|454:193,1,85,2|0,0:0|0:0,0:0:0:0:
491,304,67841,6,0,P|442:303|373:238,1,133.874995914459,4|0,1:0|0:0,0:0:0:0:
266,198,68167,2,0,P|315:199|384:264,1,133.874995914459,2|0,0:0|0:0,0:0:0:0:
257,103,68493,1,8,0:0:0:0:
252,287,68656,1,2,0:0:0:0:
257,103,68819,2,0,B|164:103|214:145|119:135,1,133.874995914459,2|0,0:0|0:0,0:0:0:0:
73,71,69145,1,0,1:0:0:0:
47,258,69308,6,0,P|55:243|49:256,1,89.2499972763062,0|0,1:0|0:0,0:0:0:0:
93,333,69634,6,0,P|108:325|92:327,1,44.6249986381531,0|0,1:0|0:0,0:0:0:0:
199,307,69797,6,0,P|187:286|196:305,1,140.25000428009,8|0,0:0|0:0,0:0:0:0:
277,364,70123,6,0,P|308:314|292:221,1,152.999995330811,0|0,1:0|0:0,0:0:0:0:
277,138,70449,6,0,B|328:144|328:144|353:173|353:173|411:181,1,133.874995914459,2|0,0:0|0:0,0:0:0:0:
485,102,70775,2,0,B|430:107|430:107|389:192,1,133.874995914459,2|0,0:0|0:0,0:0:0:0:
483,181,71101,1,8,0:0:0:0:
379,48,71264,1,2,0:0:0:0:
483,181,71428,2,0,L|435:308,1,133.874995914459,2|0,0:0|0:0,0:0:0:0:
497,365,71754,1,0,1:0:0:0:
348,249,71917,6,0,B|333:280|333:280|309:272|309:272|318:246|318:246|348:250,1,80.7499978437424,0|0,1:0|0:0,0:0:0:0:
210,220,72243,6,0,B|220:241|220:241|236:236|236:236|230:218|230:218|210:221,1,44.6249986381531,0|0,1:0|0:0,0:0:0:0:
109,289,72406,6,0,B|127:328|127:328|156:317|156:317|145:285|145:285|109:291,1,140.25000428009,8|0,0:0|0:0,0:0:0:0:
39,345,72732,6,0,B|24:304|25:263|25:263|49:230|83:204,1,152.999995330811,0|0,1:0|0:0,0:0:0:0:
45,112,73058,6,0,B|113:147|113:86|182:117,1,133.874995914459,2|0,0:0|0:0,0:0:0:0:
249,56,73384,2,0,P|279:86|296:106,1,44.6249986381531,2|0,0:0|0:0,0:0:0:0:
365,132,73547,2,0,P|335:165|314:180,1,44.6249986381531,2|0,0:0|0:0,0:0:0:0:
319,257,73710,2,0,B|362:264|385:238|385:238|395:244|395:244|429:221|477:230,1,159.375,8|0,0:0|0:0,0:0:0:0:
440,373,74036,2,0,B|449:341|449:341|438:311,1,63.7500024318696,2|0,0:0|0:0,0:0:0:0:
468,167,74199,2,0,B|457:195|457:195|466:227,1,63.7500024318696,10|0,0:0|0:0,0:0:0:0:
438,312,74362,1,0,1:0:0:0:
319,257,74525,6,0,P|267:242|206:289,1,133.874995914459,0|0,1:0|0:0,0:0:0:0:
134,340,74851,2,0,L|110:303,1,44.6249986381531,0|0,1:0|0:0,0:0:0:0:
19,254,75014,2,0,L|140:177,1,140.25000428009,8|0,0:0|0:0,0:0:0:0:
103,96,75341,6,0,P|66:88|103:97,1,95.6250036478044,0|0,1:0|0:0,0:0:0:0:
179,63,75667,6,0,P|186:64|184:56,1,12.75,2|0,0:0|0:0,0:0:0:0:
272,69,75993,6,0,P|316:84|279:59,1,133.874995914459,0|0,1:0|0:0,0:0:0:0:
390,115,76319,6,0,B|358:159|358:159|322:172|322:172|291:214,1,133.874995914459,8|0,0:0|0:0,0:0:0:0:
380,278,76645,2,0,B|327:280|327:280|296:201,1,133.874995914459,2|0,0:0|0:0,0:0:0:0:
390,115,76971,1,8,0:0:0:0:
380,278,77134,6,0,P|338:323|295:376,1,121.124996765614,8|0,0:0|0:0,0:0:0:0:
206,362,77460,2,0,P|221:336|241:298,1,63.7500024318696,0|0,1:0|0:0,0:0:0:0:
136,234,77623,2,0,P|190:239|236:319,1,140.25000428009,8|0,0:0|0:0,0:0:0:0:
225,169,77949,2,0,P|185:154|131:150,1,95.6250036478044,0|0,1:0|0:0,0:0:0:0:
49,119,78275,6,0,P|43:154|69:201,1,76.4999976654053,2|0,0:0|0:0,0:0:0:0:
122,64,78601,2,0,P|89:43|76:37,1,44.6249986381531,2|0,0:0|0:0,0:0:0:0:
132,149,78928,1,8,0:0:0:0:
197,8,79091,1,2,0:0:0:0:
303,126,79254,6,0,P|253:153|204:179,1,89.2499972763062,2|0,0:0|0:0,0:0:0:0:
231,253,79580,1,0,1:0:0:0:
222,83,79743,1,8,0:0:0:0:
329,207,79906,2,0,B|343:231|343:231|336:254,1,44.6249986381531,2|0,0:0|0:0,0:0:0:0:
413,347,80069,2,0,B|399:323|399:323|406:300,1,44.6249986381531,4|0,0:3|0:0,0:0:0:0:
420,213,80232,6,0,B|456:218|475:263|475:263|450:228|403:232,1,140.25000428009,8|0,0:0|0:0,0:0:0:0:
329,207,80558,2,0,B|293:202|274:157|274:157|299:192|346:188,1,152.999995330811,0|0,1:0|0:0,0:0:0:0:
294,300,80884,6,0,B|210:264|241:319|142:285,1,133.874995914459,2|0,0:0|0:0,0:0:0:0:
60,204,81210,2,0,B|110:225|91:192|151:213,1,93.5000028533936,0|0,1:0|0:0,0:0:0:0:
164,292,81536,1,8,0:0:0:0:
99,137,81699,1,2,0:0:0:0:
308,249,81862,2,0,P|302:276|289:316,1,53.125,2|0,0:0|0:0,0:0:0:0:
359,371,82025,1,8,0:0:0:0:
367,349,82107,1,8,0:0:0:0:
375,328,82188,1,0,1:0:0:0:
386,162,82351,86,0,B|402:122|444:122|444:122|431:160|393:172,1,106.25,0|0,1:0|0:0,0:0:0:0:
302,209,82678,2,0,L|312:155,1,44.6249986381531,0|0,1:0|0:0,0:0:0:0:
240,135,82841,2,0,B|220:88|170:88|170:88|186:133|231:147,1,140.25000428009,8|0,0:0|0:0,0:0:0:0:
226,216,83167,2,0,B|214:243|184:243|184:243|193:217|220:208,1,95.6250036478044,0|0,1:0|0:0,0:0:0:0:
319,121,83493,6,0,L|302:209,1,89.2499972763062,2|0,0:0|0:0,0:0:0:0:
378,239,83819,2,0,B|405:251|405:281|405:281|379:272|370:245,1,89.2499972763062,0|0,1:0|0:0,0:0:0:0:
424,176,84145,2,0,B|415:167|388:163|388:163|450:131|490:161,1,146.62500279665,8|0,0:0|0:0,0:0:0:0:
468,251,84471,1,2,0:0:0:0:
406,54,84634,1,8,0:0:0:0:
384,41,84716,1,8,0:0:0:0:
365,28,84797,1,0,1:0:0:0:
302,208,84960,1,0,1:0:0:0:
196,84,85123,6,0,L|242:82,1,44.6249986381531,2|0,0:0|0:0,0:0:0:0:
143,175,85286,2,0,L|205:173,1,44.6249986381531,0|0,1:0|0:0,0:0:0:0:
242,267,85449,38,0,B|258:279|281:281|281:281|186:295|228:245|138:257,1,172.125000656605,8|0,0:0|0:0,0:0:0:0:
70,338,85775,2,0,B|59:329|42:327|42:327|107:318|78:352|139:344,1,127.500004863739,0|0,1:0|0:0,0:0:0:0:
157,255,86101,2,0,P|147:240|162:246,1,38.2499988327027,2|0,0:0|0:0,0:0:0:0:
170,153,86428,86,0,B|215:124|209:90|187:93|192:57|199:47|199:47|196:52|196:52|160:61|145:96|152:122|175:114|159:157,1,191.250007295609,0|0,1:0|0:0,0:0:0:0:
87,157,86754,1,8,0:0:0:0:
293,71,86917,1,8,0:0:0:0:
158,241,87080,1,0,1:0:0:0:
91,52,87243,1,8,0:0:0:0:
80,33,87324,1,8,0:0:0:0:
67,15,87406,5,8,0:0:0:0:
255,228,87569,1,8,0:0:0:0:
439,134,87732,86,0,B|464:117|460:98|448:100|451:79|455:74|455:74|453:77|453:77|433:82|424:101|428:116|441:112|432:136,1,121.124996765614,4|0,0:3|0:0,0:0:0:0:
458,224,88058,54,0,B|438:231|415:221|415:221|437:219|453:210,1,50.9999984436036,8|0,0:0|0:0,0:0:0:0:
321,231,88221,54,0,B|314:211|324:188|324:188|326:210|335:226,1,46.7500014266968,8|0,0:0|0:0,0:0:0:0:
306,102,88384,54,0,B|324:95|346:104|346:104|325:106|310:115,1,42.5,0|0,1:0|0:0,0:0:0:0:
433,115,88547,54,0,B|437:128|431:143|431:143|429:128|423:118,1,31.8750012159348,0|0,1:0|0:0,0:0:0:0:
306,102,88710,6,0,B|230:62|240:111|155:57,1,152.999995330811,4|2,1:0|0:0,0:0:0:0:
1,43,89362,1,0,1:0:0:0:
7,206,89688,2,0,P|10:254|35:282,1,72.2500013780594,2|0,0:0|0:0,0:0:0:0:
56,354,90014,2,0,P|108:321|182:278,1,127.500004863739,0|2,1:0|0:0,0:0:0:0:
362,348,90667,2,0,P|302:322|251:348,1,110.499994941712,0|2,1:0|0:0,0:0:0:0:
160,294,91156,5,0,0:0:0:0:
160,294,91319,2,0,L|146:235,1,50.9999984436036,0|0,1:0|0:0,0:0:0:0:
250,188,91645,2,0,L|246:240,1,50.9999984436036,2|0,0:0|0:0,0:0:0:0:
288,115,91971,2,0,L|343:101,1,46.7500014266968,0|0,1:0|0:0,0:0:0:0:
394,205,92297,2,0,L|335:196,1,46.7500014266968,2|0,0:0|0:0,0:0:0:0:
437,121,92623,2,0,L|478:110,1,42.5,0|0,1:0|0:0,0:0:0:0:
391,233,92949,2,0,L|350:222,1,42.5,0|0,1:0|0:0,0:0:0:0:
262,20,93275,6,0,P|249:33|262:25,1,51,2|0,0:0|0:0,0:0:0:0:
256,117,93601,2,0,P|269:130|256:122,1,51,2|0,0:0|0:0,0:0:0:0:
317,241,93928,6,0,P|253:231|202:224,1,97.7500018644333,4|0,1:0|0:0,0:0:0:0:
79,314,94254,2,0,P|89:250|96:199,1,97.7500018644333,2|0,1:2|0:0,0:0:0:0:
129,47,94580,2,0,B|174:78|177:134|177:134|156:87|104:67,1,195.500003728867,8|2,0:0|1:2,0:0:0:0:
94,218,95069,1,2,1:2:0:0:
287,39,95232,6,0,B|268:60|259:85|259:85|255:58|239:34,1,97.7500018644333,2|0,0:0|0:0,0:0:0:0:
281,232,95558,2,0,B|300:211|309:186|309:186|313:213|329:237,1,97.7500018644333,0|0,1:2|0:0,0:0:0:0:
456,74,95884,2,0,P|400:87|339:100,1,97.7500018644333,8|0,0:0|0:0,0:0:0:0:
215,168,96210,2,0,P|167:157|119:146,1,97.7500018644333,2|0,0:0|0:0,0:0:0:0:
389,327,96536,6,0,B|404:286|337:265|337:265|315:301|320:335|337:378|359:397,1,195.500003728867,4|2,1:0|1:2,0:0:0:0:
508,265,97025,1,2,0:0:0:0:
369,189,97188,2,0,B|285:170|277:212|267:246|187:230,1,195.500003728867,8|2,0:0|1:2,0:0:0:0:
47,340,97678,1,2,1:2:0:0:
39,155,97841,2,0,B|84:129|84:129|126:160,1,97.7500018644333,2|0,0:0|0:0,0:0:0:0:
128,338,98167,2,0,B|91:365|91:365|46:339,1,97.7500018644333,0|0,1:2|0:0,0:0:0:0:
120,156,98493,2,0,B|194:133|194:133|214:97|214:97|300:67,1,195.500003728867,8|2,0:0|1:2,0:0:0:0:
280,163,98982,1,2,1:2:0:0:
139,24,99145,6,0,B|116:29|108:61|108:61|100:33|78:28,1,97.7500018644333,4|0,1:0|0:0,0:0:0:0:
280,163,99471,2,0,B|302:157|310:125|310:125|318:153|340:158,1,97.7500018644333,2|0,1:2|0:0,0:0:0:0:
120,156,99797,2,0,P|151:230|205:357,1,195.500003728867,8|2,0:0|1:2,0:0:0:0:
59,260,100286,1,2,1:2:0:0:
196,336,100449,2,0,P|257:314|294:300,1,97.7500018644333,2|0,0:0|0:0,0:0:0:0:
467,279,100775,2,0,P|437:331|406:386,1,97.7500018644333,0|0,1:2|0:0,0:0:0:0:
423,141,101101,2,0,B|378:151|361:208|361:208|345:142|297:130,1,195.500003728867,8|2,0:0|1:2,0:0:0:0:
372,43,101591,1,2,1:2:0:0:
263,207,101754,6,0,B|189:230|189:230|169:266|169:266|83:296,1,195.500003728867,4|2,1:0|1:2,0:0:0:0:
251,306,102243,1,2,0:0:0:0:
104,201,102406,2,0,B|44:173|44:173|40:132|40:132|93:144|93:144|105:203,1,195.500003728867,8|2,0:0|1:2,0:0:0:0:
251,306,102895,1,2,1:2:0:0:
194,151,103058,1,2,0:0:0:0:
163,295,103221,1,2,0:0:0:0:
263,207,103384,2,0,B|279:216|303:222|303:222|277:230|259:261,1,97.7500018644333,0|0,1:2|0:0,0:0:0:0:
383,86,103710,2,0,B|367:77|343:71|343:71|369:63|387:32,1,97.7500018644333,8|0,0:0|0:0,0:0:0:0:
419,167,104036,1,2,1:2:0:0:
255,85,104199,1,2,1:2:0:0:
443,248,104362,6,0,B|468:192|456:117|456:117|435:155|418:166,1,195.500003728867,4|2,1:0|1:2,0:0:0:0:
486,335,104851,1,2,0:0:0:0:
329,337,105014,2,0,P|323:284|318:234,1,97.7500018644333,8|0,0:0|0:0,0:0:0:0:
189,151,105341,1,2,1:2:0:0:
224,297,105504,1,2,1:2:0:0:
43,135,105667,6,0,L|204:151,1,146.62500279665,2|0,0:0|0:0,0:0:0:0:
295,61,105993,2,0,B|315:90|311:124|281:142|281:142|279:110|255:91,1,146.62500279665,0|0,1:2|0:0,0:0:0:0:
153,184,106319,2,0,B|132:154|136:120|166:102|166:102|168:134|192:153,1,146.62500279665,8|0,0:0|0:0,0:0:0:0:
255,228,106645,1,2,1:2:0:0:
295,61,106808,1,2,1:2:0:0:
436,186,106971,6,0,B|352:167|344:209|334:243|254:227,1,195.500003728867,4|2,1:0|1:2,0:0:0:0:
399,266,107460,1,2,0:0:0:0:
293,106,107623,2,0,B|267:84|267:84|279:149,1,97.7500018644333,8|0,0:0|0:0,0:0:0:0:
399,266,107949,2,0,B|410:329|410:329|384:307,1,97.7500018644333,2|2,1:2|1:2,0:0:0:0:
439,97,108275,2,0,B|458:143|458:143|435:186,1,97.7500018644333,2|0,0:0|0:0,0:0:0:0:
259,315,108601,2,0,B|236:272|236:272|255:226,1,97.7500018644333,0|0,1:2|0:0,0:0:0:0:
463,97,108928,2,0,B|482:143|482:143|459:186,1,97.7500018644333,8|0,0:0|0:0,0:0:0:0:
323,262,109254,1,2,1:2:0:0:
373,69,109417,1,2,1:2:0:0:
98,105,109580,86,0,B|101:74|101:74|133:125|161:134,1,97.7500018644333,4|0,1:0|0:0,0:0:0:0:
126,300,109906,1,2,1:2:0:0:
247,186,110069,1,2,0:0:0:0:
106,345,110232,86,0,B|75:342|75:342|126:310|135:282,1,97.7500018644333,8|0,0:0|0:0,0:0:0:0:
302,252,110558,1,2,1:2:0:0:
143,124,110721,1,2,1:2:0:0:
366,132,110884,6,0,P|316:142|256:152,1,97.7500018644333,2|0,0:0|0:0,0:0:0:0:
408,31,111210,1,2,1:2:0:0:
372,235,111373,1,2,0:0:0:0:
408,31,111536,2,0,P|458:41|518:51,1,97.7500018644333,8|0,0:0|0:0,0:0:0:0:
372,235,111862,1,2,1:2:0:0:
317,31,112025,1,2,1:2:0:0:
2,127,112188,6,0,B|20:144|61:143|61:143|41:152|33:183,1,97.7500018644333,4|0,1:0|0:0,0:0:0:0:
99,284,112514,1,2,1:2:0:0:
53,64,112678,1,2,0:0:0:0:
227,205,112841,6,0,B|209:223|210:264|210:264|201:244|170:236,1,97.7500018644333,8|0,0:0|0:0,0:0:0:0:
136,73,113167,1,2,1:2:0:0:
303,131,113330,1,2,1:2:0:0:
76,210,113493,6,0,B|57:192|16:193|16:193|36:184|44:153,1,97.7500018644333,2|0,0:0|0:0,0:0:0:0:
199,51,113819,1,0,1:2:0:0:
185,241,113982,1,0,0:0:0:0:
409,40,114145,5,8,0:0:0:0:
339,344,114308,1,8,0:0:0:0:
478,103,114471,1,8,0:0:0:0:
185,241,114634,1,8,0:0:0:0:
330,98,114797,6,0,P|340:153|350:203,1,97.7500018644333,4|0,1:0|0:0,0:0:0:0:
435,362,115123,2,0,P|380:352|330:342,1,97.7500018644333,2|0,1:2|0:0,0:0:0:0:
185,241,115449,2,0,B|200:200|133:179|133:179|111:215|116:249|133:292|155:311,1,195.500003728867,8|2,0:0|1:2,0:0:0:0:
278,276,115938,1,2,1:2:0:0:
165,106,116101,2,0,B|111:99|111:99|68:132,1,97.7500018644333,2|0,0:0|0:0,0:0:0:0:
43,297,116428,2,0,B|97:304|97:304|140:271,1,97.7500018644333,0|0,1:2|0:0,0:0:0:0:
373,244,116754,2,0,B|238:232|238:232|273:247|287:303,1,195.500003728867,8|2,0:0|1:2,0:0:0:0:
401,328,117243,1,2,1:2:0:0:
359,146,117406,6,0,B|343:226|377:236|419:244|400:328,1,195.500003728867,4|2,1:0|1:2,0:0:0:0:
434,176,117895,1,2,0:0:0:0:
277,275,118058,2,0,B|201:256|201:256|166:277|166:277|90:261,1,195.500003728867,8|2,0:0|1:2,0:0:0:0:
3,147,118547,1,2,1:2:0:0:
176,88,118710,2,0,B|154:93|146:121|146:121|138:89|115:84,1,97.7500018644333,2|0,0:0|0:0,0:0:0:0:
37,253,119036,2,0,B|59:248|67:220|67:220|75:252|98:257,1,97.7500018644333,0|0,1:2|0:0,0:0:0:0:
224,150,119362,2,0,P|277:125|407:55,1,195.500003728867,8|2,0:0|1:2,0:0:0:0:
403,182,119851,1,2,1:2:0:0:
288,10,120014,6,0,P|232:19|208:57,1,97.7500018644333,4|0,1:0|0:0,0:0:0:0:
324,222,120341,2,0,P|380:213|404:175,1,97.7500018644333,2|0,1:2|0:0,0:0:0:0:
180,278,120667,2,0,B|155:222|167:147|167:147|188:185|205:196,1,195.500003728867,8|2,0:0|1:2,0:0:0:0:
309,266,121156,1,2,1:2:0:0:
242,98,121319,1,2,0:0:0:0:
204,195,121482,1,2,0:0:0:0:
328,88,121645,2,0,P|319:32|281:8,1,97.7500018644333,0|0,1:2|0:0,0:0:0:0:
401,182,121971,2,0,B|418:171|439:133|439:133|451:208|426:264,1,195.500003728867,8|2,0:0|1:2,0:0:0:0:
486,361,122460,1,2,1:2:0:0:
287,269,122623,6,0,B|295:314|330:342|375:331|375:331|347:299|351:259,1,195.500003728867,4|2,1:0|1:2,0:0:0:0:
486,361,123112,1,2,0:0:0:0:
489,258,123275,6,0,B|481:213|446:185|401:196|401:196|429:228|425:268,1,195.500003728867,8|2,0:0|1:2,0:0:0:0:
287,124,123764,1,2,1:2:0:0:
287,269,123928,1,2,0:0:0:0:
377,114,124091,1,2,0:0:0:0:
144,199,124254,2,0,B|122:173|122:173|187:185,1,97.7500018644333,0|0,1:2|0:0,0:0:0:0:
237,31,124580,2,0,B|259:57|259:57|196:46,1,97.7500018644333,8|0,0:0|0:0,0:0:0:0:
276,186,124906,1,2,1:2:0:0:
106,80,125069,1,2,1:2:0:0:
225,365,125232,6,0,B|241:285|207:275|165:267|184:183,1,195.500003728867,4|2,1:0|1:2,0:0:0:0:
136,337,125721,1,2,0:0:0:0:
261,218,125884,2,0,P|316:233|373:247,1,97.7500018644333,8|0,0:0|0:0,0:0:0:0:
482,166,126210,1,2,1:2:0:0:
412,339,126373,1,2,1:2:0:0:
312,137,126536,6,0,B|270:116|234:119|234:119|151:153,1,146.62500279665,2|0,0:0|0:0,0:0:0:0:
48,83,126862,2,0,B|28:112|32:146|62:164|62:164|64:132|88:113,1,146.62500279665,0|0,1:2|0:0,0:0:0:0:
208,180,127188,2,0,B|229:150|225:116|195:98|195:98|193:130|169:149,1,146.62500279665,8|0,0:0|0:0,0:0:0:0:
88,250,127514,1,2,1:2:0:0:
48,83,127678,1,2,1:2:0:0:
201,303,127841,6,0,B|273:277|273:277|293:241|293:241|367:218,1,195.500003728867,4|2,1:0|1:2,0:0:0:0:
449,328,128330,1,2,0:0:0:0:
451,141,128493,2,0,B|451:92|451:92|427:137,1,97.7500018644333,8|0,0:0|0:0,0:0:0:0:
269,54,128819,2,0,B|269:5|269:5|295:56,1,97.7500018644333,2|2,1:2|1:2,0:0:0:0:
177,181,129145,2,0,B|213:166|213:166|233:171|233:171|269:154,1,97.7500018644333,2|0,0:0|0:0,0:0:0:0:
449,328,129471,2,0,B|413:313|413:313|393:318|393:318|357:301,1,97.7500018644333,0|0,1:2|0:0,0:0:0:0:
163,161,129797,2,0,B|199:146|199:146|219:151|219:151|255:134,1,97.7500018644333,8|0,0:0|0:0,0:0:0:0:
141,53,130123,1,2,1:2:0:0:
189,244,130286,1,2,1:2:0:0:
45,139,130449,6,0,B|21:155|-4:146|-4:146|17:129|45:139,1,97.7500018644333,4|0,1:0|0:0,0:0:0:0:
83,258,130775,1,2,1:2:0:0:
115,85,130938,1,2,0:0:0:0:
83,258,131101,2,0,B|69:283|43:287|43:287|53:262|83:258,1,97.7500018644333,8|0,0:0|0:0,0:0:0:0:
46,139,131428,1,2,1:2:0:0:
190,268,131591,1,2,1:2:0:0:
115,85,131754,2,0,P|67:98|46:138,1,97.7500018644333,2|0,0:0|0:0,0:0:0:0:
43,3,132080,1,2,1:2:0:0:
124,171,132243,1,2,0:0:0:0:
147,0,132406,2,0,P|189:23|201:70,1,97.7500018644333,8|0,0:0|0:0,0:0:0:0:
43,3,132732,1,2,1:2:0:0:
124,171,132895,1,2,1:2:0:0:
407,98,133058,22,0,B|392:81|392:81|422:69|422:69|434:102|434:102|405:97,1,97.7500018644333,4|0,1:0|0:0,0:0:0:0:
267,267,133384,2,0,B|281:251|281:251|252:238|252:238|239:271|239:271|268:266,1,97.7500018644333,2|0,1:2|0:0,0:0:0:0:
458,227,133710,2,0,B|474:212|474:212|486:242|486:242|453:254|453:254|459:225,1,97.7500018644333,8|0,0:0|0:0,0:0:0:0:
305,146,134036,1,2,1:2:0:0:
369,323,134199,1,2,1:2:0:0:
305,146,134362,2,0,B|327:120|327:120|262:132,1,97.7500018644333,2|0,0:0|0:0,0:0:0:0:
207,254,134688,2,0,B|185:280|185:280|250:268,1,97.7500018644333,0|0,1:2|0:0,0:0:0:0:
46,45,135014,5,8,0:0:0:0:
81,329,135178,1,8,0:0:0:0:
217,37,135341,1,8,0:0:0:0:
10,216,135504,1,8,0:0:0:0:
266,184,135667,54,0,B|301:199|350:166|326:95|270:71|221:79|165:111|161:191|203:241|203:241|250:295|318:271|350:360|350:360|381:271|449:295|497:241|497:241|538:191|533:111|478:79|429:71|373:95|350:166|398:199|433:184,1,1071,4|0,1:0|0:0,0:0:0:0:
266,184,140884,6,0,B|237:175|206:187|206:187|192:158|153:150,1,127.500004863739,0|0,1:0|1:0,0:0:0:0:
30,117,141373,1,2,0:0:0:0:
30,117,141536,1,2,0:0:0:0:
109,70,141699,6,0,P|135:64|175:54,1,63.7500024318696,0|0,1:0|0:0,0:0:0:0:
316,121,142025,2,0,P|287:115|244:104,1,63.7500024318696,0|0,1:0|0:0,0:0:0:0:
167,212,142351,2,0,P|159:181|152:141,1,63.7500024318696,0|0,1:0|0:0,0:0:0:0:
259,195,142678,1,0,1:0:0:0:
423,26,142841,5,8,0:0:0:0:
448,233,143004,1,8,0:0:0:0:
298,85,143167,1,8,0:0:0:0:
338,308,143330,1,8,0:0:0:0:
435,127,143493,6,0,P|374:68|294:87,1,170,4|4,1:0|0:3,0:0:0:0:
123,18,143982,1,2,0:0:0:0:
265,3,144145,1,8,0:0:0:0:
173,151,144308,2,0,P|196:92|206:53,1,85,0|0,1:0|0:0,0:0:0:0:
66,140,144634,1,0,1:0:0:0:
126,260,144797,2,0,P|182:239|302:190,1,170,2|2,0:0|0:0,0:0:0:0:
432,204,145286,1,0,0:0:0:0:
316,113,145449,1,8,0:0:0:0:
324,305,145612,2,0,P|346:260|369:212,1,85,0|2,0:0|0:0,0:0:0:0:
316,113,145938,1,0,0:0:0:0:
462,296,146101,54,0,B|469:316|432:334|432:334|388:297|320:304,1,170,0|0,1:0|1:0,0:0:0:0:
190,347,146591,1,2,0:0:0:0:
192,211,146754,2,0,P|222:258|247:293,1,85,8|0,0:0|1:0,0:0:0:0:
279,140,147080,1,2,0:0:0:0:
151,111,147243,2,0,P|126:143|94:182,1,85,0|0,1:0|0:0,0:0:0:0:
57,53,147569,1,2,0:0:0:0:
168,17,147732,2,0,P|214:38|255:55,1,85,2|0,0:0|0:0,0:0:0:0:
392,30,148058,6,0,P|360:73|312:144,1,127.5,8|0,0:0|0:0,0:0:0:0:
306,164,148384,1,2,0:0:0:0:
351,278,148547,1,0,1:0:0:0:
484,163,148710,6,0,P|439:167|412:204,1,85,0|0,1:0|0:0,0:0:0:0:
383,347,149036,2,0,P|379:302|342:275,1,85,0|0,1:0|0:0,0:0:0:0:
214,204,149362,6,0,P|229:249|243:294,1,85,8|0,0:0|0:0,0:0:0:0:
335,194,149688,1,0,1:0:0:0:
210,109,149851,2,0,P|146:125|105:133,1,85,0|0,1:0|0:0,0:0:0:0:
0,225,150178,2,0,P|50:239|147:264,1,133.874995914459,0|0,1:0|0:0,0:0:0:0:
161,269,150504,1,0,1:0:0:0:
45,141,150667,2,0,P|52:97|59:52,1,89.2499972763062,8|0,0:0|0:0,0:0:0:0:
0,225,150993,2,0,P|44:218|88:211,1,89.2499972763062,2|0,0:0|0:0,0:0:0:0:
204,103,151319,5,0,1:0:0:0:
204,103,151482,2,0,B|238:97|267:54|267:54|315:39|360:62,1,178.499994552612,2|2,0:0|0:0,0:0:0:0:
482,107,151971,1,8,0:0:0:0:
396,223,152134,2,0,P|366:187|333:145,1,89.2499972763062,0|0,1:0|0:0,0:0:0:0:
496,195,152460,1,0,1:0:0:0:
463,307,152623,2,0,P|418:312|369:318,1,89.2499972763062,0|2,0:0|0:0,0:0:0:0:
233,344,152949,2,0,P|256:287|269:256,1,89.2499972763062,2|0,0:0|0:0,0:0:0:0:
236,81,153275,54,0,B|273:123|255:174|255:174|202:186|190:232,1,178.499994552612,8|2,0:0|0:0,0:0:0:0:
233,344,153764,1,2,0:0:0:0:
92,261,153928,6,0,P|87:216|82:168,1,89.2499972763062,0|0,1:0|0:0,0:0:0:0:
30,51,154254,2,0,P|89:68|129:81,1,89.2499972763062,0|0,1:0|0:0,0:0:0:0:
246,36,154580,1,8,0:0:0:0:
129,0,154743,1,0,1:0:0:0:
223,124,154906,2,0,P|265:110|308:98,1,89.2499972763062,0|0,0:0|1:0,0:0:0:0:
440,47,155232,2,0,P|415:102|396:139,1,89.2499972763062,2|0,0:0|0:0,0:0:0:0:
416,257,155558,2,0,P|369:234|316:210,1,89.2499972763062,2|0,0:0|0:0,0:0:0:0:
220,265,155884,1,8,0:0:0:0:
223,124,156047,2,0,P|267:133|315:140,2,89.2499972763062,2|2|2,0:0|0:0|0:0,0:0:0:0:
39,62,156536,6,0,P|62:104|89:152,1,89.2499972763062,0|0,1:0|0:0,0:0:0:0:
73,285,156862,2,0,P|120:262|165:243,1,89.2499972763062,0|0,1:1|0:0,0:0:0:0:
256,205,157188,1,8,0:0:0:0:
317,341,157351,2,0,P|267:329|175:313,1,133.874995914459,0|0,1:0|0:0,0:0:0:0:
153,247,157678,2,0,P|112:265|33:307,1,127.5,0|0,1:0|0:0,0:0:0:0:
34,262,158004,2,0,P|91:235|125:222,1,85,2|0,0:0|0:0,0:0:0:0:
187,127,158330,1,2,0:0:0:0:
28,78,158493,2,0,P|51:120|118:240,1,170,8|2,0:0|0:0,0:0:0:0:
185,314,158982,1,2,0:0:0:0:
328,351,159145,6,0,P|341:310|355:270,1,85,0|0,1:0|0:0,0:0:0:0:
447,175,159471,2,0,P|460:215|474:255,1,85,0|0,1:0|0:0,0:0:0:0:
349,170,159797,2,0,P|309:184|268:197,1,85,8|0,0:0|0:0,0:0:0:0:
169,31,160123,5,0,1:0:0:0:
169,31,160286,2,0,P|154:74|170:118,1,85,0|0,1:0|0:0,0:0:0:0:
98,242,160612,2,0,P|149:222|195:237,1,85,0|0,1:0|0:0,0:0:0:0:
74,137,160938,1,0,1:0:0:0:
248,294,161101,6,0,P|258:320|239:292,1,104.124996822357,8|0,0:0|0:0,0:0:0:0:
28,305,161754,6,0,B|89:310|89:310|146:239,1,133.874995914459,4|0,0:0|0:0,0:0:0:0:
240,201,162080,2,0,B|179:196|179:196|122:267,1,133.874995914459,2|0,0:0|0:0,0:0:0:0:
262,104,162406,1,8,0:0:0:0:
267,288,162569,1,2,0:0:0:0:
262,104,162732,2,0,B|355:104|305:146|400:136,1,133.874995914459,2|0,0:0|0:0,0:0:0:0:
446,72,163058,1,0,1:0:0:0:
472,259,163221,6,0,P|464:245|470:257,1,89.2499972763062,0|0,1:0|0:0,0:0:0:0:
429,341,163547,6,0,P|414:333|430:335,1,44.6249986381531,0|0,1:0|0:0,0:0:0:0:
320,308,163710,6,0,P|332:287|323:306,1,140.25000428009,14|0,0:0|0:0,0:0:0:0:
242,365,164036,6,0,P|211:315|227:222,1,152.999995330811,0|0,1:0|0:0,0:0:0:0:
242,139,164362,6,0,B|191:145|191:145|166:174|166:174|108:182,1,133.874995914459,2|0,0:0|0:0,0:0:0:0:
46,78,164688,2,0,B|67:124|67:124|102:139|102:139|128:192,1,133.874995914459,2|0,0:0|0:0,0:0:0:0:
36,208,165014,1,8,0:0:0:0:
123,64,165177,1,2,0:0:0:0:
36,208,165341,2,0,L|84:335,1,133.874995914459,2|0,0:0|0:0,0:0:0:0:
18,373,165667,1,0,1:0:0:0:
146,268,165830,6,0,B|157:293|157:293|176:286|176:286|169:265|169:265|146:269,1,80.7499978437424,0|0,1:0|0:0,0:0:0:0:
282,220,166156,6,0,B|272:241|272:241|256:236|256:236|262:218|262:218|282:221,1,44.6249986381531,0|0,1:0|0:0,0:0:0:0:
410,290,166319,6,0,B|392:329|392:329|363:318|363:318|374:286|374:286|410:292,1,140.25000428009,12|0,0:0|0:0,0:0:0:0:
480,346,166645,6,0,B|495:305|494:264|494:264|470:231|436:205,1,152.999995330811,0|0,1:0|0:0,0:0:0:0:
452,113,166971,6,0,B|415:108|390:131|390:131|376:128|376:128|355:146|303:141,1,133.874995914459,2|0,0:0|0:0,0:0:0:0:
270,57,167297,2,0,P|240:87|223:107,1,44.6249986381531,2|0,0:0|0:0,0:0:0:0:
154,133,167460,2,0,P|184:166|205:181,1,44.6249986381531,2|0,0:0|0:0,0:0:0:0:
200,258,167623,2,0,B|157:265|134:239|134:239|124:245|124:245|90:222|42:231,1,159.375,8|0,0:0|0:0,0:0:0:0:
79,374,167949,2,0,B|70:342|70:342|81:312,1,63.7500024318696,2|0,0:0|0:0,0:0:0:0:
49,169,168112,2,0,B|60:197|60:197|51:229,1,63.7500024318696,2|0,0:0|0:0,0:0:0:0:
81,313,168275,1,0,1:0:0:0:
200,257,168438,6,0,B|252:242|252:242|327:296,1,133.874995914459,0|0,1:0|0:0,0:0:0:0:
381,354,168764,2,0,L|394:306,1,44.6249986381531,0|0,1:0|0:0,0:0:0:0:
512,332,168928,2,0,B|469:303|469:303|460:266|460:266|408:233,1,140.25000428009,8|0,0:0|0:0,0:0:0:0:
407,134,169254,6,0,P|444:126|407:135,1,95.6250036478044,0|0,1:0|0:0,0:0:0:0:
339,90,169580,6,0,P|332:91|334:83,1,12.75,2|0,0:0|0:0,0:0:0:0:
247,70,169906,6,0,P|219:62|240:64,1,145.349998225708,0|0,1:0|0:0,0:0:0:0:
146,15,170232,6,0,P|124:57|149:145,1,133.874995914459,8|0,0:0|0:0,0:0:0:0:
62,175,170558,2,0,P|123:161|147:125,1,95.6250036478044,2|0,0:0|0:0,0:0:0:0:
39,81,170884,1,8,0:0:0:0:
120,266,171047,6,0,P|162:311|216:377,1,140.25000428009,8|0,0:0|0:0,0:0:0:0:
339,384,171373,2,0,P|335:355|335:311,1,63.7500024318696,0|0,1:0|0:0,0:0:0:0:
359,237,171536,2,0,P|305:242|259:322,1,140.25000428009,8|0,0:0|0:0,0:0:0:0:
263,177,171862,2,0,P|303:162|357:158,1,95.6250036478044,0|0,1:0|0:0,0:0:0:0:
437,131,172188,6,0,P|443:166|417:213,1,76.4999976654053,2|0,0:0|0:0,0:0:0:0:
397,65,172514,2,0,P|430:44|443:38,1,44.6249986381531,2|0,0:0|0:0,0:0:0:0:
355,157,172841,1,8,0:0:0:0:
322,9,173004,1,2,0:0:0:0:
203,56,173167,6,0,P|253:83|302:109,1,89.2499972763062,2|0,0:0|0:0,0:0:0:0:
288,254,173493,1,0,1:0:0:0:
281,98,173656,1,8,0:0:0:0:
190,208,173819,2,0,B|176:232|176:232|183:255,1,44.6249986381531,2|0,0:0|0:0,0:0:0:0:
106,348,173982,2,0,B|120:324|120:324|113:301,1,44.6249986381531,0|0,1:0|0:0,0:0:0:0:
99,214,174145,6,0,B|63:219|44:264|44:264|69:229|116:233,1,140.25000428009,8|0,0:0|0:0,0:0:0:0:
190,208,174471,2,0,B|226:203|245:158|245:158|220:193|173:189,1,140.25000428009,0|0,1:0|0:0,0:0:0:0:
224,302,174797,6,0,B|283:276|261:315|330:291,1,108.375002067089,2|0,0:0|0:0,0:0:0:0:
434,207,175123,2,0,B|350:243|381:188|282:222,1,140.25000428009,0|0,1:0|0:0,0:0:0:0:
329,292,175449,1,8,0:0:0:0:
388,141,175612,1,2,0:0:0:0:
211,250,175775,2,0,P|217:277|230:317,1,53.125,2|0,0:0|0:0,0:0:0:0:
160,372,175938,1,8,0:0:0:0:
152,350,176020,1,8,0:0:0:0:
144,329,176101,1,0,1:0:0:0:
133,163,176264,86,0,B|115:121|71:121|71:121|85:161|125:173,1,106.25,0|0,1:0|0:0,0:0:0:0:
217,210,176591,2,0,L|205:147,1,63.7500024318696,0|0,1:0|0:0,0:0:0:0:
279,136,176754,2,0,B|299:89|349:89|349:89|333:134|288:148,1,140.25000428009,8|0,0:0|0:0,0:0:0:0:
293,217,177080,2,0,B|305:244|335:244|335:244|326:218|299:209,1,95.6250036478044,0|0,1:0|0:0,0:0:0:0:
386,176,177406,5,2,0:0:0:0:
208,166,177569,2,0,L|220:208,1,29.7499990921021
141,240,177732,2,0,B|97:259|97:308|97:308|139:293|154:249,1,159.375,0|0,1:0|0:0,0:0:0:0:
86,177,178058,38,0,B|97:165|133:159|133:159|51:117|-2:157,1,191.250007295609,8|0,0:0|0:0,0:0:0:0:
32,237,178384,1,2,0:0:0:0:
113,55,178547,1,8,0:0:0:0:
135,42,178629,1,8,0:0:0:0:
154,29,178710,1,0,1:0:0:0:
217,209,178873,1,0,1:0:0:0:
323,85,179036,6,0,L|277:83,1,44.6249986381531,2|0,0:0|0:0,0:0:0:0:
376,176,179199,2,0,L|314:174,1,44.6249986381531,0|0,1:0|0:0,0:0:0:0:
277,268,179362,38,0,B|261:280|238:282|238:282|333:296|291:246|381:258,1,172.125000656605,8|0,0:0|0:0,0:0:0:0:
446,327,179688,2,0,B|458:317|476:315|476:315|404:305|436:342|368:333,1,127.500004863739,0|0,1:0|0:0,0:0:0:0:
361,256,180014,2,0,P|371:241|356:247,1,38.2499988327027,2|0,0:0|0:0,0:0:0:0:
349,154,180341,86,0,B|304:125|310:91|332:94|327:58|320:48|320:48|323:53|323:53|359:62|374:97|367:123|344:115|360:158,1,191.250007295609,0|0,1:0|0:0,0:0:0:0:
432,158,180667,1,8,0:0:0:0:
226,72,180830,1,8,0:0:0:0:
361,242,180993,1,0,1:0:0:0:
428,53,181156,1,8,0:0:0:0:
439,34,181237,1,8,0:0:0:0:
452,16,181319,5,8,0:0:0:0:
264,229,181482,1,8,0:0:0:0:
80,135,181645,86,0,B|55:118|59:99|71:101|68:80|64:75|64:75|66:78|66:78|86:83|95:102|91:117|78:113|87:137,1,121.124996765614,0|0,1:0|0:0,0:0:0:0:
61,225,181971,54,0,B|81:232|104:222|104:222|82:220|66:211,1,50.9999984436036,8|0,0:0|0:0,0:0:0:0:
198,232,182134,54,0,B|205:212|195:189|195:189|193:211|184:227,1,46.7500014266968,8|0,0:0|0:0,0:0:0:0:
213,103,182297,54,0,B|195:96|173:105|173:105|194:107|209:116,1,42.5,0|0,1:0|0:0,0:0:0:0:
86,116,182460,54,0,B|82:129|88:144|88:144|90:129|96:119,1,31.8750012159348,0|0,1:0|0:0,0:0:0:0:
213,103,182623,6,0,B|278:68|269:110|342:64,1,127.500004863739,4|2,1:0|0:0,0:0:0:0:
476,47,183275,1,0,1:0:0:0:
458,178,183601,2,0,P|441:221|458:258,1,72.2500013780594,2|0,0:0|0:0,0:0:0:0:
463,355,183928,2,0,P|411:322|334:273,1,152.999995330811,0|2,1:0|0:0,0:0:0:0:
157,349,184580,2,0,B|223:323|223:323|314:369,1,170,0|2,1:0|0:0,0:0:0:0:
392,318,185069,5,0,0:0:0:0:
363,217,185232,2,0,L|293:271,1,89.2499972763062,0|0,1:0|0:0,0:0:0:0:
206,329,185558,2,0,L|176:236,1,89.2499972763062,2|0,0:0|0:0,0:0:0:0:
161,138,185884,2,0,L|251:176,1,93.5000028533936,0|0,1:0|0:0,0:0:0:0:
172,43,186210,2,0,L|82:81,1,93.5000028533936,2|0,0:0|0:0,0:0:0:0:
255,0,186536,2,0,P|267:51|243:104,1,101.999996887207,0|0,1:0|0:0,0:0:0:0:
166,233,186862,2,0,P|148:185|160:137,1,101.999996887207,2|0,0:0|0:0,0:0:0:0:
413,49,187188,5,8,0:0:0:0:
298,307,187351,1,8,0:0:0:0:
502,126,187514,1,8,0:0:0:0:
234,192,187678,1,8,0:0:0:0:
496,288,187841,6,0,B|472:238|417:226|417:226|460:255|472:309,1,195.500003728867,4|2,1:0|1:2,0:0:0:0:
298,307,188330,1,2,0:0:0:0:
292,117,188493,2,0,P|348:132|402:144,1,97.7500018644333,8|0,0:0|0:0,0:0:0:0:
300,0,188819,1,2,1:2:0:0:
193,142,188982,2,0,P|220:189|310:323,1,195.500003728867,2|0,1:2|0:0,0:0:0:0:
120,180,189471,2,0,B|97:137|97:137|116:91,1,97.7500018644333,0|0,1:2|0:0,0:0:0:0:
293,218,189797,2,0,B|316:261|316:261|297:307,1,97.7500018644333,8|0,0:0|0:0,0:0:0:0:
98,184,190123,2,0,B|75:141|75:141|94:95,1,97.7500018644333,2|2,1:2|1:2,0:0:0:0:
106,343,190449,6,0,B|61:335|33:300|44:255|44:255|76:283|116:279,1,195.500003728867,4|2,1:0|1:2,0:0:0:0:
93,95,190938,1,2,0:0:0:0:
262,143,191101,2,0,P|206:171|167:191,1,97.7500018644333,8|0,0:0|0:0,0:0:0:0:
379,77,191428,2,0,P|323:49|284:29,1,97.7500018644333,2|2,1:2|1:2,0:0:0:0:
481,79,191754,5,2,0:0:0:0:
421,204,191917,1,2,0:0:0:0:
295,15,192080,2,0,P|339:38|383:60,1,97.7500018644333,0|0,1:2|0:0,0:0:0:0:
181,206,192406,2,0,P|225:183|269:162,1,97.7500018644333,8|0,0:0|0:0,0:0:0:0:
188,301,192732,1,2,1:2:0:0:
161,110,192895,1,2,1:2:0:0:
313,350,193058,6,0,P|322:303|335:241,1,97.7500018644333,4|0,1:0|0:0,0:0:0:0:
425,141,193384,2,0,P|376:131|329:121,1,97.7500018644333,2|0,1:2|0:0,0:0:0:0:
161,110,193710,2,0,P|170:157|180:205,1,97.7500018644333,8|0,0:2|0:0,0:0:0:0:
221,339,194036,2,0,P|174:330|126:320,1,97.7500018644333,2|2,1:2|1:2,0:0:0:0:
33,212,194362,1,2,0:0:0:0:
49,363,194525,1,2,0:0:0:0:
180,205,194688,2,0,B|158:199|150:167|150:167|142:195|120:200,1,97.7500018644333,0|0,1:2|0:0,0:0:0:0:
162,46,195014,2,0,B|203:55|219:121|219:121|236:64|281:54,1,195.500003728867,8|2,0:0|1:2,0:0:0:0:
179,204,195504,1,2,1:2:0:0:
361,163,195667,6,0,B|277:144|269:186|259:220|179:204,1,195.500003728867,4|2,1:0|1:2,0:0:0:0:
385,86,196156,1,2,0:0:0:0:
381,296,196319,2,0,B|394:260|327:239|327:239|305:275|310:309|327:352|326:338,1,195.500003728867,8|2,0:0|1:2,0:0:0:0:
434,202,196808,1,2,1:2:0:0:
464,346,196971,86,0,B|461:315|461:315|437:371|401:375,1,97.7500018644333,2|0,0:0|0:0,0:0:0:0:
255,265,197297,2,0,B|308:231|385:235|385:235|373:270|380:295,1,195.500003728867,0|8,1:2|0:0,0:0:0:0:
306,135,197786,1,2,0:0:0:0:
483,87,197949,2,0,P|473:141|463:190,1,97.7500018644333,2|2,1:2|1:2,0:0:0:0:
275,38,198275,6,0,B|202:63|202:63|182:99|182:99|108:122,1,195.500003728867,4|2,1:0|1:2,0:0:0:0:
269,126,198764,1,2,0:0:0:0:
122,81,198928,2,0,B|96:59|96:59|108:124,1,97.7500018644333,8|0,0:0|0:0,0:0:0:0:
254,166,199254,2,0,B|280:188|280:188|268:123,1,97.7500018644333,2|2,1:2|1:2,0:0:0:0:
350,253,199580,6,0,B|369:237|371:205|371:205|401:223|405:257|385:286,1,146.62500279665,2|0,0:0|0:0,0:0:0:0:
254,166,199906,2,0,B|234:195|238:229|268:247|268:247|270:215|294:196,1,146.62500279665,0|0,1:2|0:0,0:0:0:0:
350,253,200232,2,0,P|322:307|275:387,1,146.62500279665,8|0,0:0|0:0,0:0:0:0:
216,323,200558,1,2,1:2:0:0:
373,369,200721,1,2,1:2:0:0:
103,313,200884,6,0,P|110:259|89:213,1,97.7500018644333,4|0,1:0|0:0,0:0:0:0:
69,4,201210,2,0,P|62:57|83:103,1,97.7500018644333,2|0,1:2|0:0,0:0:0:0:
290,148,201536,2,0,P|236:141|190:162,1,97.7500018644333,8|0,0:0|0:0,0:0:0:0:
337,332,201862,2,0,P|391:339|437:318,1,97.7500018644333,2|2,1:2|1:2,0:0:0:0:
219,318,202188,6,0,P|239:259|251:215,1,97.7500018644333,2|0,0:0|0:0,0:0:0:0:
266,28,202514,2,0,P|306:55|345:84,1,97.7500018644333,0|0,1:2|0:0,0:0:0:0:
463,247,202840,2,0,P|416:233|369:217,1,97.7500018644333,8|0,0:0|0:0,0:0:0:0:
196,156,203167,1,2,1:2:0:0:
316,281,203330,1,2,1:2:0:0:
130,112,203493,6,0,B|110:163|110:163|134:199,1,97.7500018644333,4|0,1:0|0:0,0:0:0:0:
316,281,203819,1,2,1:2:0:0:
196,156,203982,1,2,0:0:0:0:
175,342,204145,2,0,P|122:314|69:284,1,97.7500018644333,8|0,0:0|0:0,0:0:0:0:
18,145,204471,1,2,1:2:0:0:
142,61,204634,6,0,B|158:63|167:83|167:83|166:42|184:24,1,97.7500018644333,2|0,1:2|0:0,0:0:0:0:
324,0,204960,1,2,0:0:0:0:
337,121,205123,2,0,B|353:144|380:145|380:145|366:121|337:121,1,97.7500018644333,0|0,1:2|0:0,0:0:0:0:
349,226,205449,2,0,B|365:249|392:250|392:250|378:226|349:226,1,97.7500018644333,8|0,0:0|0:0,0:0:0:0:
350,324,205775,2,0,B|366:347|393:348|393:348|379:324|350:324,1,97.7500018644333,2|2,1:2|1:2,0:0:0:0:
114,380,206101,6,0,B|92:354|92:354|157:366,1,97.7500018644333,4|0,1:0|0:0,0:0:0:0:
255,157,206427,2,0,B|277:183|277:183|214:172,1,97.7500018644333,2|0,1:2|0:0,0:0:0:0:
261,327,206754,1,8,0:0:0:0:
129,266,206917,1,2,0:0:0:0:
214,172,207080,1,2,1:2:0:0:
158,361,207243,1,2,1:2:0:0:
124,185,207406,2,0,P|118:135|114:77,1,97.7500018644333,2|0,0:0|0:0,0:0:0:0:
255,9,207732,2,0,P|250:66|245:106,1,97.7500018644333,0|0,1:2|0:0,0:0:0:0:
158,361,208058,5,8,0:0:0:0:
108,78,208221,1,8,0:0:0:0:
268,328,208384,1,8,0:0:0:0:
4,176,208547,1,8,0:0:0:0:
284,180,208710,6,0,B|351:205|351:205|368:238|368:238|447:263,1,170,4|2,1:0|1:2,0:0:0:0:
423,154,209199,1,0,0:0:0:0:
512,273,209362,2,0,P|473:324|448:356,1,85,8|0,0:0|0:0,0:0:0:0:
294,373,209688,2,0,P|319:339|345:305,1,85,2|2,0:0|1:2,0:0:0:0:
284,180,210014,5,2,0:0:0:0:
344,305,210178,1,2,0:0:0:0:
180,209,210341,2,0,P|205:242|230:276,1,85,2|0,1:2|0:0,0:0:0:0:
99,277,210667,1,8,0:0:0:0:
100,134,210830,2,0,B|107:105|166:92|166:92|201:123|249:116,1,170,2|0,0:0|0:0,0:0:0:0:
230,277,211319,5,6,1:2:0:0:
247,116,211482,1,2,0:0:0:0:
398,177,211645,2,0,P|349:193|315:206,1,85,2|0,1:2|0:0,0:0:0:0:
442,264,211971,1,8,0:0:0:0:
511,147,212134,2,0,P|466:114|372:46,1,170,2|4,0:0|0:3,0:0:0:0:
163,34,212623,5,6,1:2:0:0:
229,148,212786,2,0,P|290:126|335:111,1,85,2|2,0:0|1:2,0:0:0:0:
123,277,213112,5,0,0:0:0:0:
135,118,213275,1,10,0:0:0:0:
219,214,213438,1,2,0:0:0:0:
74,179,213601,1,2,0:0:0:0:
208,89,213764,1,2,0:0:0:0:
122,276,213928,6,0,B|228:279|149:352|301:343,1,170,6|2,1:2|1:2,0:0:0:0:
125,354,214417,1,0,0:0:0:0:
269,344,214580,1,10,0:0:0:0:
144,202,214743,1,2,0:0:0:0:
269,344,214906,2,0,P|260:302|253:260,1,85,2|0,0:0|1:2,0:0:0:0:
403,83,215232,5,2,0:0:0:0:
354,227,215395,1,2,0:0:0:0:
256,90,215558,2,0,P|211:108|171:124,1,85,4|0,0:3|0:0,0:0:0:0:
261,7,215884,2,0,B|328:32|328:32|345:65|345:65|424:90,1,170,8|2,0:0|0:0,0:0:0:0:
497,33,216373,1,2,0:0:0:0:
415,258,216536,5,6,1:2:0:0:
367,148,216699,1,2,0:0:0:0:
496,109,216862,2,0,P|481:159|469:196,1,85,2|0,1:2|0:0,0:0:0:0:
325,257,217188,5,10,0:0:0:0:
470,190,217351,1,2,0:0:0:0:
440,339,217514,2,0,P|425:289|413:252,1,85,2|2,0:0|1:2,0:0:0:0:
291,172,217841,5,2,0:0:0:0:
325,257,218004,1,2,0:0:0:0:
359,342,218167,1,4,0:3:0:0:
414,257,218330,1,2,0:0:0:0:
268,334,218493,2,0,P|228:316|183:293,1,85,10|2,0:0|0:0,0:0:0:0:
64,229,218819,2,0,P|104:211|149:188,1,85,2|0,0:0|0:0,0:0:0:0:
248,54,219145,6,0,B|208:36|168:55|168:55|165:100|107:115,1,170,6|2,1:2|1:2,0:0:0:0:
227,149,219634,1,0,0:0:0:0:
72,33,219797,2,0,P|83:43|73:36,1,57.3750002188683,10|2,0:0|0:0,0:0:0:0:
34,134,219960,2,0,P|23:144|33:137,1,57.3750002188683,2|2,0:0|0:0,0:0:0:0:
64,229,220123,2,0,P|104:211|159:184,1,101.999996887207,2|4,0:0|0:3,0:0:0:0:
258,90,220449,1,2,0:0:0:0:
296,279,220612,2,0,B|315:190|274:183|236:176|257:89,1,203.999993774414,2|2,0:0|0:0,0:0:0:0:
422,91,221101,2,0,P|368:84|332:134,1,101.999996887207,10|2,0:0|0:0,0:0:0:0:
221,247,221428,2,0,P|183:279|135:270,1,101.999996887207,2|2,0:0|0:0,0:0:0:0:
63,170,221754,6,0,B|40:150|38:112|38:112|2:134|-2:174|21:209,1,152.999995330811,6|0,1:2|0:0,0:0:0:0:
125,115,222080,2,0,B|147:134|149:172|149:172|185:150|190:110|166:75,1,152.999995330811,2|0,1:2|0:0,0:0:0:0:
226,21,222406,2,0,P|263:24|305:36,1,57.3750002188683,10|2,0:0|0:0,0:0:0:0:
383,7,222569,2,0,P|381:35|375:63,1,57.3750002188683,2|2,0:0|0:0,0:0:0:0:
397,179,222732,2,0,L|292:141,1,101.999996887207,2|4,0:0|0:3,0:0:0:0:
156,295,223058,5,2,0:0:0:0:
291,243,223221,1,2,0:0:0:0:
152,177,223384,1,2,1:2:0:0:
240,330,223547,1,2,0:0:0:0:
152,177,223710,2,0,P|105:183|59:225,1,101.999996887207,8|2,0:0|0:0,0:0:0:0:
151,369,224036,2,0,P|198:363|244:321,1,101.999996887207,2|2,0:0|0:0,0:0:0:0:
429,153,224362,6,0,P|408:228|398:265,1,101.999996887207,6|0,1:2|0:0,0:0:0:0:
467,368,224688,1,2,1:2:0:0:
499,232,224851,1,2,0:0:0:0:
340,354,225014,2,0,P|326:304|312:255,1,101.999996887207,8|0,0:0|0:0,0:0:0:0:
336,100,225341,1,2,0:0:0:0:
401,251,225504,1,4,0:3:0:0:
267,174,225667,2,0,P|217:187|168:201,1,101.999996887207,2|2,0:0|0:0,0:0:0:0:
66,313,225993,2,0,P|53:263|39:214,1,101.999996887207,2|2,1:2|0:0,0:0:0:0:
98,2,226319,5,8,0:0:0:0:
99,160,226482,1,2,0:0:0:0:
4,53,226645,1,2,0:0:0:0:
179,95,226808,1,2,0:0:0:0:
144,357,226971,6,0,P|187:330|206:283,1,101.999996887207,6|0,1:2|0:0,0:0:0:0:
440,290,227297,2,0,P|395:267|346:279,1,101.999996887207,2|0,1:2|0:0,0:0:0:0:
286,104,227623,2,0,P|268:162|283:206,1,101.999996887207,10|0,0:0|0:0,0:0:0:0:
439,316,227949,6,0,P|387:293|327:317,1,118.999996368408,2|0,1:2|1:2,0:0:0:0:
123,347,228275,2,0,P|168:317|187:250,1,118.999996368408,2|0,1:2|0:0,0:0:0:0:
311,85,228601,2,0,P|293:143|311:207,1,118.999996368408,2|0,1:2|0:0,0:0:0:0:
384,369,228928,5,8,0:0:0:0:
168,155,229091,1,8,0:0:0:0:
442,191,229254,1,8,0:0:0:0:
123,347,229417,1,8,0:0:0:0:
311,85,229580,6,0,P|243:75|182:65,1,97.7500018644333,4|0,1:0|0:0,0:0:0:0:
69,201,229906,2,0,P|137:191|198:181,1,97.7500018644333,2|0,1:2|0:0,0:0:0:0:
355,194,230232,2,0,B|337:245|284:264|284:264|323:230|328:175,1,195.500003728867,8|2,0:0|1:2,0:0:0:0:
415,81,230721,1,2,1:2:0:0:
214,70,230884,6,0,P|227:123|238:167,1,97.7500018644333,2|0,0:0|0:0,0:0:0:0:
380,287,231210,2,0,P|327:274|283:263,1,97.7500018644333,0|0,1:2|0:0,0:0:0:0:
112,358,231536,2,0,P|145:301|167:260,1,97.7500018644333,8|0,0:0|0:0,0:0:0:0:
268,330,231862,1,2,1:2:0:0:
134,172,232025,1,2,1:2:0:0:
380,287,232188,6,0,B|405:231|393:156|393:156|372:194|355:205,1,195.500003728867,4|2,1:0|1:2,0:0:0:0:
316,131,232678,1,2,0:0:0:0:
134,172,232841,2,0,B|214:188|224:154|232:112|316:131,1,195.500003728867,8|2,0:0|1:2,0:0:0:0:
160,87,233330,1,2,1:2:0:0:
52,170,233493,2,0,B|97:144|97:144|139:175,1,97.7500018644333,2|0,0:0|0:0,0:0:0:0:
173,346,233819,2,0,B|136:373|136:373|91:347,1,97.7500018644333,0|0,1:2|0:0,0:0:0:0:
207,260,234145,2,0,B|249:270|265:336|265:336|282:279|327:269,1,195.500003728867,8|2,0:0|1:2,0:0:0:0:
433,369,234634,1,2,1:2:0:0:
487,184,234797,6,0,B|413:161|413:161|393:125|393:125|307:95,1,195.500003728867,4|2,1:0|1:2,0:0:0:0:
482,86,235286,1,2,0:0:0:0:
354,243,235449,2,0,B|323:216|295:217|295:217|302:196|290:174|290:174|311:188|340:183|340:183|334:206|355:245,1,195.500003728867,8|2,0:0|1:2,0:0:0:0:
240,77,235938,1,2,1:2:0:0:
215,209,236101,2,0,L|105:180,1,97.7500018644333,2|0,0:0|0:0,0:0:0:0:
193,349,236428,2,0,L|303:320,1,97.7500018644333,0|0,1:2|0:0,0:0:0:0:
68,377,236754,2,0,L|90:268,1,97.7500018644333,8|0,0:0|0:0,0:0:0:0:
306,228,237080,2,0,L|284:337,1,97.7500018644333,2|2,1:2|1:2,0:0:0:0:
120,184,237406,6,0,B|121:198|104:155|99:121|121:85|121:85|188:106|173:147,1,195.500003728867,4|2,1:0|1:2,0:0:0:0:
257,235,237895,1,2,0:0:0:0:
391,185,238058,2,0,B|390:198|407:155|412:121|390:85|390:85|323:106|337:141,1,195.500003728867,8|2,0:0|1:2,0:0:0:0:
257,235,238547,1,2,1:2:0:0:
174,141,238710,1,2,0:0:0:0:
336,139,238873,1,2,0:0:0:0:
257,235,239036,2,0,P|249:220|257:234,1,97.7500018644333,0|0,1:2|0:0,0:0:0:0:
122,342,239362,2,0,P|165:359|214:324,1,97.7500018644333,8|0,0:0|0:0,0:0:0:0:
388,342,239688,2,0,P|345:359|296:324,1,97.7500018644333,2|2,1:2|1:2,0:0:0:0:
282,147,240014,6,0,B|198:128|190:170|180:204|100:188,1,195.500003728867,4|2,1:0|1:2,0:0:0:0:
214,300,240504,1,2,0:0:0:0:
101,189,240667,2,0,P|87:145|73:90,1,97.7500018644333,8|0,0:0|0:0,0:0:0:0:
196,28,240993,1,2,1:2:0:0:
191,165,241156,1,2,1:2:0:0:
454,126,241319,86,0,B|424:153|380:133|380:133|350:181|401:216,1,146.62500279665,2|0,0:0|0:0,0:0:0:0:
334,69,241645,2,0,B|364:42|408:62|408:62|438:14|387:-21,1,146.62500279665,0|0,1:2|0:0,0:0:0:0:
381,134,241971,2,0,B|360:146|328:147|328:147|314:167|314:167|276:157|229:177,1,146.62500279665,8|0,0:0|0:0,0:0:0:0:
282,244,242297,1,2,1:2:0:0:
205,67,242460,1,2,1:2:0:0:
197,269,242623,6,0,B|260:312|328:272|328:272|289:254|281:243,1,195.500003728867,4|2,1:0|1:2,0:0:0:0:
127,332,243112,1,2,0:0:0:0:
50,232,243275,2,0,B|37:182|37:182|72:135,1,97.7500018644333,8|0,0:0|0:0,0:0:0:0:
46,10,243601,2,0,B|96:-3|96:-3|143:32,1,97.7500018644333,2|2,1:2|1:2,0:0:0:0:
293,86,243928,2,0,P|253:113|203:130,1,97.7500018644333,2|0,0:0|0:0,0:0:0:0:
426,88,244254,2,0,P|397:46|382:-2,1,97.7500018644333,0|0,1:2|0:0,0:0:0:0:
370,186,244580,2,0,P|417:200|460:230,1,97.7500018644333,8|0,0:0|0:0,0:0:0:0:
293,86,244906,1,2,1:2:0:0:
320,272,245069,1,2,1:2:0:0:
120,87,245232,6,0,B|138:104|179:103|179:103|159:112|151:143,1,97.7500018644333,4|0,1:0|0:0,0:0:0:0:
206,304,245558,1,2,1:2:0:0:
301,127,245721,1,2,0:0:0:0:
77,241,245884,2,0,B|94:223|93:182|93:182|102:202|133:210,1,97.7500018644333,8|0,0:0|0:0,0:0:0:0:
277,253,246210,1,2,1:2:0:0:
155,128,246373,1,2,1:2:0:0:
112,339,246536,6,0,L|18:307,1,97.7500018644333,2|0,0:0|0:0,0:0:0:0:
155,128,246862,1,2,1:2:0:0:
189,324,247025,1,2,0:0:0:0:
272,185,247188,2,0,P|215:209|173:228,1,97.7500018644333,8|0,0:0|0:0,0:0:0:0:
268,57,247514,2,0,P|325:81|367:100,1,97.7500018644333,2|2,1:2|1:2,0:0:0:0:
469,297,247841,6,0,B|415:304|415:304|372:271,1,97.7500018644333,4|0,1:0|0:0,0:0:0:0:
452,100,248167,1,2,1:2:0:0:
471,298,248330,1,2,0:0:0:0:
337,186,248493,6,0,B|330:132|330:132|363:89,1,97.7500018644333,8|0,0:0|0:0,0:0:0:0:
512,199,248819,1,2,1:2:0:0:
337,186,248982,1,2,1:2:0:0:
406,13,249145,2,0,P|427:56|451:99,1,97.7500018644333,2|0,0:0|0:0,0:0:0:0:
256,92,249471,2,0,P|234:48|210:5,1,97.7500018644333,0|0,1:2|0:0,0:0:0:0:
25,85,249797,5,8,0:0:0:0:
104,364,249960,1,8,0:0:0:0:
149,53,250123,1,8,0:0:0:0:
1,313,250286,1,8,0:0:0:0:
256,91,250449,6,0,B|237:137|237:137|260:180,1,97.7500018644333,4|0,1:0|0:0,0:0:0:0:
437,307,250775,2,0,B|456:261|456:261|433:218,1,97.7500018644333,2|0,1:2|0:0,0:0:0:0:
304,278,251101,2,0,B|220:259|212:301|202:335|122:319,1,195.500003728867,8|2,0:0|1:2,0:0:0:0:
272,362,251591,1,2,1:2:0:0:
140,180,251754,2,0,B|123:203|126:231|151:246|151:246|153:220|172:204,1,97.7500018644333,2|0,0:0|0:0,0:0:0:0:
321,321,252080,2,0,B|336:299|332:271|308:256|308:256|306:282|303:277,1,97.7500018644333,0|0,1:2|0:0,0:0:0:0:
249,153,252406,2,0,B|260:144|239:151|233:128|247:96|279:88|279:88|282:84|282:84|275:93|271:125|291:122|296:153|256:179,1,195.500003728867,8|2,0:0|1:2,0:0:0:0:
303,277,252895,1,2,1:2:0:0:
100,119,253058,6,0,B|152:127|180:95|180:95|193:103|193:103|234:74|293:85,1,195.500003728867,4|2,1:0|1:2,0:0:0:0:
122,42,253547,1,2,0:0:0:0:
281,83,253710,2,0,B|286:82|286:82|291:80|295:79|299:78|299:78|305:75|305:75|307:74|310:74|310:74|310:74|310:74|312:74|319:76|319:76|323:79|328:84|331:91|332:96|333:107|333:107|333:109|332:116|332:116|328:129|321:145|315:158|311:169|311:169|309:167|309:167|309:167|309:167|301:162|281:155|261:152,1,195.448353184229,8|2,0:0|1:2,0:0:0:0:
416,107,254199,1,2,1:2:0:0:
285,315,254362,2,0,P|263:296|263:226,1,97.7500018644333,2|0,0:0|0:0,0:0:0:0:
231,83,254688,2,0,B|226:82|226:82|221:80|217:79|213:78|213:78|207:75|207:75|205:74|202:74|202:74|202:74|202:74|200:74|193:76|193:76|189:79|184:84|181:91|180:96|179:107|179:107|179:109|180:116|180:116|184:129|191:145|197:158|201:169|201:169|203:167|203:167|203:167|203:167|211:162|231:155|251:152,1,195.448353184229,0|8,1:2|0:0,0:0:0:0:
113,39,255178,1,2,0:0:0:0:
144,220,255341,1,2,1:2:0:0:
231,83,255504,1,2,1:2:0:0:
37,117,255667,6,0,P|47:157|101:324,1,195.500003728867,4|2,1:0|1:2,0:0:0:0:
251,339,256156,1,2,0:0:0:0:
70,381,256319,2,0,B|150:397|160:363|168:321|252:340,1,195.500003728867,8|2,0:0|1:2,0:0:0:0:
425,275,256808,1,2,1:2:0:0:
284,170,256971,2,0,P|296:223|311:282,1,97.7500018644333,2|0,0:0|0:0,0:0:0:0:
397,151,257297,2,0,P|409:103|420:56,1,97.7500018644333,0|0,1:2|0:0,0:0:0:0:
287,78,257623,2,0,B|214:103|214:103|194:139|194:139|120:162,1,195.500003728867,8|2,0:0|1:2,0:0:0:0:
284,170,258112,1,2,1:2:0:0:
123,16,258275,6,0,B|78:24|50:59|61:104|61:104|93:76|132:73,1,195.500003728867,4|2,1:0|1:2,0:0:0:0:
106,305,258764,1,2,0:0:0:0:
120,161,258928,2,0,B|153:158|185:130|185:130|196:175|168:210|123:218,1,195.500003728867,8|2,0:0|1:2,0:0:0:0:
242,272,259417,1,2,1:2:0:0:
31,276,259580,5,2,0:0:0:0:
120,161,259743,1,2,0:0:0:0:
225,350,259906,2,0,P|179:366|132:379,1,97.7500018644333,2|0,1:2|0:0,0:0:0:0:
252,258,260232,2,0,B|270:296|306:292|320:331|320:331|333:292|369:296|388:258,1,195.500003728867,8|2,0:0|1:2,0:0:0:0:
225,350,260721,1,2,0:0:0:0:
409,172,260884,6,0,B|356:158|323:206|323:206|290:158|240:171,1,195.500003728867,4|2,1:0|1:2,0:0:0:0:
160,43,261373,1,2,0:0:0:0:
304,1,261536,2,0,P|276:66|260:100,1,97.7500018644333,8|0,0:0|0:0,0:0:0:0:
131,212,261862,2,0,P|110:167|91:122,1,97.7500018644333,2|2,1:2|1:2,0:0:0:0:
192,320,262188,6,0,B|231:326|256:355|256:355|284:326|322:320,1,146.62500279665,2|0,0:0|0:0,0:0:0:0:
382,213,262514,2,0,P|321:174|256:200,1,146.62500279665,0|0,1:2|0:0,0:0:0:0:
131,212,262841,2,0,P|192:173|257:199,1,146.62500279665,8|0,0:0|0:0,0:0:0:0:
315,257,263167,1,2,1:2:0:0:
174,94,263330,1,2,1:2:0:0:
35,232,263493,6,0,B|49:296|110:304|110:304|131:362|96:395,1,195.500003728867,4|2,1:0|1:2,0:0:0:0:
251,284,263982,1,2,0:0:0:0:
131,212,264145,2,0,B|116:189|116:189|114:160|114:160|91:125,1,97.7500018644333,8|0,0:0|0:0,0:0:0:0:
196,1,264471,2,0,B|180:39|180:39|184:68|184:68|173:93,1,97.7500018644333,2|2,1:2|1:2,0:0:0:0:
443,104,264797,2,0,B|421:106|397:91|397:91|385:115|356:121,1,97.7500018644333,2|0,0:0|0:0,0:0:0:0:
249,273,265123,2,0,B|274:267|286:243|286:243|310:258|332:256,1,97.7500018644333,0|0,1:2|0:0,0:0:0:0:
443,104,265449,2,0,P|431:161|424:207,1,97.7500018644333,8|0,0:0|0:0,0:0:0:0:
267,369,265775,2,0,P|259:320|248:272,1,97.7500018644333,2|2,1:2|1:2,0:0:0:0:
79,109,266101,6,0,P|126:87|174:126,1,97.7500018644333,4|0,1:0|0:0,0:0:0:0:
41,30,266428,1,2,1:2:0:0:
101,193,266591,1,2,0:0:0:0:
247,67,266754,2,0,P|263:115|230:162,1,97.7500018644333,8|0,0:0|0:0,0:0:0:0:
134,277,267080,1,2,1:2:0:0:
79,109,267243,1,2,1:2:0:0:
231,239,267406,6,0,P|281:204|316:177,1,97.7500018644333,2|0,0:0|0:0,0:0:0:0:
483,179,267732,1,2,1:2:0:0:
343,78,267895,1,2,0:0:0:0:
388,292,268058,2,0,P|399:232|406:188,1,97.7500018644333,8|0,0:0|0:0,0:0:0:0:
264,113,268384,1,2,1:2:0:0:
433,52,268547,1,2,1:2:0:0:
137,80,268710,6,0,B|150:75|149:92|149:92|134:101|126:116|126:116|124:95|111:80|130:75,1,97.7500018644333,4|0,1:0|0:0,0:0:0:0:
25,190,269036,2,0,B|11:185|12:202|12:202|27:211|35:226|35:226|37:205|50:190|31:185,1,97.7500018644333,2|2,1:2|0:0,0:0:0:0:
152,268,269362,2,0,B|165:263|164:280|164:280|149:289|141:304|141:304|139:283|126:268|145:263,1,97.7500018644333,8|0,0:0|0:0,0:0:0:0:
52,337,269688,1,2,1:2:0:0:
182,169,269851,1,2,1:2:0:0:
211,339,270014,2,0,L|310:303,1,97.7500018644333,2|0,0:0|0:0,0:0:0:0:
473,313,270341,2,0,L|437:214,1,97.7500018644333,0|0,1:2|0:0,0:0:0:0:
300,37,270667,5,8,0:0:0:0:
302,305,270830,1,8,0:0:0:0:
423,22,270993,1,8,0:0:0:0:
182,169,271156,1,8,0:0:0:0:
439,219,271319,54,0,B|458:169|507:172|519:131|519:131|528:96|490:65|465:85,1,212.5,6|2,1:2|1:2,0:0:0:0:
439,219,271808,1,0,0:0:0:0:
341,80,271971,2,0,B|316:60|277:91|287:125|287:125|299:167|347:164|367:215,1,212.5,8|2,0:0|1:2,0:0:0:0:
383,347,272460,1,2,1:2:0:0:
199,260,272623,2,0,B|207:243|230:242|239:260|239:260|251:242|274:243|282:260|287:270|285:286|262:291|244:290|229:315|229:315|219:288|202:278,1,212.5,2|2,1:2|1:2,0:0:0:0:
193,150,273112,1,0,0:0:0:0:
107,323,273275,2,0,P|54:295|-9:268,1,106.25,8|0,0:0|0:0,0:0:0:0:
97,103,273601,2,0,P|150:131|213:158,1,106.25,2|2,1:2|1:2,0:0:0:0:
107,323,273928,6,0,B|82:279|113:224|113:224|192:150,1,212.5,6|2,1:2|1:2,0:0:0:0:
320,52,274417,1,0,0:0:0:0:
402,224,274580,2,0,B|422:174|374:135|374:135|311:119|319:51,1,212.5,8|2,0:0|1:2,0:0:0:0:
449,54,275069,1,2,1:2:0:0:
402,224,275232,2,0,P|334:214|286:207,1,106.25,2|0,1:2|0:0,0:0:0:0:
214,67,275558,2,0,P|282:57|330:50,1,106.25,2|0,1:2|0:0,0:0:0:0:
400,251,275884,2,0,P|332:241|284:234,1,106.25,8|0,0:0|0:0,0:0:0:0:
208,49,276210,2,0,P|276:39|324:32,1,106.25,2|2,1:2|1:2,0:0:0:0:
294,235,276536,5,6,1:2:0:0:
121,235,276699,1,0,0:0:0:0:
208,149,276862,1,2,1:2:0:0:
208,322,277025,1,0,0:0:0:0:
301,148,277188,5,8,0:0:0:0:
301,321,277351,1,0,0:0:0:0:
215,234,277514,1,2,1:2:0:0:
388,234,277677,1,2,1:2:0:0:
208,322,277841,6,0,B|185:327|171:359|171:359|161:332|134:328,1,106.25,6|0,1:2|0:0,0:0:0:0:
215,234,278167,1,2,1:2:0:0:
301,321,278330,1,2,0:0:0:0:
388,234,278493,6,0,B|393:257|425:271|425:271|398:281|394:308,1,106.25,8|0,0:0|0:0,0:0:0:0:
300,227,278819,1,2,1:2:0:0:
387,141,278982,1,2,1:2:0:0:
143,126,279145,6,0,B|189:137|207:210|207:210|225:147|275:135,1,212.5,6|2,1:2|1:2,0:0:0:0:
217,26,279634,1,2,0:0:0:0:
207,210,279797,2,0,B|113:188|104:235|93:273|4:255,1,212.5,8|2,0:0|1:2,0:0:0:0:
153,297,280286,1,2,1:2:0:0:
39,179,280449,2,0,B|21:136|21:136|27:112|27:112|6:69,1,106.25,6|0,1:2|0:0,0:0:0:0:
207,210,280775,2,0,B|183:236|183:236|182:261|182:261|153:297,1,106.25,2|0,1:2|0:0,0:0:0:0:
271,268,281101,1,8,0:0:0:0:
143,126,281264,1,2,0:0:0:0:
334,123,281428,1,2,1:2:0:0:
153,297,281591,1,2,1:2:0:0:
334,123,281754,6,0,B|379:107|426:130|426:130|422:214|510:230,1,212.5,6|2,1:2|1:2,0:0:0:0:
342,210,282243,1,0,0:0:0:0:
359,31,282406,2,0,B|276:59|276:59|253:101|253:101|168:127,1,212.5,8|2,0:0|1:2,0:0:0:0:
29,79,282895,1,2,1:2:0:0:
58,232,283058,2,0,B|97:259|144:253|192:217|192:217|152:222|132:196,1,212.5,2|2,1:2|1:2,0:0:0:0:
211,127,283547,1,0,0:0:0:0:
359,31,283710,2,0,B|319:3|273:9|224:45|224:45|264:40|285:67,1,212.5,8|2,0:0|1:2,0:0:0:0:
425,126,284199,1,2,1:2:0:0:
251,264,284362,6,0,B|271:305|310:301|327:345|327:345|340:301|379:305|400:264,1,212.5,6|2,1:2|1:2,0:0:0:0:
423,157,284851,1,2,0:0:0:0:
241,155,285014,2,0,B|292:141|328:194|328:194|365:141|423:156,1,212.5,8|2,0:0|1:2,0:0:0:0:
241,155,285504,1,2,1:2:0:0:
301,31,285667,2,0,B|309:14|332:13|342:29|342:29|353:13|376:14|384:31|389:41|387:57|364:62|346:61|331:82|331:82|321:59|304:49,1,212.5,2|2,1:2|1:2,0:0:0:0:
422,156,286156,1,0,0:0:0:0:
301,31,286319,2,0,P|251:24|197:67,1,106.25,8|0,0:0|0:0,0:0:0:0:
56,22,286645,2,0,P|49:72|92:126,1,106.25,2|2,1:2|1:2,0:0:0:0:
227,275,286971,54,0,B|246:225|295:228|307:187|307:187|316:152|278:121|253:141,1,212.5,6|2,1:2|1:2,0:0:0:0:
130,62,287460,1,2,0:0:0:0:
154,277,287623,2,0,B|135:227|86:230|74:189|74:189|65:154|103:123|128:143,1,212.5,8|2,0:0|1:2,0:0:0:0:
227,275,288112,1,2,1:2:0:0:
250,126,288275,2,0,L|362:142,1,106.25,2|0,1:2|0:0,0:0:0:0:
478,272,288601,2,0,L|366:288,1,106.25,2|0,1:2|0:0,0:0:0:0:
450,126,288928,5,8,0:0:0:0:
327,349,289091,1,8,0:0:0:0:
337,38,289254,1,8,0:0:0:0:
478,272,289417,1,8,0:0:0:0:
246,184,289580,54,0,B|211:199|162:166|186:95|242:71|291:79|347:111|351:191|309:241|309:241|262:295|194:271|162:360|162:360|131:271|63:295|15:241|15:241|-26:191|-21:111|34:79|83:71|139:95|162:166|114:199|79:184,1,1071,4|0,1:0|0:0,0:0:0:0:
246,184,294835,6,0,P|276:180|295:149,2,63.7500024318696,2|2|2,0:0|0:0|0:0,0:0:0:0:
177,259,295321,2,0,P|140:213|72:183,1,127.500004863739,2|2,0:0|0:0,0:0:0:0:
7,102,295807,1,2,0:0:0:0:
7,102,295984,2,0,P|62:86|142:61,1,127.500004863739,2|2,0:0|0:0,0:0:0:0:
228,21,296450,2,0,P|221:69|218:95,1,63.7500024318696,2|2,0:0|0:0,0:0:0:0:
304,109,296777,2,0,P|311:157|314:183,1,63.7500024318696,2|2,0:0|0:0,0:0:0:0:
354,255,297105,1,2,0:0:0:0:
354,255,297269,1,2,0:0:0:0:
463,177,297419,6,0,P|427:172|377:165,1,63.7500024318696,2|2,0:0|0:0,0:0:0:0:
354,255,297741,1,2,0:0:0:0:
312,172,297902,2,0,P|308:140|296:36,1,127.500004863739,2|2,0:0|0:0,0:0:0:0:
209,21,298385,1,2,0:0:0:0:
209,21,298546,1,2,0:0:0:0:
148,109,298707,6,0,L|210:122,1,63.7500024318696,2|2,0:0|0:0,0:0:0:0:
150,194,299033,2,0,L|87:207,1,63.7500024318696,2|2,0:0|0:0,0:0:0:0:
152,283,299359,2,0,L|214:296,1,63.7500024318696,2|2,0:0|0:0,0:0:0:0:
299,351,299685,1,2,0:0:0:0:
299,351,299848,1,2,0:0:0:0:
334,260,300011,6,0,P|340:228|344:197,2,63.7500024318696,2|2|2,0:0|0:0|0:0,0:0:0:0:
466,221,300500,2,0,B|394:185|406:221|334:192,1,127.500004863739,2|2,0:0|0:0,0:0:0:0:
261,149,300979,1,2,0:0:0:0:
335,83,301152,2,0,P|358:112|330:206,1,127.500004863739,2|2,0:0|0:0,0:0:0:0:
261,149,301641,2,0,L|196:137,1,63.7500024318696,2|2,0:0|0:0,0:0:0:0:
119,77,301953,2,0,L|106:143,1,63.7500024318696,2|2,0:0|0:0,0:0:0:0:
86,246,302275,2,0,L|154:227,1,63.7500024318696,2|2,0:0|0:0,0:0:0:0:
203,309,302608,5,2,0:0:0:0:
203,309,302779,1,2,0:0:0:0:
93,362,302939,1,2,0:0:0:0:
93,362,303098,2,0,B|115:318|115:318|77:226,1,127.500004863739,2|2,0:0|0:0,0:0:0:0:
17,165,303577,1,2,0:0:0:0:
17,165,303737,2,0,B|68:145|68:145|93:150|93:150|146:126,1,127.500004863739,2|2,0:0|0:0,0:0:0:0:
178,47,304239,2,0,B|144:37|144:37|119:51,1,63.7500024318696,2|2,0:0|0:0,0:0:0:0:
264,72,304560,2,0,B|274:38|274:38|259:13,1,63.7500024318696,2|2,0:0|0:0,0:0:0:0:
213,134,304881,1,2,0:0:0:0:
213,134,305041,1,2,0:0:0:0:
318,146,305214,6,0,P|357:136|388:127,2,55.2499974708558,2|2|2,0:0|0:0|0:0,0:0:0:0:
369,224,305700,2,0,P|348:260|308:322,1,110.499994941712,2|2,0:0|0:0,0:0:0:0:
207,368,306186,1,2,0:0:0:0:
207,368,306355,2,0,P|194:314|177:249,1,110.499994941712,2|2,0:0|0:0,0:0:0:0:
91,247,306844,2,0,P|97:219|104:182,1,55.2499974708558,2|2,0:0|0:0,0:0:0:0:
191,150,307166,2,0,P|171:126|150:101,1,55.2499974708558,2|2,0:0|0:0,0:0:0:0:
121,15,307485,2,0,P|88:40|68:57,1,55.2499974708558,2|2,0:0|0:0,0:0:0:0:
35,146,307822,6,0,P|15:122|-6:97,1,55.2499974708558,2|2,0:0|0:0,0:0:0:0:
77,48,308146,1,2,0:0:0:0:
155,107,308308,2,0,P|195:87|265:46,1,110.499994941712,2|2,0:0|0:0,0:0:0:0:
346,19,308794,1,2,0:0:0:0:
346,19,308957,2,0,B|336:83|362:61|352:128,1,110.499994941712,2|2,0:0|0:0,0:0:0:0:
402,221,309443,2,0,P|362:209|331:201,1,55.2499974708558,2|2,0:0|0:0,0:0:0:0:
260,173,309767,2,0,P|254:215|253:247,1,55.2499974708558,2|2,0:0|0:0,0:0:0:0:
226,329,310104,2,0,P|265:317|292:305,1,55.2499974708558,2|2,0:0|0:0,0:0:0:0:
391,340,310438,6,0,P|374:303|363:281,1,46.7500014266968,2|0,0:0|0:0,0:0:0:0:
278,311,310774,1,2,0:0:0:0:
253,227,310936,2,0,P|255:200|271:116,1,93.5000028533936,2|2,0:0|0:0,0:0:0:0:
238,54,311422,1,2,0:0:0:0:
238,54,311605,2,0,P|198:68|134:95,1,93.5000028533936,2|2,0:0|0:0,0:0:0:0:
49,55,312088,1,2,0:0:0:0:
49,55,312250,2,0,P|47:89|46:114,1,46.7500014266968,2|2,0:0|0:0,0:0:0:0:
13,195,312572,2,0,P|51:183|74:175,1,46.7500014266968,2|2,0:0|0:0,0:0:0:0:
151,206,312895,5,2,0:0:0:0:
151,206,313056,1,2,0:0:0:0:
248,141,313217,2,0,P|241:163|234:186,1,42.5,2|2,0:0|0:0,0:0:0:0:
209,271,313540,2,0,P|249:266|309:257,1,85,2|2,0:0|0:0,0:0:0:0:
349,333,314040,1,2,0:0:0:0:
349,333,314203,2,0,P|388:318|428:302,1,85,2|2,0:0|0:0,0:0:0:0:
509,239,314692,2,0,L|469:223,1,42.5,2|2,0:0|0:0,0:0:0:0:
397,158,315018,2,0,L|383:205,1,42.5,2|2,0:0|0:0,0:0:0:0:
428,301,315349,1,2,0:0:0:0:
469,223,315518,1,2,0:0:0:0:
256,192,315598,12,0,322614,0:0:0:0:
