osu file format v14

[General]
AudioFilename: audio.mp3
AudioLeadIn: 0
PreviewTime: 50855
Countdown: 0
SampleSet: Soft
StackLeniency: 0.7
Mode: 2
LetterboxInBreaks: 0
WidescreenStoryboard: 0

[Editor]
Bookmarks: 6905,8453,10105,16505,19705,22105,22905,29305,30905,34105,35705,37305,38905,40505,41205,42105,43705,45305,48505,50105,51505,53705,54905,56305,58105,59705,61305,62905,64505,65905,67705,69105,70905,72505,74105,77305,80505,82505,83705,85289,86513
DistanceSpacing: 1.2
BeatDivisor: 4
GridSize: 4
TimelineZoom: 1.500001

[Metadata]
Title:Mixed Nuts (TV Size)
TitleUnicode:ミックスナッツ (TV Size)
Artist:Official HIGE DANdism
ArtistUnicode:Official髭男dism
Creator:rew0825
Version:ArcheR's Salad
Source:SPY×FAMILY
Tags:4rcheR- archer SPYxFAMILY スパイファミリー higedan ヒゲダン 小笹大輔 Daisuke Ozasa 楢﨑誠 Makoto Narazaki 松浦匡希 Masaki Matsuura 藤原聡 Satoshi Fujihara オフィシャルヒゲダンディズム OP Opening Anime Japanese Pop JPop J-Pop Rock JRock J-Rock Jazz Male Vocal Vocals
BeatmapID:3568329
BeatmapSetID:1743988

[Difficulty]
HPDrainRate:3
CircleSize:3
OverallDifficulty:7
ApproachRate:7
SliderMultiplier:1.6
SliderTickRate:1

[Events]
//Background and Video events
0,0,"BG.jpg",0,0
Video,0,"VDO.m4v"
//Break Periods
//Storyboard Layer 0 (Background)
//Storyboard Layer 1 (Fail)
//Storyboard Layer 2 (Pass)
//Storyboard Layer 3 (Foreground)
//Storyboard Layer 4 (Overlay)
//Storyboard Sound Samples

[TimingPoints]
505,398.671096345515,4,2,25,80,1,0
3694,398.009950248756,4,2,25,80,1,0
5286,404.858299595142,4,2,25,80,1,0
6905,387.096774193548,4,2,25,80,1,0
8453,408.163265306122,4,2,25,80,1,0
9269,418.118466898955,4,2,25,80,1,0
10105,400,4,2,25,70,1,0
35705,-100,4,2,25,80,0,0
45305,-100,4,2,25,70,0,0
48505,-100,4,2,25,80,0,0
50905,-100,4,2,25,85,0,0
51505,-100,4,2,25,85,0,1
77305,-100,4,2,25,85,0,0
83705,-100,4,2,25,80,0,0
84505,392.156862745098,4,2,25,80,1,0
85289,408.163265306122,4,2,25,80,1,0
86513,-100,4,2,25,85,0,0

[Colours]
Combo1 : 117,160,204
Combo2 : 244,173,167
Combo3 : 230,219,181
Combo4 : 132,159,143

[HitObjects]
256,192,505,5,4,1:2:0:0:
256,192,903,12,0,6500,0:0:0:0:
200,344,6905,5,4,1:2:0:0:
280,344,7098,2,0,L|292:208,1,120,0|0,3:2|3:2,0:0:0:0:
172,212,7679,2,0,L|44:156,1,120,0|0,3:2|3:2,0:0:0:0:
180,156,8259,1,0,3:2:0:0:
344,152,8453,6,0,P|444:132|492:76,2,160,0|0|0,3:2|3:2|3:2,0:0:0:0:
224,140,9582,2,0,L|112:128,1,80,0|6,3:2|1:2,0:0:0:0:
392,144,10105,6,0,P|424:216|352:276,1,160,6|2,1:2|1:2,0:0:0:0:
216,272,10905,2,0,P|156:216|204:144,1,160,2|2,1:2|1:2,0:0:0:0:
264,212,11505,1,2,0:0:0:0:
360,236,11705,6,0,P|468:216|500:160,2,160,2|2|2,1:2|1:2|1:2,0:0:0:0:
200,240,12905,1,2,1:2:0:0:
124,212,13105,1,2,0:0:0:0:
216,188,13305,5,2,1:2:0:0:
376,200,13705,2,0,P|388:112|204:52,1,320,2|2,1:2|1:2,0:0:0:0:
364,252,14905,6,0,P|448:168|360:76,1,240,2|2,1:2|0:0,0:0:0:0:
312,52,15705,2,0,P|200:64|144:168,1,240,2|2,1:2|0:0,0:0:0:0:
320,164,16505,6,0,P|404:224|312:284,1,240,2|2,1:2|0:0,0:0:0:0:
240,288,17305,1,2,1:2:0:0:
400,292,17705,2,0,L|400:200,1,80,2|2,1:2|0:0,0:0:0:0:
304,228,18105,6,0,P|244:172|284:112,1,160,2|2,1:2|1:2,0:0:0:0:
360,120,18705,1,2,0:0:0:0:
440,152,18905,2,0,P|456:236|376:272,1,160,2|2,1:2|1:2,0:0:0:0:
324,276,19505,1,2,0:0:0:0:
148,56,19705,6,0,P|80:136|184:196,1,240,2|2,1:2|0:0,0:0:0:0:
248,164,20505,1,2,1:2:0:0:
408,164,20905,1,0,1:2:0:0:
328,160,21105,1,2,0:0:0:0:
232,144,21305,6,0,P|192:232|240:280,1,160,2|2,1:2|1:2,0:0:0:0:
304,272,21905,1,2,0:0:0:0:
128,276,22105,1,4,1:2:0:0:
48,272,22305,2,0,L|44:140,1,120,2|2,3:2|3:2,0:0:0:0:
308,168,22905,6,0,P|348:100|300:48,1,160,4|2,1:2|1:2,0:0:0:0:
140,44,23705,2,0,P|56:68|16:136,1,160,2|2,1:2|1:2,0:0:0:0:
100,124,24305,1,2,0:0:0:0:
196,128,24505,6,0,P|300:156|344:208,2,160,2|2|2,1:2|1:2|1:2,0:0:0:0:
356,140,25705,1,2,1:2:0:0:
428,108,25905,1,2,0:0:0:0:
332,104,26105,5,2,1:2:0:0:
176,72,26505,2,0,P|180:244|320:284,1,320,2|2,1:2|1:2,0:0:0:0:
140,296,27705,6,0,P|68:236|144:132,1,240,2|2,1:2|0:0,0:0:0:0:
216,132,28505,2,0,P|320:140|372:272,1,240,2|2,1:2|0:0,0:0:0:0:
200,196,29305,6,0,P|124:124|224:40,1,240,2|2,1:2|0:0,0:0:0:0:
276,36,30105,1,2,1:2:0:0:
116,52,30505,1,2,1:2:0:0:
40,76,30705,1,2,0:0:0:0:
216,96,30905,6,0,P|272:152|220:216,1,160,2|0,1:2|1:2,0:0:0:0:
156,200,31505,1,2,0:0:0:0:
76,196,31705,2,0,P|40:264|88:336,1,160,2|0,1:2|1:2,0:0:0:0:
268,328,32505,6,0,P|312:284|244:232,1,160,2|2,1:2|1:2,0:0:0:0:
176,296,33105,2,0,P|112:224|152:184,1,160,2|2,0:0|0:0,0:0:0:0:
220,176,33705,1,2,1:2:0:0:
300,176,33905,1,2,0:0:0:0:
124,180,34105,5,6,1:2:0:0:
124,180,34305,2,0,L|304:160,1,160,0|0,3:2|3:2,0:0:0:0:
200,92,34905,2,0,L|58:88,2,120,2|0|10,3:2|3:2|2:3,0:0:0:0:
384,44,35705,6,0,P|436:104|376:148,1,160,6|2,1:2|3:2,0:0:0:0:
244,148,36405,1,6,1:2:0:0:
124,148,36705,1,10,0:3:0:0:
56,104,36905,1,2,1:2:0:0:
128,68,37105,1,6,0:3:0:0:
304,56,37305,6,0,P|368:112|312:160,1,160,6|2,1:2|1:2,0:0:0:0:
188,160,38005,1,6,1:2:0:0:
68,168,38305,1,2,1:2:0:0:
144,196,38505,1,2,1:2:0:0:
220,224,38705,1,2,3:2:0:0:
396,148,38905,6,0,P|444:208|388:260,1,160,6|2,1:2|3:2,0:0:0:0:
252,248,39605,1,6,1:2:0:0:
132,248,39905,1,6,0:3:0:0:
204,212,40105,1,6,0:3:0:0:
272,172,40305,1,6,0:3:0:0:
448,164,40505,6,0,P|472:220|400:288,1,160,4|2,1:2|3:2,0:0:0:0:
184,272,41205,1,2,3:2:0:0:
116,232,41405,1,2,3:2:0:0:
44,196,41605,1,2,3:2:0:0:
164,188,41905,1,6,2:3:0:0:
340,260,42105,6,0,P|416:228|428:136,1,160,6|2,1:2|3:2,0:0:0:0:
292,148,42805,1,6,1:2:0:0:
172,136,43105,1,6,0:3:0:0:
92,168,43305,1,2,1:2:0:0:
164,200,43505,1,2,3:2:0:0:
340,200,43705,6,0,P|416:156|372:80,1,160,14|2,0:3|1:2,0:0:0:0:
260,72,44405,1,6,1:2:0:0:
380,64,44705,1,2,1:2:0:0:
452,100,44905,1,2,1:2:0:0:
380,132,45105,1,2,3:2:0:0:
204,200,45305,6,0,L|200:36,1,160,6|2,1:2|1:2,0:0:0:0:
360,56,46105,2,0,P|404:136|356:180,1,160,2|2,1:2|1:2,0:0:0:0:
172,196,46905,6,0,P|132:240|217:281,1,160,2|2,1:2|1:2,0:0:0:0:
352,284,47705,2,0,P|420:280|476:188,1,160,2|0,1:2|1:2,0:0:0:0:
170,195,48505,5,6,1:2:0:0:
52,188,48805,1,2,3:2:0:0:
172,168,49105,1,2,3:2:0:0:
288,144,49405,1,2,3:2:0:0:
172,116,49705,1,2,3:2:0:0:
92,100,49905,1,10,2:3:0:0:
268,104,50105,5,2,3:2:0:0:
344,76,50305,1,0,3:2:0:0:
268,44,50505,1,2,3:2:0:0:
116,56,50905,2,0,L|28:88,2,80,2|2|2,1:2|1:2|1:2,0:0:0:0:
300,196,51505,6,0,P|344:140|289:83,1,160,6|2,1:2|3:2,0:0:0:0:
204,84,52105,1,2,1:2:0:0:
380,84,52505,2,0,P|428:148|380:192,1,160,2|2,3:2|1:2,0:0:0:0:
284,176,53105,6,0,P|208:192|172:288,1,160,2|2,3:2|3:2,0:0:0:0:
356,264,53705,2,0,P|412:228|352:160,1,160,2|2,1:2|3:2,0:0:0:0:
284,140,54305,1,2,0:0:0:0:
284,52,54505,1,2,1:2:0:0:
372,44,54705,1,2,3:2:0:0:
188,164,54905,6,0,P|84:232|200:328,1,320,6|0,1:2|3:2,0:0:0:0:
288,332,55905,2,0,L|376:296,1,80,2|2,1:2|1:2,0:0:0:0:
180,92,56305,6,0,P|88:180|216:284,1,320,2|2,3:2|1:2,0:0:0:0:
292,284,57305,1,2,3:2:0:0:
116,284,57705,1,0,1:2:0:0:
36,244,57905,1,0,3:2:0:0:
220,244,58105,6,0,P|284:200|220:144,1,160,6|2,1:2|3:2,0:0:0:0:
104,152,58805,1,6,1:2:0:0:
236,152,59105,1,8,2:3:0:0:
316,112,59305,1,2,0:0:0:0:
396,72,59505,1,6,2:3:0:0:
212,76,59705,6,0,P|148:152|192:220,1,160,6|2,1:2|3:2,0:0:0:0:
308,208,60405,1,6,1:2:0:0:
176,208,60705,1,0,1:2:0:0:
100,160,60905,1,2,1:2:0:0:
176,128,61105,1,2,3:2:0:0:
360,132,61305,6,0,P|428:96|384:28,1,160,6|2,1:2|1:2,0:0:0:0:
304,48,61905,2,0,P|220:60|164:140,1,160,2|2,1:2|1:2,0:0:0:0:
260,128,62505,1,2,1:2:0:0:
348,148,62705,1,2,3:2:0:0:
164,164,62905,6,0,P|112:204|172:256,1,160,2|2,1:2|1:2,0:0:0:0:
252,256,63505,1,2,3:2:0:0:
165,257,63705,1,2,1:2:0:0:
340,252,64105,1,2,1:2:0:0:
416,208,64305,1,2,3:2:0:0:
232,200,64505,6,0,P|160:224|116:316,1,160,6|2,1:2|1:2,0:0:0:0:
296,332,65305,2,0,P|336:268|272:220,1,160,2|2,3:2|1:2,0:0:0:0:
188,220,65905,6,0,P|84:196|40:132,1,160,2|2,3:2|3:2,0:0:0:0:
236,204,66505,2,0,P|272:180|216:96,1,160,2|2,1:2|3:2,0:0:0:0:
140,100,67105,1,2,0:0:0:0:
140,188,67305,1,2,1:2:0:0:
228,200,67505,1,2,3:2:0:0:
412,96,67705,6,0,P|408:208|224:264,1,320,6|0,1:2|3:2,0:0:0:0:
144,244,68705,2,0,L|52:212,1,80,2|2,1:2|1:2,0:0:0:0:
252,216,69105,6,0,P|348:168|236:48,1,320,2|2,3:2|1:2,0:0:0:0:
156,48,70105,1,2,3:2:0:0:
332,56,70505,1,0,1:2:0:0:
416,84,70705,1,0,3:2:0:0:
232,92,70905,6,0,P|176:128|248:192,1,160,6|2,1:2|3:2,0:0:0:0:
360,196,71605,1,6,1:2:0:0:
228,192,71905,1,10,2:3:0:0:
152,236,72105,1,6,0:3:0:0:
232,272,72305,1,2,3:2:0:0:
416,268,72505,6,0,P|456:200|412:140,1,160,6|2,1:2|3:2,0:0:0:0:
268,140,73205,1,6,1:2:0:0:
400,132,73505,1,2,1:2:0:0:
480,96,73705,1,2,1:2:0:0:
400,64,73905,1,2,3:2:0:0:
216,60,74105,5,6,1:2:0:0:
128,108,74305,2,0,P|128:184|196:240,1,160,2|2,3:2|1:2,0:0:0:0:
276,264,74905,1,2,3:2:0:0:
360,244,75105,1,2,1:2:0:0:
360,156,75305,1,2,1:2:0:0:
272,140,75505,1,2,3:2:0:0:
176,164,75705,6,0,P|116:136|208:36,1,240,2|2,1:2|3:2,0:0:0:0:
276,36,76505,1,2,1:2:0:0:
364,52,76705,1,10,2:3:0:0:
364,96,76905,1,10,2:3:0:0:
276,112,77105,1,6,2:3:0:0:
92,120,77305,6,0,P|48:200|96:284,1,160,6|0,1:2|1:2,0:0:0:0:
244,272,78105,2,0,L|80:296,1,160,2|0,1:2|1:2,0:0:0:0:
276,292,78905,6,0,P|364:272|380:180,1,160,2|2,1:2|1:2,0:0:0:0:
212,208,79705,2,0,P|112:196|88:128,1,160,0|2,1:2|1:2,0:0:0:0:
176,144,80305,1,2,3:2:0:0:
360,92,80505,6,0,P|408:168|348:212,1,160,2|0,1:2|1:2,0:0:0:0:
280,212,81105,1,2,3:2:0:0:
192,220,81305,2,0,P|140:264|216:328,1,160,2|0,1:2|1:2,0:0:0:0:
372,324,82105,6,0,L|440:272,1,80,2|6,3:2|1:2,0:0:0:0:
252,260,82505,1,6,1:2:0:0:
76,224,82905,1,2,3:2:0:0:
36,144,83105,1,6,1:2:0:0:
84,68,83305,1,2,3:2:0:0:
172,52,83505,1,2,0:0:0:0:
356,60,83705,5,6,1:2:0:0:
444,68,83905,2,0,L|440:192,1,120,0|0,3:2|3:2,0:0:0:0:
308,188,84505,2,0,L|172:212,1,120,0|0,3:2|3:2,0:0:0:0:
312,256,85093,1,0,3:2:0:0:
128,256,85289,6,0,P|100:204|144:160,1,120,0|0,1:2|3:2,0:0:0:0:
180,156,85697,1,0,1:2:0:0:
268,156,85901,2,0,L|392:104,1,120,0|0,1:2|3:2,0:0:0:0:
336,108,86309,1,0,1:2:0:0:
152,112,86513,5,6,1:2:0:0:
