osu file format v14

[General]
AudioFilename: defreeyay.mp3
AudioLeadIn: 0
PreviewTime: 50540
Countdown: 0
SampleSet: Soft
StackLeniency: 0.2
Mode: 0
LetterboxInBreaks: 0
WidescreenStoryboard: 1

[Editor]
DistanceSpacing: 0.7
BeatDivisor: 4
GridSize: 32
TimelineZoom: 4.599998

[Metadata]
Title:Mixed Nuts (TV Size)
TitleUnicode:ミックスナッツ (TV Size)
Artist:Official HIGE DANdism
ArtistUnicode:Official髭男dism
Creator:Kyouren
Version:CODE_NAME:THORN_PRINCESS
Source:SPY×FAMILY
Tags:スパイファミリー higedan 楢崎誠 小笹大輔 藤原聡 松浦匡希 satoshi fujihara daisuke ozasa makoto narazaki masaki matsuura ヒゲダン オフィシャルヒゲダンディズム extended play EP opening OP theme song anime japanese pop jpop j-pop jazz rock jrock j-rock Loid Anya Yor Bond Forger Franky Franklin Briar Twilight kittyadventure gokugohan12468 Shiwakaze too sinn pepekcz -_ascended_- -ascended- ascended cycopton wanpachi airincat kaedeharakazuha kaedehara kazuha addy2607 chompy moph neonlights male vocal vocals vocalist collab collaboration spyxfamily spy x family supaifamiri supai famiri ヨル・フォージャー ヨル・ブライア WIT STUDIO CloverWorks
BeatmapID:3565478
BeatmapSetID:1743778

[Difficulty]
HPDrainRate:5
CircleSize:4.5
OverallDifficulty:9
ApproachRate:9.5
SliderMultiplier:1.7
SliderTickRate:1

[Events]
//Background and Video events
Video,-300,"smallnut.mp4"
0,0,"97790192_p0.jpg",0,0
//Break Periods
//Storyboard Layer 0 (Background)
//Storyboard Layer 1 (Fail)
//Storyboard Layer 2 (Pass)
//Storyboard Layer 3 (Foreground)
//Storyboard Layer 4 (Overlay)
//Storyboard Sound Samples

[TimingPoints]
240,398.671096345515,4,2,1,50,1,0
240,-71.4285714285714,4,2,1,50,0,0
372,-71.4285714285714,4,2,1,5,0,0
439,-71.4285714285714,4,2,1,50,0,0
572,-71.4285714285714,4,2,1,5,0,0
639,-71.4285714285714,4,2,1,50,0,0
771,-71.4285714285714,4,2,1,5,0,0
838,-71.4285714285714,4,2,1,50,0,0
970,-71.4285714285714,4,2,1,5,0,0
1037,-71.4285714285714,4,2,1,50,0,0
1170,-71.4285714285714,4,2,1,5,0,0
1237,-71.4285714285714,4,2,1,50,0,0
1369,-71.4285714285714,4,2,1,5,0,0
1436,-71.4285714285714,4,2,1,50,0,0
1568,-71.4285714285714,4,2,1,5,0,0
1635,-71.4285714285714,4,2,1,50,0,0
1768,-71.4285714285714,4,2,1,5,0,0
1835,-71.4285714285714,4,2,1,50,0,0
1967,-71.4285714285714,4,2,1,5,0,0
2034,-71.4285714285714,4,2,1,50,0,0
2166,-71.4285714285714,4,2,1,5,0,0
2233,-71.4285714285714,4,2,1,50,0,0
2366,-71.4285714285714,4,2,1,5,0,0
2433,-71.4285714285714,4,2,1,50,0,0
2565,-71.4285714285714,4,2,1,5,0,0
2632,-71.4285714285714,4,2,1,50,0,0
2764,-71.4285714285714,4,2,1,5,0,0
2831,-71.4285714285714,4,2,1,50,0,0
2964,-71.4285714285714,4,2,1,5,0,0
3031,-71.4285714285714,4,2,1,50,0,0
3163,-71.4285714285714,4,2,1,5,0,0
3230,-71.4285714285714,4,2,1,50,0,0
3362,-71.4285714285714,4,2,1,5,0,0
3429,398.009950248756,4,2,1,50,1,0
3429,-71.4285714285714,4,2,1,50,0,0
5021,404.858299595142,4,2,1,50,1,0
5425,-83.3333333333333,4,2,1,50,0,0
6640,387.096774193548,4,2,1,65,1,0
6640,-50,4,2,1,65,0,0
6930,-66.6666666666667,4,2,1,65,0,0
8188,408.163265306122,4,2,1,80,1,0
8188,-90.4977375565611,4,2,1,80,0,0
9004,418.118466898955,4,2,1,80,1,0
9004,-66.6666666666667,4,2,1,80,0,0
9526,-74.0740740740741,4,2,1,80,0,0
9840,400,4,2,1,60,1,0
9840,-50,4,2,1,60,0,0
10040,-100,4,2,1,60,0,0
20640,-50,4,2,1,60,0,0
20790,-50,4,2,1,5,0,0
20840,-40,4,2,1,60,0,0
20990,-40,4,2,1,5,0,0
21040,-66.6666666666667,4,2,1,60,0,0
21840,-50,4,2,1,60,0,0
22640,-50,4,2,1,60,0,0
22840,-100,4,2,1,60,0,0
33840,-50,4,2,1,60,0,0
35440,-100,4,2,1,70,0,0
35840,-66.6666666666667,4,2,1,70,0,0
43440,-66.6666666666667,4,2,1,70,0,0
45040,-100,4,2,1,70,0,0
48240,-50,4,2,1,70,0,0
48540,-66.6666666666667,4,2,1,70,0,0
50640,-100,4,2,1,70,0,0
51240,-66.6666666666667,4,2,1,80,0,1
51640,-50,4,2,1,80,0,0
52040,-50,4,2,1,80,0,0
52240,-66.6666666666667,4,2,1,80,0,0
52840,-50,4,2,1,80,0,0
54640,-66.6666666666667,4,2,1,80,0,0
55240,-50,4,2,1,80,0,0
57840,-86.9565217391304,4,2,1,80,0,0
58240,-80,4,2,1,80,0,0
58340,-119.047619047619,4,2,1,80,0,0
58540,-66.6666666666667,4,2,1,80,0,1
58840,-50,4,2,1,80,0,0
59240,-200,4,2,1,80,0,0
59440,-66.6666666666667,4,2,1,80,0,0
59940,-100,4,2,1,80,0,0
60140,-66.6666666666667,4,2,1,80,0,1
60440,-44.4444444444445,4,2,1,80,0,0
61040,-50,4,2,1,80,0,0
64240,-50,4,2,1,80,0,1
64640,-50,4,2,1,80,0,0
67440,-57.1428571428571,4,2,1,80,0,0
67740,-50,4,2,1,80,0,0
69640,-100,4,2,1,80,0,0
69840,-60.6060606060606,4,2,1,80,0,0
70040,-66.6666666666667,4,2,1,80,0,0
71340,-50,4,2,1,80,0,0
71640,-66.6666666666667,4,2,1,80,0,0
72040,-51.2820512820513,4,2,1,80,0,0
72240,-66.6666666666667,4,2,1,80,0,0
72940,-50,4,2,1,80,0,0
73240,-66.6666666666667,4,2,1,80,0,0
73840,-64.5161290322581,4,2,1,80,0,0
74140,-66.6666666666667,4,2,1,80,0,0
76340,-50,4,2,1,80,0,0
76540,-66.6666666666667,4,2,1,80,0,0
77040,-66.6666666666667,4,2,1,75,0,1
77440,-50,4,2,1,75,0,1
77840,-66.6666666666667,4,2,1,75,0,1
78240,-50,4,2,1,75,0,1
81840,-66.6666666666667,4,2,1,75,0,0
84240,392.156862745098,4,2,1,70,1,0
84240,-66.6666666666667,4,2,1,70,0,0
85024,408.163265306122,4,2,1,70,1,0
85024,-57.1428571428571,4,2,1,70,0,0
85432,-86.9565217391304,4,2,1,70,0,0
85636,-57.1428571428571,4,2,1,70,0,0
86044,-86.9565217391304,4,2,1,70,0,0
86248,-50,4,2,1,75,0,1
86860,-50,4,2,1,5,0,0

[Colours]
Combo1 : 140,100,120
Combo2 : 225,215,190
Combo3 : 235,170,165

[HitObjects]
0,0,240,6,0,P|38:8|66:35,1,79.6875,6|0,1:2|0:0,0:0:0:0:
145,20,439,2,0,P|166:53|166:92,1,79.6875,2|0,0:0|0:0,0:0:0:0:
235,135,638,2,0,P|226:173|199:201,1,79.6875,2|0,0:0|0:0,0:0:0:0:
230,280,838,2,0,P|196:301|157:301,1,79.6875,2|0,0:0|0:0,0:0:0:0:
120,375,1037,2,0,P|81:365|53:338,1,79.6875,2|0,0:0|0:0,0:0:0:0:
91,264,1236,6,0,P|129:273|157:300,1,79.6875,2|0,0:0|0:0,0:0:0:0:
230,280,1436,2,0,P|269:278|302:256,1,79.6875,2|0,0:0|0:0,0:0:0:0:
385,280,1635,2,0,P|383:240|393:201,1,79.6875,2|0,0:0|0:0,0:0:0:0:
315,175,1834,2,0,P|316:135|306:96,1,79.6875,2|0,0:0|0:0,0:0:0:0:
265,20,2034,6,0,P|231:41|192:48,1,79.6875,2|0,0:0|0:0,0:0:0:0:
120,90,2233,2,0,P|81:82|47:61,1,79.6875,2|0,0:0|0:0,0:0:0:0:
15,150,2432,2,0,P|53:157|87:178,1,79.6875,2|0,0:0|0:0,0:0:0:0:
158,212,2632,2,0,P|196:204|230:183,1,79.6875,2|0,0:0|0:0,0:0:0:0:
315,175,2831,6,0,P|302:212|300:252,1,79.6875,2|0,0:0|0:0,0:0:0:0:
380,270,3030,2,0,P|393:233|395:193,1,79.6875,2|0,0:0|0:0,0:0:0:0:
307,97,3230,2,0,P|305:135|315:174,1,79.6875,2|0,0:0|0:0,0:0:0:0:
395,193,3429,5,2,0:0:0:0:
256,192,3528,12,2,4822,0:0:0:0:
255,25,5021,5,2,0:0:0:0:
255,25,5425,6,2,B|276:35|293:40|293:40|266:256|266:256|200:49|200:49|215:42|228:28,1,510,2|2,0:1|0:0,0:1:0:0:
455,300,6640,6,0,L|439:216,1,85,6|0,1:2|0:0,0:0:0:0:
365,270,6833,1,8,0:0:0:0:
495,150,6930,6,0,L|435:126,1,63.7500024318696,0|0,0:0|1:0,0:0:0:0:
365,185,7123,1,8,0:0:0:0:
360,90,7220,6,0,L|300:115,1,63.7500024318696,0|0,0:0|1:0,0:0:0:0:
230,165,7414,2,0,L|206:225,1,63.7500024318696,8|0,0:0|0:0,0:0:0:0:
130,270,7607,5,2,1:2:0:0:
50,235,7704,1,10,0:0:0:0:
50,150,7801,1,2,0:0:0:0:
125,110,7898,1,2,1:2:0:0:
130,100,7994,2,0,L|122:36,1,63.7500024318696,10|0,0:0|0:0,0:0:0:0:
210,45,8188,6,0,L|213:76,2,31.1949994906822,10|0|0,0:0|3:0|3:0,0:0:0:0:
301,114,8392,2,0,L|297:82,1,31.8750012159348,0|0,3:0|3:0,0:0:0:0:
230,165,8528,1,0,3:0:0:0:
235,159,8596,2,0,L|238:190,2,31.3083345395947,10|0|0,0:0|3:0|3:0,0:0:0:0:
330,235,8800,2,0,L|326:203,2,31.3083345395947,0|0|0,3:0|3:0|3:0,0:0:0:0:
300,345,9004,5,10,0:0:0:0:
240,295,9108,2,0,B|171:284|186:314|114:304,1,127.500004863739,10|10,0:3|0:0,0:0:0:0:
122,37,9422,5,10,0:0:0:0:
50,85,9526,2,0,P|118:70|178:106,1,143.437500547171,6|0,1:2|0:0,0:0:0:0:
297,100,9840,6,0,P|253:145|247:207,1,127.5,6|0,1:2|0:0,0:0:0:0:
252,211,10040,6,0,L|240:295,2,85,2|2|2,3:2|0:2|3:2,0:0:0:0:
380,320,10640,2,0,L|392:236,2,85,2|2|2,0:2|3:2|0:2,0:0:0:0:
300,355,11240,1,2,3:2:0:0:
470,295,11440,5,2,0:2:0:0:
320,140,11640,1,2,3:2:0:0:
318,152,11740,1,2,3:2:0:0:
317,163,11840,2,0,L|305:247,1,85,2|0,0:2|3:0,0:0:0:0:
200,70,12240,1,2,0:2:0:0:
130,280,12440,5,2,3:2:0:0:
125,285,12540,2,0,L|82:291,1,42.5,2|2,3:2|0:2,0:0:0:0:
20,240,12740,1,2,3:2:0:0:
15,235,12840,2,0,L|21:192,1,42.5,2|2,3:2|3:2,0:0:0:0:
73,129,13040,6,0,L|158:139,1,85,2|2,0:2|3:2,0:0:0:0:
200,70,13340,1,2,3:2:0:0:
195,65,13440,2,0,L|110:55,1,85,2|0,0:2|3:0,0:0:0:0:
403,151,13840,5,0,0:0:0:0:
333,7,14040,1,2,3:2:0:0:
331,19,14140,1,2,3:2:0:0:
329,31,14240,2,0,L|322:72,1,42.5,2|0,0:2|0:0,0:0:0:0:
403,151,14440,2,0,L|409:109,1,42.5,0|0,3:0|0:0,0:0:0:0:
325,190,14640,6,0,B|257:193|271:220|203:224,1,127.5,2|0,0:2|0:0,0:0:0:0:
195,220,15040,1,0,0:0:0:0:
315,270,15240,1,2,3:2:0:0:
314,276,15340,1,2,3:2:0:0:
313,283,15440,2,0,L|305:324,1,42.5,2|0,0:2|0:0,0:0:0:0:
235,365,15640,5,2,3:2:0:0:
325,190,15840,1,2,0:0:0:0:
370,200,15940,1,2,3:2:0:0:
395,240,16040,2,0,L|402:281,1,42.5,2|0,3:2|0:0,0:0:0:0:
475,324,16240,5,2,0:2:0:0:
510,185,16440,1,2,3:2:0:0:
498,182,16540,1,2,3:2:0:0:
488,178,16640,1,0,0:0:0:0:
510,15,16840,6,0,L|468:24,1,42.5,2|0,3:2|0:0,0:0:0:0:
415,85,17040,1,2,0:2:0:0:
265,15,17240,6,0,L|256:56,1,42.5,2|0,3:2|0:0,0:0:0:0:
300,130,17440,2,0,L|216:147,1,85,2|2,0:2|3:2,0:0:0:0:
182,32,17840,6,0,L|266:15,2,85,2|0|2,0:0|3:0|0:0,0:0:0:0:
340,55,18440,1,2,3:2:0:0:
100,15,18640,2,0,P|82:53|87:94,1,85,2|2,0:0|3:2,0:0:0:0:
135,160,18940,1,2,3:2:0:0:
134,166,19040,1,2,0:0:0:0:
340,55,19240,2,0,L|331:97,1,42.5,2|2,3:2|3:2,0:0:0:0:
380,165,19440,6,0,B|418:176|418:176|457:151,1,85,2|2,0:0|3:2,0:0:0:0:
483,77,19740,1,2,3:2:0:0:
490,80,19840,1,2,0:0:0:0:
320,230,20040,6,0,L|329:272,1,42.5,2|0,3:2|0:0,0:0:0:0:
245,170,20240,2,0,L|227:253,1,85,2|0,0:0|3:0,0:0:0:0:
227,253,20640,6,2,B|215:254|215:254|207:264|207:264|198:262|198:262|186:272|186:272|173:268|173:268|163:275|163:275|156:276|156:276|148:285|148:285|136:283|136:283|121:295,1,127.5,2|2,0:1|0:0,0:1:0:0:
265,330,20840,6,2,B|253:331|253:331|243:341|243:341|235:339|235:339|220:349|220:349|211:345|211:345|200:352|200:352|193:352|193:352|185:361|185:361|173:359|173:359|170:366|170:366|159:366|159:366|154:375|154:375|142:374|142:374|132:383,1,159.375,2|2,3:2|0:0,0:1:0:0:
120,296,21040,6,0,L|114:265,3,31.8750012159348,10|2|2|2,0:0|3:0|3:0|3:0,0:0:0:0:
30,270,21240,2,0,L|36:239,3,31.8750012159348,2|2|2|2,3:2|3:0|3:0|3:0,0:0:0:0:
100,180,21440,2,0,L|94:149,3,31.8750012159348,2|2|2|2,3:0|3:0|3:0|3:0,0:0:0:0:
10,155,21640,2,0,L|16:124,3,31.8750012159348,2|2|2|0,3:2|3:0|3:0|0:0,0:0:0:0:
0,40,21840,6,0,B|61:48|61:48|61:52|61:52|122:60,1,127.5,4|0,1:2|0:0,0:0:0:0:
125,65,22040,1,10,0:0:0:0:
195,20,22140,1,10,0:0:0:0:
275,40,22240,1,10,0:0:0:0:
290,120,22340,1,10,0:0:0:0:
225,170,22440,1,10,0:0:0:0:
245,250,22540,1,10,0:0:0:0:
205,320,22640,6,0,P|259:290|321:301,1,127.5,6|0,1:2|0:0,0:0:0:0:
325,310,22840,6,0,L|409:299,2,85,2|2|2,3:2|0:0|3:2,0:0:0:0:
374,109,23440,2,0,L|290:120,2,85,2|2|2,0:0|3:2|0:0,0:0:0:0:
225,170,24040,1,2,3:2:0:0:
432,48,24240,6,0,P|453:84|455:126,1,85,2|2,0:0|3:2,0:0:0:0:
495,195,24540,1,2,3:2:0:0:
500,200,24640,2,0,P|479:236|443:259,1,85,2|0,0:0|3:0,0:0:0:0:
225,170,25040,6,0,P|261:191|283:226,1,85,2|2,0:0|3:2,0:0:0:0:
265,315,25340,1,2,3:2:0:0:
270,320,25440,2,0,P|306:298|348:297,1,85,2|2,0:0|3:2,0:0:0:0:
304,148,25840,6,0,P|267:169|225:170,1,85,2|2,0:0|3:2,0:0:0:0:
150,140,26140,1,2,3:2:0:0:
147,133,26240,1,2,0:0:0:0:
330,30,26440,2,0,L|336:71,1,42.5,0|0,3:0|3:0,0:0:0:0:
304,148,26640,6,0,B|376:150|354:179|425:180,1,127.5
495,220,27040,2,0,B|513:182|513:182|499:141,1,85,2|2,0:0|3:2,0:0:0:0:
315,230,27440,6,0,L|328:313,1,85,2|0,0:0|3:0,0:0:0:0:
150,140,27840,2,0,L|136:223,1,85,0|2,0:0|3:2,0:0:0:0:
310,20,28240,5,2,0:0:0:0:
320,25,28340,1,2,3:2:0:0:
330,30,28440,2,0,L|336:71,1,42.5,2|0,3:2|3:0,0:0:0:0:
450,55,28640,5,0,0:0:0:0:
440,60,28740,1,2,3:2:0:0:
430,65,28840,2,0,L|424:106,1,42.5,2|2,3:2|3:2,0:0:0:0:
430,190,29040,6,0,L|417:274,1,85,2|2,0:0|3:2,0:0:0:0:
350,315,29340,1,2,3:2:0:0:
352,328,29440,1,2,0:2:0:0:
240,215,29640,2,0,L|246:256,1,42.5,2|0,3:2|0:0,0:0:0:0:
195,320,29840,5,2,0:0:0:0:
60,195,30040,1,2,3:2:0:0:
57,213,30140,1,2,3:2:0:0:
55,230,30240,2,0,L|49:271,1,42.5,2|0,0:0|0:0,0:0:0:0:
240,215,30440,2,0,L|233:172,1,42.5,2|2,3:2|3:2,0:0:0:0:
210,80,30640,6,0,B|309:86|272:126|368:131,1,170,2|0,0:0|0:0,0:0:0:0:
480,35,31240,1,2,3:2:0:0:
435,25,31340,1,2,3:2:0:0:
395,50,31440,6,0,L|352:43,1,42.5,2|0,0:0|0:0,0:0:0:0:
192,179,31640,2,0,L|234:172,1,42.5,0|0,3:0|0:0,0:0:0:0:
369,131,31840,2,0,L|326:124,1,42.5
220,260,32040,2,0,L|262:253,1,42.5,2|2,3:2|3:2,0:0:0:0:
345,235,32240,6,0,L|337:319,1,85,2|2,0:0|3:2,0:0:0:0:
400,375,32540,1,2,3:2:0:0:
405,380,32640,1,2,0:0:0:0:
220,260,32840,6,0,L|223:302,1,42.5,2|0,3:2|0:0,0:0:0:0:
170,360,33040,1,0,0:0:0:0:
146,354,33140,1,0,3:2:0:0:
122,348,33240,1,2,3:2:0:0:
98,342,33340,1,0,3:2:0:0:
65,355,33440,5,2,0:0:0:0:
50,200,33640,1,2,3:2:0:0:
35,45,33840,6,0,B|105:46|84:74|156:75,1,127.5,6|0,1:2|0:0,0:0:0:0:
165,70,34040,1,8,0:0:0:0:
245,85,34140,2,0,B|261:126|261:126|243:163,1,85,8|0,0:0|0:0,0:0:0:0:
305,25,34340,1,8,0:0:0:0:
375,65,34440,2,0,P|416:58|459:56,1,85,12|0,0:0|0:0,0:0:0:0:
340,140,34640,5,10,0:0:0:0:
410,180,34740,2,0,L|401:264,1,85,8|10,0:0|0:0,0:0:0:0:
243,163,34940,1,8,0:0:0:0:
200,310,35040,2,0,L|191:225,1,85,10|8,0:0|0:0,0:0:0:0:
125,170,35240,2,0,B|83:159|83:159|46:177,1,85,10|4,0:3|0:3,0:0:0:0:
156,374,35440,6,0,B|226:369|196:337|273:331,1,127.5,6|8,1:2|0:0,0:0:0:0:
401,264,35840,5,10,0:0:0:0:
355,330,35940,2,0,P|376:353|404:367,1,63.7500024318696,10|10,0:0|0:0,0:0:0:0:
273,331,36140,6,0,B|271:291|304:264|304:264|286:243|286:217,1,127.500004863739,6|0,1:2|0:0,0:0:0:0:
370,130,36440,6,0,L|360:193,1,63.7500024318696,10|8,0:3|0:3,0:0:0:0:
210,250,36640,2,0,L|200:186,1,63.7500024318696,10|8,0:3|0:3,0:0:0:0:
285,75,36840,2,0,L|275:138,1,63.7500024318696,6|4,0:3|0:3,0:0:0:0:
130,230,37040,5,6,1:2:0:0:
0,0,37240,1,8,0:0:0:0:
70,40,37340,2,0,L|80:103,1,63.7500024318696,8|2,0:0|1:2,0:0:0:0:
160,115,37540,1,10,0:0:0:0:
200,187,37640,1,10,0:0:0:0:
130,230,37740,6,0,B|73:202|73:202|22:241,1,127.500004863739,6|0,1:2|0:0,0:0:0:0:
85,300,38040,6,0,L|75:363,1,63.7500024318696,2|0,1:2|0:0,0:0:0:0:
200,270,38240,2,0,L|210:333,1,63.7500024318696,2|0,1:2|0:0,0:0:0:0:
270,235,38440,1,10,0:0:0:0:
327,293,38540,1,10,0:0:0:0:
385,235,38640,5,6,1:2:0:0:
465,245,38740,1,8,0:0:0:0:
500,170,38840,1,8,0:0:0:0:
440,115,38940,1,8,0:0:0:0:
370,155,39040,1,2,1:2:0:0:
440,115,39140,2,0,L|450:52,1,63.7500024318696,8|10,0:0|0:0,0:0:0:0:
300,10,39340,6,0,B|267:62|267:62|293:122,1,127.500004863739,6|0,1:2|0:0,0:0:0:0:
220,165,39640,6,0,L|157:174,1,63.7500024318696,10|8,0:3|0:3,0:0:0:0:
322,225,39840,2,0,L|385:235,1,63.7500024318696,10|8,0:3|0:3,0:0:0:0:
250,315,40040,2,0,L|187:324,1,63.7500024318696,6|4,0:3|0:3,0:0:0:0:
105,350,40240,5,6,1:2:0:0:
25,315,40340,1,8,0:0:0:0:
15,230,40440,1,8,0:0:0:0:
75,165,40540,1,8,0:0:0:0:
157,174,40640,1,10,0:0:0:0:
200,245,40740,2,0,L|137:254,1,63.7500024318696,8|2,0:0|1:2,0:0:0:0:
75,165,40940,5,10,0:0:0:0:
135,90,41040,2,0,L|198:99,1,63.7500024318696,2|0,0:0|1:0,0:0:0:0:
355,60,41240,1,2,0:0:0:0:
290,110,41340,2,0,P|276:81|275:49,2,63.7500024318696,8|2|0,0:0|0:0|0:0,0:0:0:0:
420,10,41640,2,0,P|433:38|434:70,1,63.7500024318696,10|0,0:3|0:3,0:0:0:0:
510,190,41840,5,6,1:2:0:0:
435,160,41940,1,8,0:0:0:0:
365,205,42040,1,8,0:0:0:0:
375,285,42140,1,8,0:0:0:0:
450,320,42240,1,10,0:0:0:0:
375,285,42340,2,0,P|365:315|370:346,1,63.7500024318696,10|10,0:0|0:0,0:0:0:0:
365,205,42540,6,0,B|295:213|321:241|247:250,1,127.500004863739,6|0,1:2|0:0,0:0:0:0:
170,225,42840,6,0,L|173:193,2,31.8750012159348,2|10|8,1:2|0:0|0:0,0:0:0:0:
95,170,43040,2,0,L|88:233,1,63.7500024318696,2|8,1:2|0:0,0:0:0:0:
248,250,43240,2,0,L|254:186,1,63.7500024318696,10|8,0:0|0:0,0:0:0:0:
210,10,43440,6,0,B|178:63|178:63|206:121,1,127.5,10|8,0:3|0:0,0:0:0:0:
275,70,43740,6,0,L|339:76,1,63.7500024318696,8|10,0:0|0:0,0:0:0:0:
400,20,43940,1,10,0:0:0:0:
470,60,44040,1,10,0:0:0:0:
435,135,44140,6,0,B|445:206|415:187|427:260,1,127.500004863739,6|0,1:2|0:0,0:0:0:0:
415,345,44440,6,0,P|445:336|477:334,1,63.7500024318696,2|0,1:2|0:0,0:0:0:0:
285,280,44640,2,0,P|316:282|347:290,1,63.7500024318696,2|0,1:2|0:0,0:0:0:0:
230,345,44840,1,10,0:0:0:0:
147,333,44940,1,10,0:0:0:0:
135,250,45040,1,4,1:2:0:0:
255,15,45240,5,2,3:2:0:0:
265,100,45440,1,2,0:0:0:0:
185,70,45640,1,2,3:2:0:0:
275,185,45840,1,2,0:0:0:0:
115,125,46040,1,2,3:2:0:0:
345,130,46240,6,0,L|387:126,1,42.5,2|0,0:0|0:0,0:0:0:0:
195,155,46440,1,2,3:2:0:0:
355,215,46640,6,0,L|397:219,1,42.5,2|0,0:0|0:0,0:0:0:0:
125,210,46840,1,0,3:0:0:0:
265,100,47040,5,2,0:0:0:0:
345,130,47140,2,0,L|387:126,1,42.5,0|2,0:0|3:2,0:0:0:0:
275,185,47340,5,0,0:0:0:0:
355,215,47440,2,0,L|397:219,1,42.5,2|0,0:0|0:0,0:0:0:0:
345,130,47640,6,0,L|387:126,1,42.5,0|0,3:0|0:0,0:0:0:0:
355,215,47840,2,0,L|397:219,1,42.5
345,130,48040,6,0,L|387:126,1,42.5,2|0,3:2|0:0,0:0:0:0:
450,70,48240,6,0,P|494:113|499:175,1,127.5,6|0,1:2|0:0,0:0:0:0:
495,180,48440,1,0,1:0:0:0:
355,215,48540,2,0,P|411:238|430:297,1,127.500004863739,10|0,0:0|1:0,0:0:0:0:
375,355,48840,2,0,P|343:349|311:347,1,63.7500024318696,10|0,0:0|0:0,0:0:0:0:
175,340,49040,5,0,1:0:0:0:
290,270,49140,2,0,P|258:272|226:277,2,63.7500024318696,10|0|0,0:0|0:0|1:0,0:0:0:0:
355,215,49440,1,10,0:0:0:0:
345,130,49540,1,8,0:0:0:0:
270,85,49640,2,0,P|238:87|206:92,1,63.7500024318696,10|6,0:3|0:3,0:0:0:0:
140,35,49840,5,10,0:0:0:0:
65,80,49940,1,8,0:0:0:0:
85,165,50040,1,8,0:0:0:0:
170,170,50140,1,8,0:0:0:0:
207,92,50240,6,0,P|227:82|209:95,1,63.7500024318696,6|0,1:2|0:0,0:0:0:0:
85,165,50640,6,0,L|92:206,1,42.5,2|0,1:2|0:0,0:0:0:0:
123,327,50840,2,0,L|130:285,1,42.5,2|0,1:2|0:0,0:0:0:0:
170,170,51040,2,0,L|177:211,1,42.5,2|0,1:2|0:0,0:0:0:0:
351,130,51240,6,0,B|244:117|276:185|171:170,1,191.250007295609,6|0,1:2|0:0,0:0:0:0:
325,275,51640,2,0,B|347:237|347:237|320:205,1,85,10|8,0:0|0:0,0:0:0:0:
245,250,51840,1,2,1:2:0:0:
262,333,51940,1,10,0:0:0:0:
340,360,52040,2,0,P|379:345|398:309,1,85,2|0,1:2|1:0,0:0:0:0:
473,357,52240,6,0,P|445:300|442:236,1,127.500004863739,10|0,0:0|1:0,0:0:0:0:
505,185,52540,1,10,0:0:0:0:
495,100,52640,1,2,1:2:0:0:
415,75,52740,1,2,1:2:0:0:
340,110,52840,6,0,P|327:101|343:103,2,42.5,10|10|10,0:0|0:0|0:0,0:0:0:0:
381,187,53040,2,0,P|339:186|302:205,1,85,0|0,1:0|0:0,0:0:0:0:
215,215,53240,2,0,P|218:173|244:140,1,85,10|0,0:0|0:0,0:0:0:0:
302,205,53440,1,2,1:2:0:0:
268,282,53540,1,10,0:0:0:0:
190,295,53640,2,0,P|150:279|109:270,1,85,0|0,1:0|1:0,0:0:0:0:
163,116,53840,6,0,P|202:131|243:140,1,85,10|0,0:0|1:0,0:0:0:0:
367,29,54040,2,0,P|350:68|340:110,1,85,10|8,0:0|0:0,0:0:0:0:
215,215,54240,1,2,1:2:0:0:
302,205,54340,1,10,0:0:0:0:
365,265,54440,1,10,0:0:0:0:
355,350,54540,1,10,0:0:0:0:
350,360,54640,6,0,B|284:365|284:365|283:364|283:364|223:368,2,127.500004863739,2|8|0,1:2|0:0|1:0,0:0:0:0:
190,295,55140,1,8,0:0:0:0:
215,215,55240,2,0,B|191:181|191:181|204:139,1,85,0|0,1:0|1:0,0:0:0:0:
265,10,55440,2,0,L|273:94,1,85,8|0,0:0|0:0,0:0:0:0:
350,125,55640,1,2,1:2:0:0:
407,69,55740,1,10,0:0:0:0:
350,125,55840,2,0,B|373:158|373:158|360:200,1,85,2|8,1:2|0:0,0:0:0:0:
315,265,56040,6,0,B|293:263|293:263|310:274,2,42.5,10|8|8,0:0|0:0|0:0,0:0:0:0:
390,275,56240,2,0,L|380:359,1,85,0|0,1:0|0:0,0:0:0:0:
460,370,56440,1,8,0:0:0:0:
469,285,56540,1,0,0:0:0:0:
478,200,56640,1,0,1:0:0:0:
487,115,56740,1,8,0:0:0:0:
477,35,56840,2,0,P|435:38|407:69,1,85,0|0,1:0|1:0,0:0:0:0:
345,15,57040,6,0,B|252:0|266:48|177:32,1,170,10|8,0:0|0:0,0:0:0:0:
100,10,57340,1,8,0:0:0:0:
25,50,57440,1,8,0:0:0:0:
30,135,57540,1,8,0:0:0:0:
110,170,57640,1,8,0:0:0:0:
185,125,57740,1,8,0:0:0:0:
262,158,57840,6,0,L|266:206,1,48.8750009322167,6|0,1:2|0:0,0:0:0:0:
280,335,58040,2,0,L|275:286,1,48.8750009322167,0|0,1:0|0:0,0:0:0:0:
355,300,58240,5,10,0:0:0:0:
135,255,58340,2,0,L|138:290,1,35.4166666666667,8|8,0:0|0:0,0:0:0:0:
10,240,58540,6,0,B|75:247|75:247|76:249|76:249|136:255,1,127.500004863739,6|0,1:2|0:0,0:0:0:0:
110,170,58840,6,0,L|106:127,2,42.5,8|8|8,0:3|0:3|0:3,0:0:0:0:
185,125,59040,1,10,0:3:0:0:
262,158,59140,1,4,0:3:0:0:
340,125,59240,2,0,L|361:123,1,21.25,6|0,0:3|0:0,0:0:0:0:
433,97,59440,6,0,P|440:127|429:156,1,63.7500024318696,6|0,1:2|0:0,0:0:0:0:
455,230,59640,2,0,P|429:248|398:249,1,63.7500024318696,8|0,0:0|0:0,0:0:0:0:
330,205,59840,5,10,0:0:0:0:
50,360,59940,2,0,L|92:364,1,42.5000016212464,10|8,0:0|0:0,0:0:0:0:
100,370,60140,6,0,B|89:306|63:328|48:255,1,127.500004863739,6|0,1:2|0:0,0:0:0:0:
110,170,60440,6,0,P|63:175|25:149,1,95.6250036478044,0|0,1:0|0:0,0:0:0:0:
44,66,60640,2,0,P|90:60|128:86,1,95.6250036478044,2|0,1:2|0:0,0:0:0:0:
185,145,60840,5,10,0:0:0:0:
265,125,60940,1,10,0:0:0:0:
210,65,61040,6,0,B|290:71|290:71|289:75|289:75|374:81,1,170,6|8,1:2|0:0,0:0:0:0:
425,25,61340,1,0,0:0:0:0:
495,55,61440,2,0,L|504:139,1,85,2|8,1:2|0:0,0:0:0:0:
455,200,61640,2,0,B|375:205|375:205|373:209|373:209|288:215,2,170,2|8|2,1:2|0:0|1:2,0:0:0:0:
510,260,62140,1,2,0:0:0:0:
460,320,62240,2,0,L|375:326,1,85,2|8,1:2|0:0,0:0:0:0:
315,375,62440,1,10,0:0:0:0:
258,322,62540,1,10,0:0:0:0:
195,375,62640,6,0,P|130:323|51:343,1,170,2|10,1:2|0:0,0:0:0:0:
0,285,62940,1,10,0:0:0:0:
45,220,63040,2,0,B|41:179|41:179|42:178|42:178|37:135,1,85,2|8,1:2|0:0,0:0:0:0:
0,65,63240,1,10,0:0:0:0:
70,30,63340,1,10,0:0:0:0:
135,70,63440,6,0,B|130:112|130:112|131:113|131:113|127:154,1,85,2|8,1:2|0:0,0:0:0:0:
200,190,63640,1,0,1:0:0:0:
270,140,63740,1,0,1:0:0:0:
255,55,63840,5,10,0:0:0:0:
325,5,63940,1,8,0:0:0:0:
405,30,64040,1,10,0:0:0:0:
420,110,64140,1,8,0:0:0:0:
495,140,64240,6,0,P|413:147|369:217,1,170,6|10,1:2|0:0,0:0:0:0:
385,295,64540,1,10,0:0:0:0:
315,335,64640,1,2,1:2:0:0:
245,290,64740,1,10,0:0:0:0:
270,211,64840,2,0,B|247:175|247:175|271:138,1,85,2|0,1:2|1:0,0:0:0:0:
255,55,65040,6,0,B|161:43|182:77|87:66,1,170,10|0,0:0|1:0,0:0:0:0:
37,3,65340,1,10,0:0:0:0:
10,80,65440,1,2,1:2:0:0:
65,145,65540,1,2,1:2:0:0:
15,210,65640,1,10,0:0:0:0:
60,275,65740,1,10,0:0:0:0:
5,350,65840,6,0,P|47:352|85:371,1,85,0|0,1:0|0:0,0:0:0:0:
145,225,66040,2,0,P|136:266|144:307,1,85,10|0,0:0|0:0,0:0:0:0:
214,346,66240,1,2,1:2:0:0:
285,225,66340,2,0,P|293:266|285:308,2,85,8|0|0,0:0|1:0|1:0,0:0:0:0:
410,350,66640,6,0,P|367:353|329:371,1,85,10|0,0:0|1:0,0:0:0:0:
285,225,66840,2,0,P|327:220|365:202,1,85,10|8,0:0|0:0,0:0:0:0:
400,130,67040,5,2,1:2:0:0:
360,55,67140,1,10,0:0:0:0:
280,50,67240,1,10,0:0:0:0:
215,105,67340,1,10,0:0:0:0:
214,185,67440,6,0,P|142:195|82:153,1,148.750001418591,2|8,1:2|0:0,0:0:0:0:
33,87,67740,1,8,0:0:0:0:
5,165,67840,1,0,1:0:0:0:
55,230,67940,1,8,0:0:0:0:
133,217,68040,2,0,P|151:254|160:296,1,85,0|0,1:0|1:0,0:0:0:0:
246,263,68240,6,0,P|225:226|214:186,1,85,8|0,0:0|0:0,0:0:0:0:
363,67,68440,2,0,P|344:105|337:147,1,85,2|10,1:2|0:0,0:0:0:0:
260,120,68640,2,0,P|276:80|285:39,1,85,2|10,1:2|0:0,0:0:0:0:
385,210,68840,2,0,P|402:247|411:289,1,85,10|10,0:0|0:0,0:0:0:0:
495,260,69040,6,0,P|477:221|469:180,1,85,0|0,1:0|0:0,0:0:0:0:
510,110,69240,1,8,0:0:0:0:
495,30,69340,1,0,0:0:0:0:
420,10,69440,1,0,1:0:0:0:
363,67,69540,1,8,0:0:0:0:
285,39,69640,6,0,L|280:81,1,42.5,0|0,1:0|1:0,0:0:0:0:
363,67,69840,6,0,L|354:136,1,70.1250006687641,10|0,0:0|0:0,0:0:0:0:
385,210,70040,5,8,0:0:0:0:
305,235,70140,1,8,0:0:0:0:
278,312,70240,1,8,0:0:0:0:
195,340,70340,1,8,0:0:0:0:
120,300,70440,1,8,0:0:0:0:
115,215,70540,1,8,0:0:0:0:
180,155,70640,6,0,L|191:92,1,63.7500024318696,6|0,1:2|0:0,0:0:0:0:
269,18,70840,2,0,L|280:80,1,63.7500024318696,2|0,1:2|0:0,0:0:0:0:
363,67,71040,1,10,0:0:0:0:
450,55,71140,2,0,L|439:117,1,63.7500024318696,10|10,0:0|0:0,0:0:0:0:
480,195,71340,6,0,B|491:198|501:192|502:178|492:169|482:169|473:175|473:175|431:131|366:154,1,170,4|0,1:2|0:0,0:0:0:0:
305,210,71640,5,10,0:3:0:0:
355,275,71740,1,10,0:3:0:0:
320,355,71840,1,2,1:2:0:0:
240,365,71940,1,10,0:0:0:0:
180,305,72040,2,0,L|98:320,1,82.875000316143,2|0,1:2|0:0,0:0:0:0:
30,365,72240,6,0,P|10:340|4:309,1,63.7500024318696,6|0,1:2|0:0,0:0:0:0:
40,230,72440,2,0,P|43:198|60:172,1,63.7500024318696,10|0,0:0|0:0,0:0:0:0:
145,165,72640,2,0,P|169:145|200:139,1,63.7500024318696,10|10,0:0|0:0,0:0:0:0:
235,65,72840,1,10,0:0:0:0:
335,55,72940,6,0,B|316:40|307:18|307:18|325:141,1,170,4|0,1:2|0:0,0:0:0:0:
394,175,73240,6,0,L|457:165,1,63.7500024318696,2|0,1:2|0:0,0:0:0:0:
475,85,73440,2,0,L|411:94,1,63.7500024318696,2|0,1:2|0:0,0:0:0:0:
394,175,73640,1,10,0:0:0:0:
430,250,73740,1,8,0:0:0:0:
510,260,73840,6,0,P|478:315|416:330,1,131.750001005173,0|10,1:0|0:0,0:0:0:0:
350,290,74140,1,2,0:0:0:0:
305,355,74240,1,2,1:2:0:0:
225,365,74340,1,10,0:0:0:0:
170,305,74440,2,0,P|139:314|108:314,1,63.7500024318696,2|0,1:2|0:0,0:0:0:0:
110,235,74640,6,0,P|81:220|59:198,1,63.7500024318696,10|0,0:0|0:0,0:0:0:0:
120,140,74840,2,0,P|110:109|110:78,1,63.7500024318696,2|0,1:2|0:0,0:0:0:0:
185,40,75040,1,2,1:2:0:0:
252,88,75140,1,10,0:0:0:0:
250,170,75240,1,10,0:0:0:0:
325,205,75340,1,10,0:0:0:0:
395,160,75440,6,0,L|389:96,1,63.7500024318696,2|8,1:2|0:0,0:0:0:0:
450,40,75640,2,0,L|481:37,2,31.8750012159348,10|2|10,0:0|0:0|0:0,0:0:0:0:
380,0,75840,1,8,0:0:0:0:
300,15,75940,1,8,0:0:0:0:
252,88,76040,1,10,0:0:0:0:
178,122,76140,1,10,0:0:0:0:
110,78,76240,5,8,0:0:0:0:
185,40,76340,2,0,L|181:18,4,21.25,10|2|2|2|10,0:0|0:0|0:0|0:0|0:3,0:0:0:0:
252,88,76540,1,10,0:3:0:0:
250,170,76640,1,10,0:3:0:0:
325,205,76740,1,10,0:3:0:0:
395,160,76840,2,0,P|426:162|453:178,1,63.7500024318696,6|4,0:3|0:3,0:0:0:0:
512,118,77040,6,0,P|477:206|481:301,1,191.250007295609,6|0,1:2|0:0,0:0:0:0:
420,360,77440,6,0,P|295:342|200:259,1,255,4|0,1:2|0:0,0:0:0:0:
130,310,77840,6,0,P|165:222|161:127,1,191.250007295609,4|0,1:2|0:0,0:0:0:0:
60,20,78240,6,0,P|163:90|286:75,1,255,4|0,1:2|0:0,0:0:0:0:
375,35,78640,6,0,L|367:119,1,85,4|0,1:2|0:0,0:0:0:0:
450,250,78840,2,0,B|484:176|484:176|455:91,2,170,2|6|2,0:0|1:2|0:0,0:0:0:0:
255,190,79440,6,0,P|291:211|307:249,1,85,4|0,1:2|0:0,0:0:0:0:
320,335,79640,1,2,0:0:0:0:
190,245,79840,6,0,P|206:283|242:304,1,85,6|0,1:2|0:0,0:0:0:0:
320,335,80040,5,10,0:0:0:0:
307,250,80140,1,10,0:0:0:0:
243,304,80240,1,6,1:2:0:0:
25,190,80440,5,10,0:0:0:0:
45,110,80540,1,10,0:0:0:0:
105,170,80640,1,6,1:2:0:0:
335,95,80840,5,10,0:0:0:0:
315,15,80940,1,10,0:0:0:0:
255,75,81040,1,6,1:2:0:0:
255,75,81240,5,10,0:0:0:0:
315,15,81340,1,10,0:0:0:0:
395,35,81440,1,6,1:2:0:0:
415,115,81540,1,10,0:0:0:0:
355,175,81640,1,10,0:0:0:0:
275,155,81740,1,10,0:0:0:0:
213,216,81840,6,0,B|202:249|202:249|210:276,1,63.7500024318696,14|0,0:0|0:0,0:0:0:0:
280,330,82040,2,0,L|343:322,1,63.7500024318696,2|0,1:2|0:0,0:0:0:0:
210,277,82240,2,0,B|138:268|152:297|84:289,1,127.500004863739,2|2,1:2|0:0,0:0:0:0:
35,225,82540,1,10,0:0:0:0:
103,147,82640,6,0,L|112:210,1,63.7500024318696,10|0,0:0|0:0,0:0:0:0:
195,70,82840,2,0,L|185:133,1,63.7500024318696,2|0,1:2|0:0,0:0:0:0:
70,50,83040,1,10,0:0:0:0:
140,10,83140,2,0,L|266:31,1,127.500004863739,10|0,0:0|0:0,0:0:0:0:
310,100,83440,6,0,P|341:100|370:87,1,63.7500024318696,6|0,1:2|0:0,0:0:0:0:
410,160,83640,1,10,0:0:0:0:
450,30,83740,2,0,P|448:58|461:92,1,63.7500024318696,0|0,1:0|1:0,0:0:0:0:
340,210,83940,1,10,0:0:0:0:
475,260,84040,2,0,P|447:245|415:242,1,63.7500024318696,0|0,1:0|1:0,0:0:0:0:
265,260,84240,6,0,L|270:323,1,63.7500024318696,10|0,0:0|1:0,0:0:0:0:
348,292,84436,1,0,1:0:0:0:
185,215,84534,2,0,L|180:278,1,63.7500024318696,10|0,0:0|1:0,0:0:0:0:
265,175,84730,1,0,1:0:0:0:
330,65,84828,2,0,L|335:128,1,63.7500024318696,10|0,0:0|0:0,0:0:0:0:
200,20,85024,5,6,1:2:0:0:
199,31,85092,5,0,3:0:0:0:
198,42,85160,5,0,3:0:0:0:
197,53,85228,6,0,L|194:90,2,37.1875003546476,0|0|10,3:0|3:0|0:0,0:0:0:0:
185,215,85432,2,0,L|188:166,1,48.8750009322167,6|0,1:2|3:0,0:0:0:0:
93,27,85636,5,4,1:2:0:0:
90,45,85704,5,0,3:0:0:0:
88,62,85772,5,0,3:0:0:0:
85,80,85840,6,0,L|82:117,2,37.1875003546476,0|0|10,3:0|3:0|0:0,0:0:0:0:
95,255,86044,2,0,L|98:206,1,48.8750009322167,4|0,1:2|3:0,0:0:0:0:
265,175,86248,6,2,B|255:154|250:137|250:137|34:164|34:164|241:230|241:230|248:215|262:202,1,510,6|0,1:2|0:0,0:1:0:0:
