osu file format v14

[General]
AudioFilename: defreeyay.mp3
AudioLeadIn: 0
PreviewTime: 50540
Countdown: 0
SampleSet: Soft
StackLeniency: 0.7
Mode: 0
LetterboxInBreaks: 0
WidescreenStoryboard: 1

[Editor]
Bookmarks: 18440
DistanceSpacing: 1.3
BeatDivisor: 4
GridSize: 32
TimelineZoom: 4.6

[Metadata]
Title:Mixed Nuts (TV Size)
TitleUnicode:ミックスナッツ (TV Size)
Artist:Official HIGE DANdism
ArtistUnicode:Official髭男dism
Creator:Kyouren
Version:CODE_NAME:SHIWAKAZE'S_HARD
Source:SPY×FAMILY
Tags:スパイファミリー higedan 楢崎誠 小笹大輔 藤原聡 松浦匡希 satoshi fujihara daisuke ozasa makoto narazaki masaki matsuura ヒゲダン オフィシャルヒゲダンディズム extended play EP opening OP theme song anime japanese pop jpop j-pop jazz rock jrock j-rock Loid Anya Yor Bond Forger Franky Franklin Briar Twilight kittyadventure gokugohan12468 Shiwakaze too sinn pepekcz -_ascended_- -ascended- ascended cycopton wanpachi airincat kaedeharakazuha kaedehara kazuha addy2607 chompy moph neonlights male vocal vocals vocalist collab collaboration spyxfamily spy x family supaifamiri supai famiri ヨル・フォージャー ヨル・ブライア WIT STUDIO CloverWorks
BeatmapID:3564961
BeatmapSetID:1743778

[Difficulty]
HPDrainRate:4
CircleSize:3.6
OverallDifficulty:6
ApproachRate:7.5
SliderMultiplier:1.55
SliderTickRate:1

[Events]
//Background and Video events
Video,-300,"smallnut.mp4"
0,0,"bg1.jpg",0,0
//Break Periods
//Storyboard Layer 0 (Background)
//Storyboard Layer 1 (Fail)
//Storyboard Layer 2 (Pass)
//Storyboard Layer 3 (Foreground)
//Storyboard Layer 4 (Overlay)
//Storyboard Sound Samples

[TimingPoints]
240,398.671096345515,4,2,1,50,1,0
240,-111.111111111111,4,2,1,50,0,0
3429,398.009950248756,4,2,1,50,1,0
3429,-111.111111111111,4,2,1,50,0,0
5021,404.858299595142,4,2,1,50,1,0
5021,-111.111111111111,4,2,1,50,0,0
6640,387.096774193548,4,2,1,65,1,0
6640,-100,4,2,1,65,0,0
8188,408.163265306122,4,2,1,80,1,0
9004,418.118466898955,4,2,1,80,1,0
9840,400,4,2,1,60,1,0
9840,-100,4,2,1,60,0,0
35440,-100,4,2,1,70,0,0
51240,-90.9090909090909,4,2,1,80,0,1
77040,-95.2380952380952,4,2,1,75,0,0
84240,392.156862745098,4,2,1,70,1,0
84240,-95.2380952380952,4,2,1,70,0,0
85024,408.163265306122,4,2,1,70,1,0
85024,-95.2380952380952,4,2,1,70,0,0
86248,-95.2380952380952,4,2,1,75,0,0

[Colours]
Combo1 : 140,100,120
Combo2 : 225,215,190
Combo3 : 235,170,165

[HitObjects]
60,349,240,6,0,P|97:344|135:339,1,69.749997871399,6|2,1:2|0:0,0:0:0:0:
221,328,638,2,0,P|258:333|296:337,1,69.749997871399,2|2,0:0|0:0,0:0:0:0:
385,368,1037,1,2,0:0:0:0:
385,368,1236,1,2,0:0:0:0:
471,322,1436,1,2,0:0:0:0:
471,322,1635,1,2,0:0:0:0:
411,241,1834,6,0,P|402:207|410:161,1,69.749997871399,2|2,0:0|0:0,0:0:0:0:
341,109,2233,2,0,P|350:75|342:29,1,69.749997871399,2|2,0:0|0:0,0:0:0:0:
261,2,2632,1,2,0:0:0:0:
261,2,2831,1,2,0:0:0:0:
185,50,3030,2,0,P|146:46|100:42,1,69.749997871399,2|2,0:0|0:0,0:0:0:0:
16,14,3429,6,0,P|19:51|21:93,1,69.749997871399,2|2,0:0|0:0,0:0:0:0:
72,162,3827,2,0,P|68:199|66:241,1,69.749997871399,2|2,0:0|0:0,0:0:0:0:
137,302,4225,1,2,0:0:0:0:
137,302,4424,1,2,0:0:0:0:
215,241,4623,1,2,0:0:0:0:
215,241,4822,1,2,0:0:0:0:
170,157,5021,6,0,P|160:121|169:80,1,69.749997871399,2|2,0:0|0:0,0:0:0:0:
233,26,5425,2,2,P|275:24|319:22,1,69.749997871399,2|2,0:1|0:0,0:0:0:0:
374,80,5830,2,0,P|384:116|375:157,1,69.749997871399,2|2,0:0|0:0,0:0:0:0:
322,233,6235,1,2,0:0:0:0:
322,233,6336,1,2,0:0:0:0:
322,233,6438,1,2,0:0:0:0:
240,157,6640,6,0,P|197:148|154:156,1,77.5,6|8,1:2|0:0,0:0:0:0:
68,238,7123,2,0,P|71:284|72:322,1,77.5,8|0,0:0|1:0,0:0:0:0:
76,366,7414,2,0,P|116:374|164:359,1,77.5,8|2,0:0|1:2,0:0:0:0:
198,347,7704,2,0,P|244:338|283:350,1,77.5,10|2,0:0|1:2,0:0:0:0:
312,377,7994,1,10,0:0:0:0:
403,346,8188,6,0,L|440:354,3,38.75,10|0|0|10,0:0|3:0|3:0|3:2,0:0:0:0:
488,337,8596,2,0,L|494:299,4,38.75,10|0|0|10|10,0:0|3:0|3:0|3:2|0:0,0:0:0:0:
501,258,9108,1,10,0:3:0:0:
512,155,9317,1,10,0:0:0:0:
512,155,9422,1,10,0:0:0:0:
512,155,9526,2,0,P|467:149|423:146,1,77.5,6|0,1:2|0:0,0:0:0:0:
383,146,9840,1,6,1:2:0:0:
286,21,10240,6,0,P|245:19|201:18,1,77.5,2|2,0:2|3:2,0:0:0:0:
127,60,10640,2,0,P|117:102|133:145,1,77.5,2|2,0:2|3:2,0:0:0:0:
194,197,11040,1,2,0:2:0:0:
264,144,11240,1,2,3:2:0:0:
344,197,11440,2,0,P|383:191|435:185,1,77.5,2|0,0:2|3:0,0:0:0:0:
506,232,11840,2,0,P|517:270|508:318,1,77.5,2|0,0:2|3:0,0:0:0:0:
434,361,12240,6,0,P|355:377|284:346,1,155,2|2,0:2|0:2,0:0:0:0:
234,275,12840,1,2,3:2:0:0:
234,275,13040,2,0,P|157:247|86:282,1,155,2|2,0:2|0:2,0:0:0:0:
5,325,13640,1,0,3:0:0:0:
5,325,13840,2,0,P|2:286|-1:244,1,77.5,0|2,0:0|3:2,0:0:0:0:
15,164,14240,2,0,P|17:125|20:83,1,77.5,2|0,0:2|3:0,0:0:0:0:
82,19,14640,6,0,B|123:0|170:25|140:47|187:68|229:51,1,155,2|0,0:2|0:0,0:0:0:0:
251,157,15240,1,2,3:2:0:0:
251,157,15440,2,0,P|185:136|109:187,1,155,2|0,0:2|0:0,0:0:0:0:
89,271,16040,1,2,3:2:0:0:
89,271,16140,1,2,3:2:0:0:
89,271,16240,2,0,B|129:308|129:308|245:275,1,155,2|0,0:2|0:0,0:0:0:0:
306,228,16840,1,2,3:2:0:0:
306,228,17040,2,0,P|350:225|391:224,1,77.5,2|2,0:2|3:2,0:0:0:0:
448,159,17440,2,0,P|455:115|442:82,1,77.5,2|2,0:2|3:2,0:0:0:0:
382,14,17840,6,0,B|340:45|340:45|230:22,1,155,2|2,0:0|0:0,0:0:0:0:
163,61,18440,1,2,3:2:0:0:
163,61,18640,2,0,P|98:28|17:57,1,155,2|2,0:0|0:0,0:0:0:0:
96,115,19240,1,2,3:2:0:0:
96,115,19340,1,2,3:2:0:0:
96,115,19440,2,0,B|99:163|99:163|132:200|132:200|134:266,1,155,2|0,0:0|0:0,0:0:0:0:
136,354,20040,5,2,3:2:0:0:
136,354,20240,2,0,P|177:363|222:351,1,77.5,2|0,0:0|3:0,0:0:0:0:
291,315,20640,2,0,P|335:303|381:314,1,77.5,2|2,0:1|3:2,0:0:0:0:
456,366,21040,2,0,P|455:320|456:281,1,77.5,10|2,0:0|3:2,0:0:0:0:
512,216,21440,1,2,3:0:0:0:
458,138,21640,1,2,3:2:0:0:
385,197,21840,6,0,P|345:196|297:192,1,77.5,4|10,1:2|0:0,0:0:0:0:
261,196,22140,1,10,0:0:0:0:
261,196,22240,2,0,L|201:195,2,38.75,10|10|10,0:0|0:0|0:0,0:0:0:0:
308,296,22640,1,6,1:2:0:0:
150,372,23040,6,0,P|113:369|66:363,1,77.5,2|2,0:0|3:2,0:0:0:0:
3,306,23440,2,0,P|-6:270|1:227,1,77.5,2|2,0:0|3:2,0:0:0:0:
66,168,23840,1,2,0:0:0:0:
143,224,24040,1,2,3:2:0:0:
220,164,24240,2,0,P|219:122|218:73,1,77.5,2|0,0:0|3:0,0:0:0:0:
279,20,24640,2,0,P|318:9|361:22,1,77.5,2|0,0:0|3:0,0:0:0:0:
435,70,25040,6,0,B|475:115|475:115|445:217,1,155,2|2,0:0|0:0,0:0:0:0:
395,292,25640,1,2,3:2:0:0:
395,292,25840,2,0,P|320:282|239:274,1,155,2|2,0:0|0:0,0:0:0:0:
175,215,26440,1,0,3:0:0:0:
175,215,26640,2,0,P|163:171|174:139,1,77.5,0|0,0:0|3:0,0:0:0:0:
211,62,27040,2,0,P|165:54|121:45,1,77.5,2|0,0:0|3:2,0:0:0:0:
39,41,27440,6,0,B|10:73|22:124|51:97|69:147|45:185,1,155,2|0,0:0|0:0,0:0:0:0:
55,277,28040,1,2,3:2:0:0:
55,277,28240,2,0,P|123:301|197:273,1,155,2|0,0:0|0:0,0:0:0:0:
282,222,28840,1,2,3:2:0:0:
282,222,28940,1,2,3:2:0:0:
282,222,29040,2,0,B|238:178|238:178|251:71,1,155,2|0,0:0|0:0,0:0:0:0:
314,25,29640,5,2,3:2:0:0:
314,25,29840,2,0,P|351:16|398:28,1,77.5,2|2,0:0|3:2,0:0:0:0:
469,73,30240,2,0,P|460:113|455:152,1,77.5,2|2,0:0|3:2,0:0:0:0:
448,239,30640,2,0,B|393:267|393:267|299:231,1,155,2|0,0:0|0:0,0:0:0:0:
204,205,31240,1,2,3:2:0:0:
204,205,31440,2,0,P|174:276|207:355,1,155,2|0,0:0|0:0,0:0:0:0:
294,376,32040,5,2,3:2:0:0:
294,376,32140,1,2,3:2:0:0:
294,376,32240,2,0,B|360:364|360:364|380:373|380:373|447:365,1,155,2|2,0:0|0:0,0:0:0:0:
512,305,32840,2,0,P|522:265|507:226,1,77.5,2|0,3:2|0:0,0:0:0:0:
452,164,33240,1,2,3:2:0:0:
452,164,33440,2,0,P|442:124|455:83,1,77.5,2|2,0:0|3:2,0:0:0:0:
370,26,33840,6,0,P|333:15|278:26,1,77.5,6|8,1:2|0:0,0:0:0:0:
250,44,34140,2,0,P|210:50|168:31,1,77.5,8|8,0:0|0:0,0:0:0:0:
135,6,34440,1,12,0:0:0:0:
88,102,34640,1,10,0:0:0:0:
88,102,34740,1,10,0:0:0:0:
88,102,34840,1,10,0:0:0:0:
147,186,35040,2,0,L|197:184,3,38.75,10|8|10|4,0:0|0:0|0:3|0:3,0:0:0:0:
231,162,35440,6,0,P|288:140|357:159,1,116.25,6|8,1:2|0:0,0:0:0:0:
386,172,35840,2,0,P|385:217|384:256,1,77.5,10|10,0:0|0:0,0:0:0:0:
378,300,36140,2,0,P|333:314|267:293,1,116.25,6|10,1:2|0:3,0:0:0:0:
179,279,36640,1,10,0:3:0:0:
179,279,36740,1,10,0:3:0:0:
179,279,36840,1,6,0:3:0:0:
133,363,37040,6,0,P|96:359|48:355,1,77.5,6|8,1:2|0:0,0:0:0:0:
1,282,37440,2,0,P|-9:240|6:197,1,77.5,2|10,1:2|0:0,0:0:0:0:
15,159,37740,2,0,P|33:111|11:51,1,116.25,6|2,1:2|1:2,0:0:0:0:
100,36,38240,2,0,P|142:28|184:22,1,77.5,2|10,1:2|0:0,0:0:0:0:
226,46,38540,1,8,0:0:0:0:
226,46,38640,2,0,P|285:64|350:38,1,116.25,6|8,1:2|0:0,0:0:0:0:
381,25,39040,2,0,P|421:24|459:21,1,77.5,2|10,1:2|0:0,0:0:0:0:
501,47,39340,6,0,P|523:100|507:157,1,116.25,6|10,1:2|0:3,0:0:0:0:
431,204,39840,1,10,0:3:0:0:
349,150,40040,1,6,0:3:0:0:
280,214,40240,2,0,L|229:219,3,38.75,6|8|8|8,1:2|0:0|0:0|0:0,0:0:0:0:
191,221,40640,2,0,L|141:215,3,38.75,10|8|2|10,0:0|0:0|1:2|0:0,0:0:0:0:
107,192,41040,2,0,P|98:154|109:114,1,77.5,2|2,0:0|0:0,0:0:0:0:
175,63,41440,2,0,P|214:58|254:53,1,77.5,2|10,0:0|0:3,0:0:0:0:
350,15,41840,6,0,P|347:73|347:134,1,116.25,6|8,1:2|0:0,0:0:0:0:
342,181,42240,2,0,P|307:189|265:174,1,77.5,10|10,0:0|0:0,0:0:0:0:
222,155,42540,2,0,P|165:134|106:150,1,116.25,6|2,1:2|1:2,0:0:0:0:
67,230,43040,1,2,1:2:0:0:
102,314,43240,1,10,0:0:0:0:
180,261,43440,6,0,P|245:260|307:257,1,116.25,10|8,0:3|0:0,0:0:0:0:
345,247,43840,2,0,P|342:204|342:167,1,77.5,10|10,0:0|0:0,0:0:0:0:
342,120,44140,2,0,P|397:102|463:128,1,116.25,6|2,1:2|1:2,0:0:0:0:
508,189,44640,2,0,P|519:235|507:276,1,77.5,2|10,1:2|0:0,0:0:0:0:
511,318,44940,1,10,0:0:0:0:
511,318,45040,1,4,1:2:0:0:
425,371,45240,5,2,3:2:0:0:
425,371,45440,2,0,P|376:366|336:363,1,77.5,2|2,0:0|3:2,0:0:0:0:
289,292,45840,1,2,0:0:0:0:
289,292,46040,1,2,3:2:0:0:
340,219,46240,2,0,P|387:216|429:211,1,77.5,2|2,0:0|3:2,0:0:0:0:
494,260,46640,6,0,B|457:217|457:217|476:112,1,155,2|2,0:0|0:0,0:0:0:0:
436,44,47240,1,2,3:2:0:0:
436,44,47440,2,0,P|365:13|292:34,1,155,2|0,0:0|0:0,0:0:0:0:
203,11,48040,1,2,3:2:0:0:
138,81,48240,2,0,P|141:125|144:174,1,77.5,6|0,1:2|1:0,0:0:0:0:
145,208,48540,1,10,0:0:0:0:
254,250,48840,2,0,P|257:206|260:157,1,77.5,10|0,0:0|1:0,0:0:0:0:
262,122,49140,1,10,0:0:0:0:
367,70,49440,5,10,0:0:0:0:
367,70,49540,1,10,0:0:0:0:
367,70,49640,1,10,0:3:0:0:
454,127,49840,2,0,L|462:173,1,38.75,10|10,0:0|0:0,0:0:0:0:
481,211,50040,2,0,L|475:254,1,38.75,10|10,0:0|0:0,0:0:0:0:
468,299,50240,1,6,1:2:0:0:
315,269,50640,6,0,L|236:273,2,77.5,2|2|2,1:2|1:2|1:2,0:0:0:0:
397,203,51240,6,0,P|425:122|395:38,1,170.500005203247,6|10,1:2|0:0,0:0:0:0:
309,9,51840,1,2,1:2:0:0:
309,9,51940,1,10,0:0:0:0:
309,9,52040,1,2,1:2:0:0:
232,77,52240,2,0,P|192:71|146:63,1,85.2500026016236,10|0,0:0|1:0,0:0:0:0:
56,11,52640,1,2,1:2:0:0:
0,105,52840,5,10,0:0:0:0:
0,105,52940,1,10,0:0:0:0:
0,105,53040,2,0,P|4:142|10:200,1,85.2500026016236,0|10,1:0|0:0,0:0:0:0:
43,294,53440,2,0,L|-18:298,2,42.6250013008118,2|8|0,1:2|0:0|1:0,0:0:0:0:
126,248,53840,2,0,P|168:235|217:250,1,85.2500026016236,10|10,0:0|0:0,0:0:0:0:
251,336,54240,2,0,P|280:345|304:343,1,42.6250013008118,2|10,1:2|0:0,0:0:0:0:
344,327,54440,2,0,P|376:321|402:328,1,42.6250013008118,10|10,0:0|0:0,0:0:0:0:
433,345,54640,5,2,1:2:0:0:
512,261,54840,2,0,P|487:217|503:133,1,127.875003902435,8|8,0:0|0:0,0:0:0:0:
511,97,55240,1,0,1:0:0:0:
403,151,55440,2,0,P|359:141|307:131,1,85.2500026016236,8|2,0:0|1:2,0:0:0:0:
245,74,55840,2,0,P|217:115|222:173,1,85.2500026016236,2|10,1:2|0:0,0:0:0:0:
218,200,56140,1,10,0:0:0:0:
218,200,56240,1,0,1:0:0:0:
205,303,56440,6,0,P|153:319|84:298,1,127.875003902435,8|8,0:0|0:0,0:0:0:0:
38,266,56840,1,0,1:0:0:0:
125,197,57040,1,10,0:0:0:0:
46,135,57240,1,8,0:0:0:0:
46,135,57340,1,8,0:0:0:0:
46,135,57440,2,0,L|39:73,3,42.6250013008118,8|8|8|8,0:0|0:0|0:0|0:0,0:0:0:0:
37,36,57840,6,0,P|88:24|135:37,1,85.2500026016236,6|0,1:2|1:0,0:0:0:0:
204,93,58240,2,0,P|234:98|256:95,1,42.6250013008118,10|10,0:0|0:0,0:0:0:0:
331,49,58540,2,0,B|300:90|300:90|314:166,1,127.875003902435,6|8,1:2|0:3,0:0:0:0:
404,148,59040,2,0,P|447:144|490:177,1,85.2500026016236,10|6,0:3|0:3,0:0:0:0:
474,262,59440,2,0,P|431:266|388:233,1,85.2500026016236,6|8,1:2|0:0,0:0:0:0:
282,213,59840,2,0,L|285:271,1,42.6250013008118,10|10,0:0|0:0,0:0:0:0:
237,332,60140,2,0,B|287:307|287:307|362:334,1,127.875003902435,6|0,1:2|1:0,0:0:0:0:
444,375,60640,1,2,1:2:0:0:
508,304,60840,5,10,0:0:0:0:
508,304,60940,1,10,0:0:0:0:
508,304,61040,2,0,P|519:256|509:212,1,85.2500026016236,6|8,1:2|0:0,0:0:0:0:
459,133,61440,2,0,L|459:88,2,42.6250013008118,2|8|2,1:2|0:0|1:2,0:0:0:0:
378,189,61840,2,0,P|332:191|293:170,1,85.2500026016236,8|2,0:0|1:2,0:0:0:0:
232,103,62240,2,0,P|204:92|173:92,1,42.6250013008118,2|10,1:2|0:0,0:0:0:0:
138,104,62440,2,0,P|112:111|76:101,1,42.6250013008118,10|10,0:0|0:0,0:0:0:0:
39,95,62640,6,0,P|43:136|49:192,1,85.2500026016236,2|8,1:2|0:0,0:0:0:0:
127,253,63040,1,2,1:2:0:0:
127,253,63140,1,10,0:0:0:0:
127,253,63240,1,10,0:0:0:0:
210,194,63440,2,0,P|268:183|307:201,1,85.2500026016236,2|0,1:2|1:0,0:0:0:0:
343,223,63740,1,0,1:0:0:0:
343,223,63840,2,0,L|398:219,3,42.6250013008118,10|8|10|8,0:0|0:0|0:0|0:0,0:0:0:0:
435,195,64240,6,0,P|446:153|432:115,1,85.2500026016236,6|10,1:2|0:0,0:0:0:0:
367,43,64640,1,2,1:2:0:0:
367,43,64740,1,10,0:0:0:0:
367,43,64840,1,2,1:2:0:0:
281,104,65040,2,0,P|287:141|293:208,1,85.2500026016236,10|0,0:0|1:0,0:0:0:0:
381,225,65440,1,2,1:2:0:0:
483,189,65640,5,10,0:0:0:0:
483,189,65740,1,10,0:0:0:0:
483,189,65840,2,0,P|478:223|474:277,1,85.2500026016236,0|10,1:0|0:0,0:0:0:0:
448,364,66240,2,0,L|500:370,2,42.6250013008118,2|8|0,1:2|0:0|1:0,0:0:0:0:
372,307,66640,2,0,P|331:291|280:301,1,85.2500026016236,10|10,0:0|0:0,0:0:0:0:
242,374,67040,2,0,L|197:361,1,42.6250013008118,2|10,1:2|0:0,0:0:0:0:
152,353,67240,2,0,L|106:353,1,42.6250013008118,10|10,0:0|0:0,0:0:0:0:
61,373,67440,5,2,1:2:0:0:
0,298,67640,2,0,P|-18:256|0:173,1,127.875003902435,8|8,0:0|0:0,0:0:0:0:
19,143,68040,1,0,1:0:0:0:
91,206,68240,2,0,P|137:204|179:201,1,85.2500026016236,8|2,0:0|1:2,0:0:0:0:
240,142,68640,2,0,P|250:103|240:54,1,85.2500026016236,2|10,1:2|0:0,0:0:0:0:
232,15,68940,1,10,0:0:0:0:
232,15,69040,1,0,1:0:0:0:
168,97,69240,6,0,P|117:89|32:81,1,127.875003902435,8|8,0:0|0:0,0:0:0:0:
0,110,69640,1,0,1:0:0:0:
43,197,69840,1,10,0:0:0:0:
0,295,70040,1,8,0:0:0:0:
0,295,70140,1,8,0:0:0:0:
0,295,70240,2,0,L|46:291,3,42.6250013008118,8|8|8|8,0:0|0:0|0:0|0:0,0:0:0:0:
88,314,70640,6,0,P|124:326|179:312,1,85.2500026016236,6|2,1:2|1:2,0:0:0:0:
262,267,71040,1,10,0:0:0:0:
262,267,71140,2,0,L|263:212,1,42.6250013008118,10|10,0:0|0:0,0:0:0:0:
265,168,71340,2,0,P|203:160|125:152,1,127.875003902435,4|10,1:2|0:3,0:0:0:0:
78,82,71840,1,2,1:2:0:0:
78,82,71940,1,10,0:0:0:0:
78,82,72040,1,2,1:2:0:0:
0,172,72240,6,0,P|2:215|5:269,1,85.2500026016236,6|10,1:2|0:0,0:0:0:0:
73,338,72640,1,10,0:0:0:0:
73,338,72740,2,0,L|129:330,1,42.6250013008118,10|10,0:0|0:0,0:0:0:0:
162,363,72940,2,0,P|215:382|290:356,1,127.875003902435,4|2,1:2|1:2,0:0:0:0:
354,276,73440,1,2,1:2:0:0:
317,182,73640,1,10,0:0:0:0:
317,182,73740,1,8,0:0:0:0:
317,182,73840,1,0,1:0:0:0:
350,83,74040,5,10,0:0:0:0:
350,83,74240,2,0,P|390:80|441:76,1,85.2500026016236,2|2,1:2|1:2,0:0:0:0:
497,148,74640,2,0,P|511:191|509:241,1,85.2500026016236,10|2,0:0|1:2,0:0:0:0:
493,318,75040,2,0,P|466:325|443:319,1,42.6250013008118,2|10,1:2|0:0,0:0:0:0:
400,301,75240,2,0,P|368:295|342:302,1,42.6250013008118,10|10,0:0|0:0,0:0:0:0:
314,331,75440,2,0,P|266:335|224:314,1,85.2500026016236,2|10,1:2|0:0,0:0:0:0:
207,276,75740,5,10,0:0:0:0:
207,276,75840,2,0,L|199:227,3,42.6250013008118,10|10|10|10,0:0|0:0|0:0|0:0,0:0:0:0:
217,180,76240,2,0,L|225:131,3,42.6250013008118,10|10|10|10,0:0|0:0|0:3|0:3,0:0:0:0:
224,81,76640,2,0,P|185:68|129:80,1,85.2500026016236,10|6,0:3|0:3,0:0:0:0:
46,40,77040,6,0,P|52:104|59:204,1,162.749995033264,6|4,1:2|1:2,0:0:0:0:
39,337,77840,2,0,P|112:293|197:320,1,162.749995033264,4|4,1:2|1:2,0:0:0:0:
326,380,78640,1,4,1:2:0:0:
385,302,78840,2,0,L|481:315,2,81.3749975166322,2|6|2,0:0|1:2|0:0,0:0:0:0:
324,241,79440,2,0,P|314:195|327:157,1,81.3749975166322,4|2,1:2|0:0,0:0:0:0:
369,84,79840,1,6,1:2:0:0:
292,16,80040,5,10,0:0:0:0:
292,16,80140,1,10,0:0:0:0:
292,16,80240,2,0,P|249:21|192:30,1,81.3749975166322,6|10,1:2|0:0,0:0:0:0:
168,55,80540,1,10,0:0:0:0:
168,55,80640,2,0,P|155:101|185:152,1,81.3749975166322,4|10,1:2|0:0,0:0:0:0:
200,178,80940,1,10,0:0:0:0:
200,178,81040,2,0,P|241:166|297:153,1,81.3749975166322,6|10,1:2|0:0,0:0:0:0:
328,135,81340,1,10,0:0:0:0:
328,135,81440,2,0,L|390:148,3,40.6874987583161,6|10|10|10,1:2|0:0|0:0|0:0,0:0:0:0:
412,172,81840,6,0,P|425:213|417:260,1,81.3749975166322,14|2,0:0|1:2,0:0:0:0:
388,351,82240,2,0,L|253:329,1,122.062496274948,2|10,1:2|0:0,0:0:0:0:
221,305,82640,2,0,P|212:260|228:213,1,81.3749975166322,10|2,0:0|1:2,0:0:0:0:
285,153,83040,1,10,0:0:0:0:
285,153,83140,2,0,P|299:108|281:66,1,81.3749975166322,10|0,0:0|0:0,0:0:0:0:
250,44,83440,6,0,P|207:40|165:36,1,81.3749975166322,6|10,1:2|0:0,0:0:0:0:
74,83,83840,1,0,1:0:0:0:
74,83,83940,2,0,L|32:81,2,40.6874987583161,10|0|0,0:0|1:0|1:0,0:0:0:0:
109,126,84240,2,0,P|121:169|111:209,1,81.3749975166322,10|0,0:0|1:0,0:0:0:0:
91,252,84534,2,0,P|80:300|90:333,1,81.3749975166322,10|0,0:0|1:0,0:0:0:0:
120,371,84828,1,10,0:0:0:0:
202,311,85024,6,0,P|261:295|321:317,1,122.062496274948,6|10,1:2|0:0,0:0:0:0:
362,343,85432,1,6,1:2:0:0:
457,372,85636,2,0,P|458:307|461:243,1,122.062496274948,4|10,1:2|0:0,0:0:0:0:
462,197,86044,1,4,1:2:0:0:
466,58,86248,1,6,1:2:0:0:
