osu file format v14

[General]
AudioFilename: defreeyay.mp3
AudioLeadIn: 0
PreviewTime: 50540
Countdown: 0
SampleSet: Soft
StackLeniency: 0.3
Mode: 0
LetterboxInBreaks: 0
WidescreenStoryboard: 1

[Editor]
Bookmarks: 6640,9840,22640,35440,41840
DistanceSpacing: 0.3
BeatDivisor: 4
GridSize: 32
TimelineZoom: 2.739998

[Metadata]
Title:Mixed Nuts (TV Size)
TitleUnicode:ミックスナッツ (TV Size)
Artist:Official HIGE DANdism
ArtistUnicode:Official髭男dism
Creator:Kyouren
Version:CODE_NAME:NEON'S_PEANUTS
Source:SPY×FAMILY
Tags:スパイファミリー higedan 楢崎誠 小笹大輔 藤原聡 松浦匡希 satoshi fujihara daisuke ozasa makoto narazaki masaki matsuura ヒゲダン オフィシャルヒゲダンディズム extended play EP opening OP theme song anime japanese pop jpop j-pop jazz rock jrock j-rock Loid Anya Yor Bond Forger Franky Franklin Briar Twilight kittyadventure gokugohan12468 Shiwakaze too sinn pepekcz -_ascended_- -ascended- ascended cycopton wanpachi airincat kaedeharakazuha kaedehara kazuha addy2607 chompy moph neonlights male vocal vocals vocalist collab collaboration spyxfamily spy x family supaifamiri supai famiri ヨル・フォージャー ヨル・ブライア WIT STUDIO CloverWorks
BeatmapID:3583839
BeatmapSetID:1743778

[Difficulty]
HPDrainRate:5
CircleSize:4.2
OverallDifficulty:9
ApproachRate:9.7
SliderMultiplier:1.8
SliderTickRate:1

[Events]
//Background and Video events
0,0,"97831497_p0_edit.jpg",0,0
Video,-300,"smallnut.mp4"
//Break Periods
//Storyboard Layer 0 (Background)
//Storyboard Layer 1 (Fail)
//Storyboard Layer 2 (Pass)
//Storyboard Layer 3 (Foreground)
//Storyboard Layer 4 (Overlay)
//Storyboard Sound Samples

[TimingPoints]
240,398.671096345515,4,2,1,50,1,0
240,-80,4,2,1,50,0,0
289,-80,4,2,1,50,0,0
372,-80,4,2,1,5,0,0
439,-80,4,2,1,50,0,0
572,-80,4,2,1,5,0,0
638,-80,4,2,1,50,0,0
771,-80,4,2,1,5,0,0
838,-80,4,2,1,50,0,0
970,-80,4,2,1,5,0,0
1037,-80,4,2,1,50,0,0
1170,-80,4,2,1,5,0,0
1236,-80,4,2,1,50,0,0
1369,-80,4,2,1,5,0,0
1436,-80,4,2,1,50,0,0
1568,-80,4,2,1,5,0,0
1635,-80,4,2,1,50,0,0
1768,-80,4,2,1,5,0,0
1834,-80,4,2,1,50,0,0
1967,-80,4,2,1,5,0,0
2034,-80,4,2,1,50,0,0
2166,-80,4,2,1,5,0,0
2233,-80,4,2,1,50,0,0
2366,-80,4,2,1,5,0,0
2432,-80,4,2,1,50,0,0
2565,-80,4,2,1,5,0,0
2632,-80,4,2,1,50,0,0
2764,-80,4,2,1,5,0,0
2831,-80,4,2,1,50,0,0
2964,-80,4,2,1,5,0,0
3030,-80,4,2,1,50,0,0
3163,-80,4,2,1,5,0,0
3230,-80,4,2,1,50,0,0
3362,-80,4,2,1,5,0,0
3429,398.009950248756,4,2,1,50,1,0
3429,-80,4,2,1,50,0,0
3561,-80,4,2,1,5,0,0
3628,-80,4,2,1,50,0,0
3760,-80,4,2,1,5,0,0
3827,-80,4,2,1,50,0,0
3959,-80,4,2,1,5,0,0
4026,-80,4,2,1,50,0,0
4158,-80,4,2,1,5,0,0
4225,-80,4,2,1,50,0,0
4357,-80,4,2,1,5,0,0
4424,-80,4,2,1,50,0,0
4556,-80,4,2,1,5,0,0
4623,-80,4,2,1,50,0,0
4755,-80,4,2,1,5,0,0
4822,-80,4,2,1,50,0,0
4954,-80,4,2,1,5,0,0
5021,404.858299595142,4,2,1,50,1,0
5021,-80,4,2,1,50,0,0
5155,-80,4,2,1,5,0,0
5222,-80,4,2,1,50,0,0
5358,-80,4,2,1,5,0,0
5425,-50,4,2,1,50,0,0
6539,-50,4,2,1,5,0,0
6640,387.096774193548,4,2,1,65,1,0
6640,-28.5714285714286,4,2,1,65,0,0
6930,-66.6666666666667,4,2,1,65,0,0
8188,408.163265306122,4,2,1,80,1,0
8188,-66.6666666666667,4,2,1,80,0,0
9004,418.118466898955,4,2,1,80,1,0
9004,-66.6666666666667,4,2,1,80,0,0
9160,-66.6666666666667,4,2,1,5,0,0
9317,-66.6666666666667,4,2,1,80,0,0
9526,-44.4444444444445,4,2,1,80,0,0
9840,400,4,2,1,60,1,0
9840,-50,4,2,1,60,0,0
10040,-100,4,2,1,60,0,0
20640,-66.6666666666667,4,2,1,60,0,0
21040,-66.6666666666667,4,2,1,60,0,0
21840,-50,4,2,1,60,0,0
22640,-50,4,2,1,60,0,0
22840,-100,4,2,1,60,0,0
23840,-100,4,2,1,60,0,0
30640,-66.6666666666667,4,2,1,60,0,0
33840,-50,4,2,1,60,0,0
35440,-50,4,2,1,70,0,0
35840,-66.6666666666667,4,2,1,70,0,0
36140,-40,4,2,1,70,0,0
41840,-33.3333333333333,4,2,1,70,0,0
42540,-30.7692307692308,4,2,1,70,0,0
42840,-50,4,2,1,70,0,0
43440,-50,4,2,1,70,0,0
43640,-40,4,2,1,70,0,0
44640,-50,4,2,1,70,0,0
45040,-100,4,2,1,70,0,0
48240,-50,4,2,1,70,0,0
48540,-66.6666666666667,4,2,1,70,0,0
48840,-50,4,2,1,70,0,0
49040,-66.6666666666667,4,2,1,70,0,0
50640,-66.6666666666667,4,2,1,70,0,0
50840,-50,4,2,1,70,0,0
51040,-36.3636363636364,4,2,1,70,0,0
51240,-28.5714285714286,4,2,1,80,0,1
52040,-66.6666666666667,4,2,1,80,0,1
52840,-33.3333333333333,4,2,1,80,0,1
53240,-40,4,2,1,80,0,1
53440,-33.3333333333333,4,2,1,80,0,1
54440,-40,4,2,1,80,0,1
55240,-50,4,2,1,80,0,1
55440,-66.6666666666667,4,2,1,80,0,1
55640,-100,4,2,1,80,0,1
55840,-200,4,2,1,80,0,1
56240,-66.6666666666667,4,2,1,80,0,1
57840,-86.9565217391304,4,2,1,80,0,0
58540,-28.5714285714286,4,2,1,80,0,1
59040,-100,4,2,1,80,0,0
59440,-200,4,2,1,80,0,0
60140,-28.5714285714286,4,2,1,80,0,1
60640,-50,4,2,1,80,0,0
61040,-40,4,2,1,80,0,0
61640,-25,4,2,1,80,0,0
64240,-25,4,2,1,80,0,1
64640,-40,4,2,1,80,0,1
67240,-57.1428571428571,4,2,1,80,0,1
67440,-40,4,2,1,80,0,1
68040,-50,4,2,1,80,0,1
68240,-66.6666666666667,4,2,1,80,0,1
68440,-100,4,2,1,80,0,1
69040,-66.6666666666667,4,2,1,80,0,1
70640,-50,4,2,1,80,0,0
71340,-28.5714285714286,4,2,1,80,0,1
72240,-50,4,2,1,80,0,0
72940,-25,4,2,1,80,0,1
73840,-50,4,2,1,80,0,0
76140,-50,4,2,1,80,0,0
76340,-66.6666666666667,4,2,1,80,0,0
77040,-66.6666666666667,4,2,1,75,0,0
77640,-66.6666666666667,4,2,1,75,0,0
81640,-66.6666666666667,4,2,1,75,0,0
82640,-50,4,2,1,75,0,0
83440,-40,4,2,1,75,0,0
84240,392.156862745098,4,2,1,70,1,0
84828,-57.1428571428571,4,2,1,70,0,0
85024,408.163265306122,4,2,1,70,1,0
85024,-57.1428571428571,4,2,1,70,0,0
85432,-80,4,2,1,70,0,0
85840,-57.1428571428571,4,2,1,70,0,0
86044,-80,4,2,1,70,0,0
86248,-40,4,2,1,75,0,0
86656,-40,4,2,1,5,0,0

[Colours]
Combo1 : 140,100,120
Combo2 : 225,215,190
Combo3 : 235,170,165

[HitObjects]
4,254,240,6,0,P|51:209|73:203,1,75,6|0,1:2|0:0,0:0:0:0:
38,178,439,2,0,P|100:162|121:168,1,75,2|0,0:0|0:0,0:0:0:0:
190,234,638,2,0,P|230:223|257:199,1,75,2|0,0:0|0:0,0:0:0:0:
334,175,838,2,0,P|345:134|340:98,1,75,2|0,0:0|0:0,0:0:0:0:
303,51,1037,6,0,P|313:91|343:123,1,75,2|0,0:0|0:0,0:0:0:0:
512,101,1236,2,0,P|471:89|429:98,1,75,2|0,0:0|0:0,0:0:0:0:
361,250,1436,2,0,P|391:220|403:182,1,75,2|0,0:0|0:0,0:0:0:0:
326,310,1635,2,0,P|366:299|394:273,1,75,2|0,0:0|0:0,0:0:0:0:
255,353,1834,6,0,P|225:322|190:310,1,75,2|0,0:0|0:0,0:0:0:0:
227,285,2034,2,0,P|185:273|149:278,1,75,2|0,0:0|0:0,0:0:0:0:
64,331,2233,6,0,P|52:289|58:252,1,75,2|0,0:0|0:0,0:0:0:0:
21,273,2432,2,0,P|31:231|58:199,1,75,2|0,0:0|0:0,0:0:0:0:
59,88,2632,2,0,P|89:118|125:132,1,75,2|0,0:0|0:0,0:0:0:0:
192,189,2831,2,0,P|222:158|256:146,1,75,2|0,0:0|0:0,0:0:0:0:
328,96,3030,2,0,P|369:106|398:134,1,75,2|0,0:0|0:0,0:0:0:0:
465,178,3230,2,0,P|476:219|468:258,1,75,2|0,0:0|0:0,0:0:0:0:
314,310,3429,6,0,P|344:279|381:268,1,75,2|0,0:0|0:0,0:0:0:0:
428,340,3628,2,0,P|399:370|358:382,1,75,2|0,0:0|0:0,0:0:0:0:
184,236,3827,6,0,P|214:264|227:302,1,75,2|0,0:0|0:0,0:0:0:0:
154,349,4026,2,0,P|123:320|111:283,1,75,2|0,0:0|0:0,0:0:0:0:
235,74,4225,6,0,P|204:102|192:141,1,75,2|0,0:0|0:0,0:0:0:0:
265,187,4424,2,0,P|295:158|308:119,1,75,2|0,0:0|0:0,0:0:0:0:
388,221,4623,6,0,P|357:192|346:156,1,75,2|0,0:0|0:0,0:0:0:0:
208,260,4822,2,0,P|248:250|278:223,1,75,2|0,0:0|0:0,0:0:0:0:
441,277,5021,2,0,P|400:267|368:240,1,75,2|0,0:0|0:0,0:0:0:0:
139,288,5223,2,0,P|179:299|217:290,1,75,2|0,0:0|0:0,0:0:0:0:
469,254,5425,22,2,B|508:257|527:290|527:290|521:236|448:218|396:236|396:236|392:242|392:242|390:231|390:231|386:238|386:238|288:280|292:380|292:380|293:322|347:295|347:295|387:274|397:212|346:169|346:169|311:141|271:123|203:141|187:193|187:193|223:132|278:156|278:156,1,990,2|0,0:1|0:0,0:1:0:0:
270,153,6640,6,0,P|234:200|212:71,1,315.000003004074,6|8,1:2|0:0,0:0:0:0:
213,78,6930,1,0,0:0:0:0:
105,102,7027,1,0,1:0:0:0:
6,122,7123,2,0,B|-8:108|-8:108|1:50,2,67.5000025749208,8|0|0,0:0|0:0|1:0,0:0:0:0:
259,205,7414,5,8,0:0:0:0:
165,166,7510,1,0,0:0:0:0:
118,247,7607,1,2,1:2:0:0:
128,259,7704,2,0,B|123:331,2,67.5000025749208,10|0|2,0:0|0:0|1:2,0:0:0:0:
102,331,7994,1,10,0:0:0:0:
339,364,8188,6,0,L|294:358,4,45.0000017166138,10|0|0|0|0,0:0|3:0|3:0|3:0|3:0,0:0:0:0:
404,314,8528,5,0,3:0:0:0:
409,302,8596,2,0,L|454:296,3,45.0000017166138,10|0|0|0,0:0|3:0|3:0|3:0,0:0:0:0:
351,257,8868,5,0,3:0:0:0:
341,239,8936,1,0,3:0:0:0:
331,224,9004,1,10,0:0:0:0:
159,251,9108,6,0,L|105:239,1,33.7500012874604,10|0,0:3|0:0,0:0:0:0:
159,251,9317,5,10,0:0:0:0:
407,214,9422,1,10,0:0:0:0:
417,221,9526,2,0,B|414:256|414:256|273:244|273:244|270:280,1,202.500007724762,6|0,1:2|0:0,0:0:0:0:
271,270,9840,5,6,1:2:0:0:
142,142,10040,6,0,P|158:164|181:175,1,45,2|0,3:2|0:0,0:0:0:0:
251,194,10240,2,0,P|285:187|311:156,1,67.5,2|0,0:2|0:0,0:0:0:0:
323,192,10440,2,0,P|333:172|335:149,1,45,2|0,3:2|0:0,0:0:0:0:
409,291,10640,6,0,P|397:272|378:259,1,45,2|0,0:2|0:0,0:0:0:0:
275,275,10840,1,2,3:2:0:0:
332,376,11040,6,0,P|342:356|344:333,1,45,2|0,0:2|0:0,0:0:0:0:
275,275,11240,1,2,3:2:0:0:
417,137,11440,6,0,P|369:122|327:115,1,90,2|2,0:2|3:2,0:0:0:0:
243,138,11740,1,2,3:2:0:0:
199,75,11840,2,0,P|231:79|248:137,1,90,2|0,0:2|3:0,0:0:0:0:
133,345,12240,6,0,P|111:319|104:284,1,67.5,2|0,0:2|0:0,0:0:0:0:
72,300,12440,2,0,P|78:273|93:252,1,45,0|0,3:0|0:0,0:0:0:0:
214,219,12640,2,0,P|188:226|162:224,1,45,2|0,0:2|0:0,0:0:0:0:
68,143,12840,2,0,P|87:162|98:185,1,45,2|2,3:2|3:2,0:0:0:0:
188,22,13040,6,0,P|173:62|131:68,1,90,2|2,0:2|3:2,0:0:0:0:
121,58,13340,1,2,3:2:0:0:
221,129,13440,2,0,L|211:232,1,90,2|0,0:2|3:0,0:0:0:0:
57,135,13840,2,0,L|151:91,1,90,0|2,0:0|3:2,0:0:0:0:
139,281,14140,1,2,3:2:0:0:
134,268,14240,2,0,L|48:208,1,90,2|0,0:2|3:0,0:0:0:0:
282,363,14640,6,0,P|257:321|207:318,1,90,2|0,0:2|3:0,0:0:0:0:
211,325,14940,1,0,0:0:0:0:
359,310,15240,6,0,L|406:305,1,45,2|0,3:2|0:0,0:0:0:0:
309,229,15440,2,0,L|264:220,1,45,2|0,0:2|0:0,0:0:0:0:
372,155,15640,1,2,3:2:0:0:
372,155,15840,5,0,0:0:0:0:
316,240,15940,1,2,3:2:0:0:
309,229,16040,2,0,L|264:220,1,45,2|0,3:2|0:0,0:0:0:0:
104,163,16240,2,0,L|198:153,1,90,2|0,0:2|3:0,0:0:0:0:
199,141,16540,1,2,3:2:0:0:
199,141,16840,6,0,P|198:114|187:94,1,45,2|0,3:2|0:0,0:0:0:0:
166,232,17040,1,2,0:2:0:0:
114,39,17240,1,2,3:2:0:0:
26,82,17440,2,0,P|61:126|103:141,2,90,2|2|2,0:2|3:2|0:0,0:0:0:0:
190,98,18040,5,0,3:0:0:0:
140,255,18240,2,0,P|131:226|136:210,1,45,2|0,0:0|0:0,0:0:0:0:
210,110,18440,2,0,P|189:132|173:135,1,45,2|0,3:2|0:0,0:0:0:0:
68,290,18640,2,0,P|99:255|147:258,1,90,2|2,0:0|3:2,0:0:0:0:
189,323,18940,1,2,3:2:0:0:
197,333,19040,2,0,L|245:330,1,45,2|2,0:0|3:2,0:0:0:0:
336,367,19240,5,2,3:2:0:0:
327,356,19340,1,2,3:2:0:0:
339,262,19440,6,0,P|302:258|326:278,1,90,2|0,0:0|3:0,0:0:0:0:
464,312,19740,1,0,0:0:0:0:
386,22,20040,5,2,3:2:0:0:
471,124,20240,6,0,P|508:128|484:108,1,90,2|0,0:0|3:0,0:0:0:0:
386,22,20540,1,0,3:0:0:0:
386,22,20640,6,2,P|353:59|343:110,1,101.250003862381,2|0,0:1|0:0,0:1:0:0:
296,88,20840,2,2,P|304:127|326:157,1,67.5000025749208,2|0,3:2|0:0,0:1:0:0:
478,255,21040,6,0,P|503:264|516:281,3,33.7500012874604,10|2|2|2,0:0|3:0|3:0|3:0,0:0:0:0:
383,242,21240,2,0,P|403:224|424:222,3,33.7500012874604,2|2|2|2,3:2|3:0|3:0|3:0,0:0:0:0:
292,339,21440,6,0,P|318:335|334:321,3,33.7500012874604,2|2|2|2,3:0|3:0|3:0|3:0,0:0:0:0:
171,326,21640,2,0,P|201:363|222:370,1,67.5000025749208,2|2,3:2|3:0,0:0:0:0:
125,173,21840,6,0,P|115:196|137:173,1,90,4|0,1:2|0:0,0:0:0:0:
166,246,22040,1,10,0:0:0:0:
214,264,22140,1,10,0:0:0:0:
290,232,22240,1,10,0:0:0:0:
334,144,22340,1,10,0:0:0:0:
406,89,22440,1,10,0:0:0:0:
453,100,22540,1,10,0:0:0:0:
477,130,22640,6,0,L|469:233,1,90,6|0,1:2|0:0,0:0:0:0:
450,378,22840,6,0,P|448:351|419:320,1,67.5,2|0,3:2|0:0,0:0:0:0:
437,292,23040,2,0,P|405:282|379:284,1,45,2|0,0:0|0:0,0:0:0:0:
260,384,23240,2,0,P|278:371|291:352,1,45,2|0,3:2|0:0,0:0:0:0:
260,185,23440,6,0,P|262:207|272:227,1,45,2|0,0:0|0:0,0:0:0:0:
221,111,23640,2,0,P|197:128|184:158,1,45,2|0,3:2|0:0,0:0:0:0:
310,116,23840,1,2,0:0:0:0:
427,242,24040,5,2,3:2:0:0:
488,155,24140,1,2,3:2:0:0:
389,146,24240,2,0,P|437:161|479:168,1,90,2|0,0:0|3:0,0:0:0:0:
260,185,24540,1,2,3:2:0:0:
322,250,24640,2,0,P|340:223|345:205,2,45,2|2|2,0:0|3:2|3:2,0:0:0:0:
196,302,24940,1,2,3:2:0:0:
208,291,25040,6,0,P|240:295|258:303,1,45,2|0,0:0|0:0,0:0:0:0:
329,329,25240,2,0,P|341:359|343:379,1,45,0|0,3:0|0:0,0:0:0:0:
328,377,25440,5,2,0:0:0:0:
254,317,25540,1,2,3:2:0:0:
254,222,25640,1,2,3:2:0:0:
328,163,25740,1,2,3:2:0:0:
423,183,25840,6,0,L|334:175,1,90,2|2,0:0|3:2,0:0:0:0:
84,139,26140,1,2,3:2:0:0:
247,110,26240,5,2,0:0:0:0:
259,121,26340,2,0,L|170:128,1,90,2|2,3:2|3:2,0:0:0:0:
317,59,26640,1,0,0:0:0:0:
333,175,26740,6,0,P|349:153|352:124,1,45,2|0,3:2|3:0,0:0:0:0:
340,188,26940,1,0,3:0:0:0:
265,232,27040,6,0,P|238:228|211:240,2,45,2|0|2,0:0|3:0|3:2,0:0:0:0:
343,275,27340,1,2,3:2:0:0:
351,270,27440,2,0,B|364:286|364:286|345:352,2,90,2|0|0,0:0|3:0|0:0,0:0:0:0:
226,326,28040,2,0,P|244:338|267:341,1,45,2|0,3:2|0:0,0:0:0:0:
201,251,28240,6,0,P|181:261|166:278,1,45,2|0,0:0|0:0,0:0:0:0:
164,296,28440,1,2,3:2:0:0:
145,185,28540,1,2,3:2:0:0:
129,86,28640,2,0,L|77:81,1,45
265,101,28840,2,0,L|213:96,1,45,2|2,3:2|3:2,0:0:0:0:
357,108,29040,6,0,P|312:122|312:168,1,90,2|0,0:0|3:0,0:0:0:0:
400,244,29340,2,0,P|379:219|354:203,1,45
287,238,29540,2,0,P|261:250|227:250,2,45,0|2|0,0:0|3:2|0:0,0:0:0:0:
151,271,29840,2,0,P|165:288|184:300,1,45,2|0,0:0|0:0,0:0:0:0:
93,182,30040,2,0,P|85:203|84:225,1,45,2|0,3:2|0:0,0:0:0:0:
148,113,30240,5,2,0:0:0:0:
188,191,30340,1,2,3:2:0:0:
275,174,30440,1,2,3:2:0:0:
288,86,30540,1,2,3:2:0:0:
199,51,30640,2,0,B|236:23|236:23|218:194,1,202.500007724762,2|0,0:0|0:0,0:0:0:0:
203,356,31040,6,0,P|242:335|269:331,1,67.5000025749208
119,230,31240,2,0,P|144:262|179:278,1,67.5000025749208,2|0,3:2|0:0,0:0:0:0:
382,316,31440,6,0,P|362:289|332:276,2,67.5000025749208,2|0|0,0:0|0:0|3:0,0:0:0:0:
379,330,31740,1,2,3:2:0:0:
373,175,31840,1,2,0:0:0:0:
388,182,31940,1,2,3:2:0:0:
400,187,32040,2,0,L|404:104,1,67.5000025749208,2|2,3:2|3:2,0:0:0:0:
188,93,32240,6,0,L|331:70,1,135.000005149842,2|2,0:0|3:2,0:0:0:0:
68,148,32540,1,2,3:2:0:0:
82,152,32640,2,0,L|153:162,1,67.5000025749208,2|2,0:0|3:2,0:0:0:0:
17,95,32840,5,2,3:2:0:0:
13,106,32940,2,0,P|19:171|85:164,1,135.000005149842,2|0,3:2|3:0,0:0:0:0:
188,93,33240,2,0,P|151:88|122:57,1,67.5000025749208,2|0,3:2|0:0,0:0:0:0:
294,109,33440,2,0,P|271:138|229:148,1,67.5000025749208,2|0,0:0|0:0,0:0:0:0:
366,24,33640,2,0,P|380:58|367:99,1,67.5000025749208,2|0,3:2|0:0,0:0:0:0:
179,263,33840,6,0,P|197:238|254:236,1,90,6|0,1:2|0:0,0:0:0:0:
353,324,34040,5,8,0:0:0:0:
362,192,34140,1,8,0:0:0:0:
362,192,34340,5,8,0:0:0:0:
253,236,34440,1,12,0:0:0:0:
286,154,34540,1,0,0:0:0:0:
349,311,34640,2,0,L|441:302,2,90,10|10|10,0:0|0:0|0:0,0:0:0:0:
340,320,34940,5,10,0:0:0:0:
331,332,35040,1,10,0:0:0:0:
247,359,35140,1,10,0:0:0:0:
184,284,35240,1,10,0:3:0:0:
240,198,35340,1,6,0:3:0:0:
335,234,35440,6,0,B|339:177|339:177|180:164|180:164|185:109,1,270,6|8,1:2|0:0,0:0:0:0:
194,108,35840,5,10,0:0:0:0:
161,270,35940,1,8,0:0:0:0:
8,236,36040,1,10,0:0:0:0:
17,247,36140,6,0,B|49:206|92:188|167:210|172:266|120:314|94:277,1,225,6|0,1:2|0:0,0:0:0:0:
98,281,36440,5,10,0:3:0:0:
117,265,36540,1,10,0:3:0:0:
193,235,36640,1,10,0:3:0:0:
272,280,36740,1,10,0:3:0:0:
304,364,36840,1,6,0:3:0:0:
346,379,36940,1,6,0:3:0:0:
387,369,37040,6,0,B|392:312|392:312|395:310|395:310|400:256,1,112.5,6|0,1:2|0:0,0:0:0:0:
418,105,37240,1,8,0:0:0:0:
455,187,37340,6,0,B|449:130|449:130|446:128|446:128|441:74,1,112.5,8|2,0:0|1:2,0:0:0:0:
501,269,37540,5,10,0:0:0:0:
400,258,37640,1,10,0:0:0:0:
297,249,37740,2,0,B|277:208|217:207|217:207|301:178|367:284|303:365,1,337.5,6|2,1:2|1:2,0:0:0:0:
58,206,38240,6,0,P|86:263|144:240,1,112.5,2|0,1:2|0:0,0:0:0:0:
142,147,38440,1,10,0:0:0:0:
215,309,38540,1,10,0:0:0:0:
204,319,38640,6,0,L|218:204,1,112.5,6|8,1:2|0:0,0:0:0:0:
348,230,38840,5,10,0:0:0:0:
356,229,38906,5,2,0:0:0:0:
364,230,38973,5,2,0:0:0:0:
371,235,39040,5,2,1:2:0:0:
347,90,39140,1,10,0:0:0:0:
347,90,39340,6,0,B|294:75|267:127|262:134|262:134|258:140|220:207|133:160,1,225,6|0,1:2|0:0,0:0:0:0:
148,158,39640,5,10,0:3:0:0:
157,171,39740,1,10,0:3:0:0:
92,247,39840,5,10,0:3:0:0:
98,231,39940,1,10,0:3:0:0:
159,319,40040,5,6,0:3:0:0:
155,301,40140,1,6,0:3:0:0:
310,317,40240,6,0,P|278:259|235:263,1,112.5,6|8,1:2|0:0,0:0:0:0:
236,275,40440,1,8,0:0:0:0:
384,338,40540,5,8,0:0:0:0:
337,205,40640,1,10,0:0:0:0:
477,220,40740,2,0,P|435:270|394:259,1,112.5,8|2,0:0|1:2,0:0:0:0:
245,47,40940,6,0,P|249:95|228:133,1,56.25,10|0,0:0|0:0,0:0:0:0:
416,311,41140,6,0,P|410:283|395:259,1,56.25,2|0,1:2|0:0,0:0:0:0:
75,243,41340,6,0,P|170:219|317:194,1,225,8|0,0:0|0:0,0:0:0:0:
218,177,41590,2,0,L|285:186,3,56.25,2|10|2|2,0:0|0:3|0:0|0:3,0:0:0:0:
478,219,41840,22,0,B|500:183|500:183|409:158|387:215|409:230|373:288|316:268,1,270.000010299683,6|8,1:2|0:0,0:0:0:0:
306,264,42140,1,8,0:0:0:0:
273,184,42240,5,10,0:0:0:0:
221,351,42340,1,8,0:0:0:0:
129,118,42540,6,0,B|119:98|117:57|150:30|214:24|237:86|211:126|211:126|177:169|202:216,1,292.500008368492,6|0,1:2|0:0,0:0:0:0:
353,318,42840,2,0,P|296:272|268:294,1,90,2|8,1:2|0:0,0:0:0:0:
187,346,43040,5,2,1:2:0:0:
221,351,43140,1,10,0:0:0:0:
99,295,43240,1,10,0:0:0:0:
69,306,43340,1,10,0:0:0:0:
199,209,43440,6,0,P|204:244|216:214,1,90,10|0,0:3|0:0,0:0:0:0:
107,136,43640,5,8,0:0:0:0:
295,101,43740,1,8,0:0:0:0:
171,62,43840,5,10,0:0:0:0:
285,91,43940,1,10,0:0:0:0:
399,119,44040,1,10,0:0:0:0:
508,146,44140,6,0,B|481:93|481:93|464:323|464:323|437:264,1,337.5,6|2,1:2|1:2,0:0:0:0:
211,298,44640,6,0,P|260:296|283:260,1,90,2|0,1:2|0:0,0:0:0:0:
272,193,44840,1,10,0:0:0:0:
311,357,44940,1,10,0:0:0:0:
311,357,45040,6,0,L|374:362,1,45,4|0,1:2|0:0,0:0:0:0:
320,344,45240,2,0,L|383:349,1,45,2|0,3:2|0:0,0:0:0:0:
211,298,45440,6,0,L|147:303,1,45,2|0,0:0|0:0,0:0:0:0:
202,285,45640,2,0,L|138:290,1,45,2|0,3:2|0:0,0:0:0:0:
227,189,45840,6,0,L|271:192,1,45,2|0,0:0|0:0,0:0:0:0:
27,178,46040,2,0,L|71:181,1,45,2|0,3:2|0:0,0:0:0:0:
154,168,46240,6,0,P|163:147|178:130,1,45,2|0,0:0|0:0,0:0:0:0:
92,221,46440,2,0,P|79:202|71:181,1,45,2|0,3:2|0:0,0:0:0:0:
208,314,46640,6,0,P|189:301|168:293,1,45,2|0,0:0|0:0,0:0:0:0:
287,350,46840,2,0,P|306:337|327:329,1,45,0|0,3:0|0:0,0:0:0:0:
191,321,47040,6,0,P|171:307|150:300,1,45,2|0,0:0|0:0,0:0:0:0:
305,355,47240,2,0,P|324:342|345:334,1,45,2|0,3:2|0:0,0:0:0:0:
428,222,47440,6,0,P|429:244|426:267,1,45,2|0,0:0|0:0,0:0:0:0:
480,325,47640,2,0,P|461:337|440:346,1,45,0|0,3:0|0:0,0:0:0:0:
312,218,47840,6,0,P|332:227|350:242,1,45
243,248,48040,2,0,P|225:261|204:268,1,45,2|0,3:2|0:0,0:0:0:0:
68,247,48240,6,0,P|86:234|107:226,1,45,6|0,1:2|0:0,0:0:0:0:
185,342,48440,5,0,1:0:0:0:
162,169,48540,1,10,0:0:0:0:
162,169,48840,6,0,P|143:156|122:148,1,45,10|0,0:0|0:0,0:0:0:0:
68,247,49040,5,0,1:0:0:0:
210,66,49140,2,0,P|180:154|183:220,1,135.000005149842,10|0,0:0|1:0,0:0:0:0:
190,201,49440,5,10,0:0:0:0:
109,94,49540,1,8,0:0:0:0:
274,158,49640,1,10,0:3:0:0:
274,158,49740,1,6,0:3:0:0:
274,158,49840,1,10,0:0:0:0:
338,219,49940,5,8,0:0:0:0:
229,71,50040,1,8,0:0:0:0:
393,51,50140,2,0,L|416:15,2,33.7500012874604,8|0|6,0:0|0:0|1:2,0:0:0:0:
99,231,50640,6,0,P|80:208|118:227,1,101.250003862381,2|0,1:2|0:0,0:0:0:0:
198,263,50840,6,0,P|197:315|168:273,1,135,2|0,1:2|0:0,0:0:0:0:
204,183,51040,6,0,P|204:143|232:199,1,185.625001770258,2|0,1:2|0:0,0:0:0:0:
46,293,51240,6,0,P|212:234|376:199,1,315.000003004074,6|0,1:2|0:0,0:0:0:0:
429,214,51540,1,2,0:0:0:0:
418,233,51640,1,10,0:0:0:0:
347,224,51740,1,10,0:0:0:0:
310,128,51840,1,2,1:2:0:0:
377,50,51940,1,10,0:0:0:0:
483,83,52040,2,0,P|448:107|412:113,1,67.5000025749208,2|0,1:2|1:0,0:0:0:0:
179,55,52240,6,0,P|209:68|233:90,1,67.5000025749208,10|0,0:0|0:0,0:0:0:0:
312,315,52440,2,0,P|308:282|316:250,1,67.5000025749208,0|8,1:0|0:0,0:0:0:0:
483,83,52640,2,0,P|448:107|412:113,1,67.5000025749208,2|2,1:2|1:2,0:0:0:0:
421,30,52840,6,0,B|449:-7|564:-11|359:148|343:189|368:297|475:297|527:247|510:188,1,405.000015449525,10|0,0:0|0:0,0:0:0:0:
312,315,53240,2,0,P|336:300|362:386,1,112.5,10|0,0:0|0:0,0:0:0:0:
325,327,53440,6,0,B|272:365|221:317|213:311|213:311|206:306|136:247|58:335,1,270.000010299683,2|0,1:2|1:0,0:0:0:0:
82,328,53740,1,0,1:0:0:0:
74,139,53840,6,0,B|115:157|115:157|91:291,1,135.000005149842,10|0,0:0|1:0,0:0:0:0:
82,328,54040,1,10,0:0:0:0:
143,195,54140,1,10,0:0:0:0:
271,220,54240,2,0,P|259:280|197:277,1,135.000005149842,2|8,1:2|0:0,0:0:0:0:
257,310,54440,1,10,0:0:0:0:
355,315,54540,1,10,0:0:0:0:
451,318,54640,6,0,P|399:294|322:279,1,112.5,2|0,1:2|0:0,0:0:0:0:
174,384,54840,2,0,P|219:351|257:310,1,112.5,8|8,0:0|0:0,0:0:0:0:
250,110,55040,2,0,P|254:165|270:219,1,112.5,0|8,1:0|0:0,0:0:0:0:
336,368,55240,6,0,P|351:312|343:276,1,90,0|0,1:0|1:0,0:0:0:0:
433,247,55440,6,0,P|403:210|374:195,1,67.5000025749208,8|0,0:0|0:0,0:0:0:0:
397,113,55640,6,0,P|351:120|340:127,1,45,2|8,1:2|0:0,0:0:0:0:
284,71,55840,6,0,P|278:77|272:93,1,22.5,2|8,1:2|0:0,0:0:0:0:
281,168,56040,5,10,0:0:0:0:
268,50,56140,1,10,0:0:0:0:
108,42,56240,6,0,P|131:65|161:81,1,67.5000025749208,2|0,1:2|0:0,0:0:0:0:
302,248,56440,2,0,P|332:232|355:209,1,67.5000025749208,8|0,0:0|0:0,0:0:0:0:
161,163,56640,6,0,P|193:154|221:136,1,67.5000025749208,0|8,1:0|0:0,0:0:0:0:
437,235,56840,2,0,P|438:201|430:168,1,67.5000025749208,0|0,1:0|1:0,0:0:0:0:
38,190,57040,6,0,P|65:208|98:217,1,67.5000025749208,10|0,0:0|0:0,0:0:0:0:
350,108,57240,1,8,0:0:0:0:
455,194,57340,1,8,0:0:0:0:
424,326,57440,1,8,0:0:0:0:
312,339,57540,5,8,0:0:0:0:
358,312,57640,1,8,0:0:0:0:
412,316,57740,1,8,0:0:0:0:
453,346,57840,6,0,B|437:326|437:326|449:243,1,103.500001974106,6|0,1:2|1:0,0:0:0:0:
453,346,58240,5,10,0:0:0:0:
252,271,58340,1,10,0:0:0:0:
252,271,58540,6,0,B|229:309|170:305|170:305|250:340|324:242|268:157,1,315.000003004074,6|0,1:2|0:0,0:0:0:0:
265,168,58840,1,8,0:3:0:0:
108,234,59040,6,0,P|93:251|84:272,1,45,10|4,0:3|0:3,0:0:0:0:
301,84,59241,2,0,P|322:90|340:105,1,45,6|0,0:3|0:0,0:0:0:0:
26,335,59440,6,0,P|12:316|5:295,1,45,6|8,1:2|0:0,0:0:0:0:
155,64,59840,5,10,0:0:0:0:
188,208,59940,1,10,0:0:0:0:
188,208,60140,6,0,B|80:343|305:367|341:100|253:188|253:188|221:136,1,315.000003004074,6|0,1:2|0:0,0:0:0:0:
265,187,60440,1,0,1:0:0:0:
143,48,60640,6,0,P|140:66|144:51,1,90,2|0,1:2|0:0,0:0:0:0:
143,48,60840,5,10,0:0:0:0:
242,59,60940,1,10,0:0:0:0:
363,81,61040,6,0,P|313:96|318:147,1,112.5,6|0,1:2|0:0,0:0:0:0:
191,273,61240,2,0,P|229:309|271:279,1,112.5,8|0,0:0|0:0,0:0:0:0:
457,314,61440,2,0,P|470:263|422:242,1,112.5,2|8,1:2|0:0,0:0:0:0:
27,302,61640,6,0,P|141:192|512:40,1,540,2|0,1:2|0:0,0:0:0:0:
501,51,62040,2,0,P|441:146|370:-11,1,360,2|2,1:2|1:2,0:0:0:0:
368,7,62340,1,10,0:0:0:0:
304,73,62440,1,10,0:0:0:0:
223,66,62540,1,10,0:0:0:0:
173,2,62640,6,0,B|212:31|212:31|186:216,1,180,2|0,1:2|0:0,0:0:0:0:
116,273,62840,5,8,0:0:0:0:
248,235,62940,1,8,0:0:0:0:
67,192,63140,5,10,0:0:0:0:
231,243,63240,1,10,0:0:0:0:
329,116,63340,1,10,0:0:0:0:
335,107,63440,5,2,1:2:0:0:
301,81,63540,1,2,0:0:0:0:
257,81,63640,1,2,1:2:0:0:
221,110,63740,1,2,1:2:0:0:
200,211,63840,5,10,0:0:0:0:
178,305,63940,1,10,0:0:0:0:
80,308,64040,1,10,0:0:0:0:
49,226,64140,1,10,0:0:0:0:
118,162,64240,6,0,B|198:112|266:163|294:245|275:260|250:271|288:407|443:402|496:283|428:211,1,540,6|8,1:2|0:0,0:0:0:0:
289,56,64640,2,0,P|321:67|289:52,1,112.5,2|8,1:2|0:0,0:0:0:0:
373,135,64840,1,2,1:2:0:0:
455,97,64940,1,2,1:2:0:0:
465,104,65040,2,0,P|456:51|404:41,1,112.5,10|0,0:0|0:0,0:0:0:0:
264,144,65240,2,0,L|147:126,2,112.5,0|8|2,1:0|0:0|1:2,0:0:0:0:
285,226,65540,5,2,1:2:0:0:
261,128,65640,1,10,0:0:0:0:
239,39,65740,1,10,0:0:0:0:
230,34,65840,2,0,P|204:11|233:32,1,112.5,0|0,1:0|0:0,0:0:0:0:
105,203,66040,2,0,P|77:176|79:86,1,112.5,10|0,0:0|0:0,0:0:0:0:
374,110,66240,2,0,B|264:122|264:122|257:116|257:116|132:128,1,225,2|0,1:2|1:0,0:0:0:0:
329,24,66540,1,0,1:0:0:0:
270,243,66640,6,0,P|277:203|254:237,1,112.5,10|0,0:0|1:0,0:0:0:0:
464,278,66840,2,0,B|438:249|438:249|360:261,1,112.5,10|8,0:0|0:0,0:0:0:0:
208,313,67040,5,2,1:2:0:0:
296,339,67140,1,10,0:0:0:0:
366,275,67240,1,10,0:0:0:0:
345,183,67340,1,10,0:0:0:0:
238,139,67440,6,0,B|242:173|267:193|267:193|264:155|286:120,1,112.5,2|0,1:2|0:0,0:0:0:0:
242,384,67640,6,0,B|269:363|274:331|274:331|242:353|201:351,1,112.5,8|8,0:0|0:0,0:0:0:0:
459,241,67840,6,0,B|427:227|397:239|397:239|432:255|451:292,1,112.5,0|8,1:0|0:0,0:0:0:0:
170,265,68040,6,0,B|197:276|224:266|224:266|193:252|176:219,1,90,0|0,1:0|1:0,0:0:0:0:
380,360,68240,6,0,B|377:336|359:321|359:321|361:348|346:373,1,67.5000025749208,8|0,0:0|0:0,0:0:0:0:
375,144,68440,6,0,B|347:164|342:196|342:196,1,45,2|8,1:2|0:0,0:0:0:0:
179,274,68640,5,2,1:2:0:0:
311,257,68840,5,10,0:0:0:0:
272,74,68940,1,10,0:0:0:0:
179,274,69040,6,0,P|202:251|232:235,1,67.5000025749208,0|0,1:0|0:0,0:0:0:0:
373,68,69240,2,0,P|403:84|426:107,1,67.5000025749208,8|0,0:0|0:0,0:0:0:0:
232,153,69440,6,0,P|264:162|292:180,1,67.5000025749208,0|8,1:0|0:0,0:0:0:0:
508,81,69640,2,0,P|509:115|501:148,1,67.5000025749208,0|0,1:0|1:0,0:0:0:0:
249,375,69840,6,0,P|248:341|256:308,1,67.5000025749208,10|0,0:0|0:0,0:0:0:0:
423,222,70040,1,8,0:0:0:0:
328,349,70140,1,8,0:0:0:0:
161,301,70240,1,8,0:0:0:0:
159,140,70340,5,8,0:0:0:0:
184,157,70440,1,8,0:0:0:0:
198,187,70540,1,8,0:0:0:0:
196,216,70640,6,0,B|214:199|214:199|297:211,1,90,6|0,1:2|0:0,0:0:0:0:
424,318,70840,2,0,B|400:310|400:310|369:233,1,90,2|0,1:2|0:0,0:0:0:0:
391,72,71040,5,10,0:0:0:0:
462,247,71140,1,10,0:0:0:0:
462,247,71340,6,0,B|528:118|362:52|329:109|332:113|297:166|147:106|194:-4,1,472.500004506111,4|10,1:2|0:3,0:0:0:0:
204,8,71740,1,10,0:3:0:0:
209,26,71840,1,2,1:2:0:0:
207,53,71940,1,10,0:0:0:0:
190,96,72040,1,2,1:2:0:0:
125,138,72140,1,2,0:0:0:0:
36,121,72240,6,0,P|51:94|42:124,1,90,6|0,1:2|0:0,0:0:0:0:
244,238,72440,2,0,L|140:246,1,90,10|0,0:0|0:0,0:0:0:0:
218,325,72640,5,10,0:0:0:0:
271,151,72740,1,10,0:0:0:0:
271,151,72940,6,0,B|233:120|174:146|174:146|243:81|355:153|329:261,1,360,4|0,1:2|0:0,0:0:0:0:
193,384,73240,2,0,P|176:309|257:311,1,180,2|0,1:2|0:0,0:0:0:0:
481,349,73440,2,0,P|498:274|417:276,1,180,2|0,1:2|0:0,0:0:0:0:
346,346,73640,5,10,0:0:0:0:
271,151,73740,1,8,0:0:0:0:
423,185,73840,2,0,L|321:197,1,90,0|0,1:0|0:0,0:0:0:0:
120,90,74040,2,0,L|222:102,1,90,10|0,0:0|0:0,0:0:0:0:
123,232,74240,5,2,1:2:0:0:
271,151,74340,1,10,0:0:0:0:
264,311,74440,2,0,P|242:261|202:268,1,90,2|0,1:2|0:0,0:0:0:0:
56,302,74640,6,0,P|94:335|140:336,1,90,10|0,0:0|0:0,0:0:0:0:
356,229,74840,2,0,P|409:231|446:260,1,90,2|0,1:2|0:0,0:0:0:0:
99,363,75040,2,0,P|148:372|188:350,1,90,2|8,1:2|0:0,0:0:0:0:
439,213,75240,2,0,P|483:241|503:282,1,90,10|8,0:0|0:0,0:0:0:0:
215,163,75440,5,2,1:2:0:0:
236,200,75540,1,10,0:0:0:0:
265,221,75640,1,10,0:0:0:0:
302,224,75740,1,10,0:0:0:0:
451,102,75840,5,10,0:0:0:0:
408,101,75940,1,10,0:0:0:0:
375,116,76040,1,10,0:0:0:0:
354,146,76140,1,10,0:0:0:0:
382,334,76240,5,10,0:0:0:0:
397,314,76340,1,10,0:0:0:0:
405,257,76440,1,10,0:3:0:0:
358,183,76540,1,10,0:3:0:0:
265,191,76640,1,10,0:3:0:0:
221,279,76740,1,10,0:3:0:0:
135,315,76840,1,6,0:3:0:0:
90,309,76940,1,6,0:3:0:0:
74,286,77040,6,0,L|86:145,1,135.000005149842,6|0,1:2|0:0,0:0:0:0:
445,38,77440,2,0,L|457:179,1,135,4|0,1:2|0:0,0:0:0:0:
61,40,77840,6,0,L|202:51,1,135.000005149842,4|0,1:2|0:0,0:0:0:0:
509,274,78240,2,0,L|368:286,1,135,4|0,1:2|0:0,0:0:0:0:
353,60,78640,5,4,1:2:0:0:
144,283,78840,6,0,P|125:255|124:222,1,67.5000025749208,2|0,0:0|0:0,0:0:0:0:
200,198,79041,2,0,P|219:226|220:259,1,67.5000025749208,6|0,1:2|0:0,0:0:0:0:
217,116,79240,6,0,P|245:79|228:118,1,135.000005149842,2|4,0:0|1:2,0:0:0:0:
193,342,79640,1,2,0:0:0:0:
371,228,79840,5,6,1:2:0:0:
123,219,80040,5,10,0:0:0:0:
204,195,80140,1,10,0:0:0:0:
283,173,80240,2,0,L|276:240,1,67.5000025749208,6|0,1:2|0:0,0:0:0:0:
512,126,80440,5,10,0:0:0:0:
433,101,80540,1,10,0:0:0:0:
351,77,80640,2,0,L|357:144,1,67.5000025749208,6|0,1:2|0:0,0:0:0:0:
123,52,80840,5,10,0:0:0:0:
202,27,80940,1,10,0:0:0:0:
284,3,81040,2,0,L|277:70,1,67.5000025749208,4|0,1:2|0:0,0:0:0:0:
436,163,81240,5,10,0:0:0:0:
357,144,81340,1,10,0:0:0:0:
293,195,81440,1,6,1:2:0:0:
293,276,81540,1,10,0:0:0:0:
357,326,81640,1,10,0:0:0:0:
436,308,81740,1,10,0:0:0:0:
471,235,81840,6,0,L|435:231,1,33.7500012874604,14|0,0:0|0:0,0:0:0:0:
272,49,82040,6,0,L|265:94,1,33.7500012874604,2|0,1:2|0:0,0:0:0:0:
69,243,82240,6,0,P|62:202|154:193,1,135.000005149842,2|2,1:2|0:0,0:0:0:0:
245,238,82540,2,0,P|272:247|290:247,1,33.7500012874604,10|0,0:0|0:0,0:0:0:0:
292,227,82640,6,0,B|276:241|276:241|292:322,1,90,10|0,0:0|0:0,0:0:0:0:
495,324,82840,2,0,P|447:331|421:300,1,90,2|0,1:2|0:0,0:0:0:0:
415,71,83040,5,10,0:0:0:0:
445,218,83140,2,0,P|474:179|434:217,1,180,10|0,0:0|0:0,0:0:0:0:
161,101,83440,2,0,P|252:126|302:128,1,112.5,6|0,1:2|0:0,0:0:0:0:
356,65,83640,5,10,0:0:0:0:
277,113,83740,1,0,1:0:0:0:
323,201,83840,1,0,1:0:0:0:
335,213,83940,5,10,0:0:0:0:
66,221,84040,2,0,P|157:196|207:194,1,112.5,0|0,1:0|1:0,0:0:0:0:
430,207,84240,5,10,0:0:0:0:
361,300,84338,1,0,1:0:0:0:
247,243,84436,1,0,1:0:0:0:
436,307,84534,5,10,0:0:0:0:
347,293,84632,1,0,1:0:0:0:
378,373,84730,1,0,1:0:0:0:
184,313,84828,6,0,P|247:334|288:336,1,78.7500007510185,10|0,0:0|0:0,0:0:0:0:
57,306,85024,5,6,1:2:0:0:
56,294,85092,1,0,3:0:0:0:
58,284,85160,1,0,3:0:0:0:
62,277,85228,2,0,P|95:256|111:252,2,39.3750003755093,0|0|10,3:0|3:0|0:0,0:0:0:0:
142,153,85432,2,0,P|171:174|216:186,1,56.25,6|0,1:2|3:0,0:0:0:0:
358,91,85636,5,4,1:2:0:0:
345,91,85704,1,0,3:0:0:0:
333,96,85772,1,0,3:0:0:0:
321,102,85840,2,0,P|297:132|287:153,2,39.3750003755093,0|0|10,3:0|3:0|0:0,0:0:0:0:
451,154,86044,2,0,P|485:135|510:114,1,56.25,4|0,1:2|3:0,0:0:0:0:
68,119,86248,6,2,P|322:132|503:211,1,450,6|0,1:2|0:0,0:1:0:0:
