osu file format v14

[General]
AudioFilename: defreeyay.mp3
AudioLeadIn: 0
PreviewTime: 50540
Countdown: 0
SampleSet: Soft
StackLeniency: 0.2
Mode: 0
LetterboxInBreaks: 0
WidescreenStoryboard: 1

[Editor]
Bookmarks: 240,6438,12840,22240,28840,35040,41640,49640,57440,64040,70440,76840,83240
DistanceSpacing: 0.7
BeatDivisor: 4
GridSize: 16
TimelineZoom: 3.999999

[Metadata]
Title:Mixed Nuts (TV Size)
TitleUnicode:ミックスナッツ (TV Size)
Artist:Official HIGE DANdism
ArtistUnicode:Official髭男dism
Creator:Kyouren
Version:CODE_NAME:ASCENDEDxWANPACHI'S_INSANE
Source:SPY×FAMILY
Tags:スパイファミリー higedan 楢崎誠 小笹大輔 藤原聡 松浦匡希 satoshi fujihara daisuke ozasa makoto narazaki masaki matsuura ヒゲダン オフィシャルヒゲダンディズム extended play EP opening OP theme song anime japanese pop jpop j-pop jazz rock jrock j-rock Loid Anya Yor Bond Forger Franky Franklin Briar Twilight kittyadventure gokugohan12468 Shiwakaze too sinn pepekcz -_ascended_- -ascended- ascended cycopton wanpachi airincat kaedeharakazuha kaedehara kazuha addy2607 chompy moph neonlights male vocal vocals vocalist collab collaboration spyxfamily spy x family supaifamiri supai famiri ヨル・フォージャー ヨル・ブライア WIT STUDIO CloverWorks
BeatmapID:3579355
BeatmapSetID:1743778

[Difficulty]
HPDrainRate:5
CircleSize:4
OverallDifficulty:8
ApproachRate:9
SliderMultiplier:2
SliderTickRate:1

[Events]
//Background and Video events
0,0,"bg1.jpg",0,0
Video,-300,"smallnut.mp4"
//Break Periods
//Storyboard Layer 0 (Background)
//Storyboard Layer 1 (Fail)
//Storyboard Layer 2 (Pass)
//Storyboard Layer 3 (Foreground)
//Storyboard Layer 4 (Overlay)
//Storyboard Sound Samples

[TimingPoints]
240,398.671096345515,4,2,1,50,1,0
771,-100,4,2,1,50,0,0
970,-100,4,2,1,50,0,0
1037,-100,4,2,1,50,0,0
1237,-100,4,2,1,50,0,0
1568,-100,4,2,1,50,0,0
1768,-100,4,2,1,50,0,0
1835,-100,4,2,1,50,0,0
2034,-100,4,2,1,50,0,0
2100,-100,4,2,1,50,0,0
2366,-100,4,2,1,50,0,0
2565,-100,4,2,1,50,0,0
2632,-83.3333333333333,4,2,1,50,0,0
2831,-83.3333333333333,4,2,1,50,0,0
3163,-83.3333333333333,4,2,1,50,0,0
3362,-83.3333333333333,4,2,1,50,0,0
3429,398.009950248756,4,2,1,50,1,0
3429,-83.3333333333333,4,2,1,50,0,0
5021,404.858299595142,4,2,1,50,1,0
5021,-83.3333333333333,4,2,1,50,0,0
5425,-100,4,2,1,50,0,0
6640,387.096774193548,4,2,1,65,1,0
6640,-100,4,2,1,65,0,0
8188,408.163265306122,4,2,1,80,1,0
8188,-100,4,2,1,80,0,0
9004,418.118466898955,4,2,1,80,1,0
9422,-83.3333333333333,4,2,1,80,0,0
9840,400,4,2,1,60,1,0
9840,-100,4,2,1,60,0,0
10040,-125,4,2,1,60,0,0
14640,-100,4,2,1,60,0,0
15140,-125,4,2,1,60,0,0
17840,-111.111111111111,4,2,1,60,0,0
19440,-100,4,2,1,60,0,0
20240,-111.111111111111,4,2,1,60,0,0
20790,-111.111111111111,4,2,1,5,0,0
20840,-111.111111111111,4,2,1,60,0,0
20990,-111.111111111111,4,2,1,5,0,0
21040,-83.3333333333333,4,2,1,60,0,0
22640,-125,4,2,1,60,0,0
29040,-111.111111111111,4,2,1,60,0,0
33840,-100,4,2,1,60,0,0
34640,-83.3333333333333,4,2,1,60,0,0
35440,-100,4,2,1,70,0,0
40640,-83.3333333333333,4,2,1,70,0,0
42540,-76.9230769230769,4,2,1,70,0,0
45040,-100,4,2,1,70,0,0
48240,-100,4,2,1,70,0,0
48540,-76.9230769230769,4,2,1,70,0,0
51240,-76.9230769230769,4,2,1,80,0,1
51640,-76.9230769230769,4,2,1,80,0,0
57840,-71.4285714285714,4,2,1,80,0,0
58540,-71.4285714285714,4,2,1,80,0,1
58840,-71.4285714285714,4,2,1,80,0,0
60140,-66.6666666666667,4,2,1,80,0,1
60440,-66.6666666666667,4,2,1,80,0,0
61240,-76.9230769230769,4,2,1,80,0,0
64240,-76.9230769230769,4,2,1,80,0,1
64640,-76.9230769230769,4,2,1,80,0,0
70640,-71.4285714285714,4,2,1,80,0,0
72940,-66.6666666666667,4,2,1,80,0,0
73640,-83.3333333333333,4,2,1,80,0,0
77040,-71.4285714285714,4,2,1,75,0,1
77440,-90.9090909090909,4,2,1,75,0,1
77840,-71.4285714285714,4,2,1,75,0,1
78240,-90.9090909090909,4,2,1,75,0,1
78640,-83.3333333333333,4,2,1,75,0,1
80240,-76.9230769230769,4,2,1,75,0,1
82240,-125,4,2,1,75,0,1
82840,-83.3333333333333,4,2,1,75,0,1
83040,-55.5555555555556,4,2,1,75,0,1
83440,-83.3333333333333,4,2,1,75,0,0
84240,392.156862745098,4,2,1,70,1,0
84240,-83.3333333333333,4,2,1,70,0,0
85024,408.163265306122,4,2,1,70,1,0
85024,-83.3333333333333,4,2,1,70,0,0
86248,-66.6666666666667,4,2,1,75,0,1
86656,-66.6666666666667,4,2,1,5,0,0

[Colours]
Combo1 : 140,100,120
Combo2 : 225,215,190
Combo3 : 235,170,165

[HitObjects]
481,10,240,5,6,1:2:0:0:
401,97,505,6,0,P|356:70|297:63,1,100,2|0,0:0|0:0,0:0:0:0:
309,62,771,2,0,P|354:36|390:-11,1,100,2|0,0:0|0:0,0:0:0:0:
384,0,1037,2,0,P|383:52|406:107,1,100,2|0,0:0|0:0,0:0:0:0:
478,114,1303,6,0,P|435:128|428:185,1,100,2|0,0:0|0:0,0:0:0:0:
424,177,1568,2,0,P|457:207|510:184,1,100,2|0,0:0|0:0,0:0:0:0:
505,191,1834,2,0,P|514:146|468:112,1,100,2|0,0:0|0:0,0:0:0:0:
337,154,2100,6,0,P|288:162|245:188,1,100,2|0,0:0|0:1,0:1:0:0:
245,188,2366,2,0,P|196:179|153:153,1,100,2|0,0:0|0:0,0:0:0:0:
153,153,2632,6,0,P|168:196|162:280,1,119.999996337891,2|0,0:0|0:0,0:0:0:0:
165,269,2897,2,0,P|210:277|280:324,1,119.999996337891,2|0,0:0|0:0,0:0:0:0:
272,315,3163,2,0,P|302:279|377:243,1,119.999996337891,2|0,0:0|0:0,0:0:0:0:
365,245,3429,6,0,P|435:287|390:338,1,159.999995117188,2|0,0:0|0:0,0:0:0:0:
374,159,3827,6,0,P|372:119|384:81,1,79.9999975585938,2|0,0:0|0:0,0:0:0:0:
429,15,4026,1,2,0:0:0:0:
277,40,4225,6,0,P|310:18|349:10,1,79.9999975585938,2|0,0:0|0:0,0:0:0:0:
429,15,4424,1,2,0:0:0:0:
231,115,4623,6,0,P|203:86|196:42,1,79.9999975585938,2|0,0:0|0:0,0:0:0:0:
195,48,4822,2,0,P|166:76|122:83,1,79.9999975585938,2|0,0:0|0:0,0:0:0:0:
129,83,5021,2,0,P|157:112|164:156,1,79.9999975585938,2|0,0:0|0:0,0:0:0:0:
165,150,5223,2,0,P|194:122|238:115,1,79.9999975585938,2|0,0:0|0:0,0:0:0:0:
250,224,5425,6,2,B|130:150|3:154|3:154|-35:68|34:-13|134:3,1,500,2|2,0:1|0:0,0:1:0:0:
231,114,6640,5,6,1:2:0:0:
149,261,6833,2,0,P|158:311|163:360,1,100,8|0,0:0|1:0,0:0:0:0:
81,373,7123,2,0,P|71:323|66:274,1,100,8|0,0:0|1:0,0:0:0:0:
238,300,7414,6,0,L|287:292,2,50,8|0|2,0:0|0:0|1:2,0:0:0:0:
326,227,7704,2,0,L|375:234,2,50,10|2|2,0:0|0:0|1:2,0:0:0:0:
414,300,7994,1,10,0:0:0:0:
353,123,8188,6,0,L|357:155,5,33.3333333333333,10|0|0|0|0|0,0:0|3:0|3:0|3:0|3:0|3:0,0:0:0:0:
436,89,8596,2,0,L|431:121,5,33.3333333333333,10|0|0|0|0|0,0:0|3:0|3:0|3:0|3:0|3:0,0:0:0:0:
369,22,9004,5,10,0:0:0:0:
360,33,9108,2,0,P|292:39|217:29,1,100,10|10,0:3|0:0,0:0:0:0:
139,50,9422,1,10,0:0:0:0:
147,32,9526,2,0,P|191:73|192:136,1,119.999996337891,6|0,1:2|0:0,0:0:0:0:
276,164,9840,6,0,P|240:196|240:247,1,100,6|2,1:2|3:2,0:0:0:0:
304,293,10240,1,2,0:2:0:0:
383,282,10440,1,2,3:2:0:0:
423,213,10640,1,2,0:2:0:0:
410,114,10840,1,2,3:2:0:0:
306,54,11040,1,2,0:2:0:0:
177,109,11240,1,2,3:2:0:0:
137,178,11440,6,0,P|150:236|154:296,1,120,2|2,0:2|3:2,0:0:0:0:
75,294,11840,2,0,P|65:255|63:215,1,80,2|0,0:2|3:0,0:0:0:0:
222,177,12240,6,0,P|261:179|305:247,1,120,2|2,0:2|3:2,0:0:0:0:
302,279,12640,1,2,0:2:0:0:
231,317,12840,1,2,3:2:0:0:
363,384,13040,6,0,P|369:340|386:293,1,80,2|2,0:2|3:2,0:0:0:0:
475,330,13440,2,0,P|448:254|438:175,1,160,2|0,0:2|0:0,0:0:0:0:
352,28,14140,5,2,3:2:0:0:
341,43,14240,2,0,P|362:100|415:86,1,120,2|0,0:2|0:0,0:0:0:0:
500,72,14640,2,0,B|393:97|448:161|344:192,1,200,2|0,0:2|0:0,0:0:0:0:
192,230,15240,6,0,P|211:233|231:238,1,40,2|2,3:2|3:2,0:0:0:0:
306,262,15440,1,2,0:2:0:0:
298,381,15640,6,0,P|337:349|414:344,1,120,2|2,3:2|3:2,0:0:0:0:
427,354,16040,1,2,3:2:0:0:
195,382,16240,6,0,P|155:368|103:356,1,80,2|2,0:2|3:2,0:0:0:0:
36,384,16540,2,0,P|20:332|68:293,1,120,2|2,3:2|3:2,0:0:0:0:
174,291,17040,1,2,0:2:0:0:
174,291,17240,2,0,B|152:201|105:256|83:158,1,160,2|2,3:2|3:2,0:0:0:0:
124,7,17840,1,2,0:0:0:0:
0,45,18040,6,0,P|66:79|135:94,1,134.999995880127,2|0,3:2|0:0,0:0:0:0:
164,92,18440,1,2,3:2:0:0:
312,24,18640,5,2,0:0:0:0:
242,109,18840,1,2,3:2:0:0:
256,93,18940,2,0,P|242:27|201:18,1,89.9999972534181,2|0,3:2|0:0,0:0:0:0:
206,16,19240,1,2,3:2:0:0:
347,108,19440,6,0,B|397:128|371:151|429:171,1,100,2|2,0:0|3:2,0:0:0:0:
506,167,19740,2,0,P|446:176|407:256,1,150,2|2,3:2|3:2,0:0:0:0:
312,333,20240,2,0,P|240:322|202:224,1,179.999994506836,2|2,0:0|0:1,0:0:0:0:
251,146,20840,1,2,3:2:0:0:
318,242,21040,6,0,B|289:247|317:239|288:244,16,29.9999990844727,10|2|2|2|2|2|2|2|2|2|2|2|2|2|2|0|4,0:0|3:0|3:0|3:0|3:2|3:0|3:0|3:0|3:0|3:0|3:0|3:0|3:2|3:0|3:0|0:0|1:2,0:0:0:0:
386,380,22040,5,10,0:0:0:0:
437,377,22140,1,10,0:0:0:0:
479,346,22240,1,10,0:0:0:0:
497,297,22340,1,10,0:0:0:0:
485,247,22440,1,10,0:0:0:0:
312,333,22640,5,6,1:2:0:0:
193,384,22840,5,2,3:2:0:0:
234,315,23040,1,2,0:0:0:0:
205,240,23240,1,2,3:2:0:0:
127,218,23440,1,2,0:0:0:0:
43,272,23640,1,2,3:2:0:0:
133,193,23840,1,2,0:0:0:0:
123,53,24040,1,2,3:2:0:0:
43,46,24240,6,0,P|40:108|106:116,1,120,2|2,0:0|3:2,0:0:0:0:
167,120,24640,2,0,P|216:106|263:99,1,80,2|0,0:0|3:0,0:0:0:0:
345,28,25040,2,0,P|286:16|228:0,1,120,2|2,0:0|3:2,0:0:0:0:
207,21,25440,1,2,0:0:0:0:
346,115,25640,1,2,3:2:0:0:
232,188,25840,6,0,P|214:226|209:274,1,80,2|2,0:0|3:2,0:0:0:0:
128,303,26240,2,0,B|231:290|177:325|296:310,1,160,2|2,0:0|0:0,0:0:0:0:
298,305,27040,2,0,P|316:343|321:391,1,80,2|2,0:0|3:2,0:0:0:0:
478,288,27440,6,0,P|442:225|363:245,1,160,2|0,0:0|0:0,0:0:0:0:
398,322,28040,1,2,3:2:0:0:
512,176,28240,2,0,P|499:97|465:25,1,160,2|0,0:0|0:0,0:0:0:0:
414,131,28840,1,2,3:2:0:0:
307,24,29040,6,0,B|261:47|284:68|237:89,1,89.9999972534181,2|2,0:0|3:2,0:0:0:0:
182,38,29340,2,0,P|216:126|229:186,1,134.999995880127,2|2,3:2|3:2,0:0:0:0:
337,105,29840,1,2,0:0:0:0:
251,248,30040,5,2,3:2:0:0:
168,231,30240,1,2,0:0:0:0:
138,144,30440,1,2,3:2:0:0:
27,281,30640,5,2,0:0:0:0:
77,213,30840,2,0,P|46:201|24:196,2,44.999998626709,0|0|0,3:2|3:2|0:0,0:0:0:0:
120,38,31240,1,2,3:2:0:0:
120,38,31340,1,2,3:2:0:0:
120,38,31440,2,0,P|38:46|-1:137,1,179.999994506836,2|0,0:0|0:0,0:0:0:0:
85,119,32040,1,2,3:2:0:0:
147,227,32240,6,0,P|196:211|236:201,1,89.9999972534181,2|2,0:0|3:2,0:0:0:0:
317,239,32540,2,0,P|334:171|290:130,1,134.999995880127,2|2,3:2|3:2,0:0:0:0:
215,294,33140,1,2,3:2:0:0:
227,311,33240,2,0,B|307:331|267:369|351:384,1,134.999995880127,2|0,3:2|0:0,0:0:0:0:
363,366,33640,1,2,3:2:0:0:
500,238,33840,5,6,1:2:0:0:
480,373,34040,1,8,0:0:0:0:
463,367,34140,2,0,P|452:338|434:268,1,100,8|8,0:0|0:0,0:0:0:0:
370,217,34440,2,0,P|359:246|350:276,1,50,12|0,0:0|0:0,0:0:0:0:
429,140,34640,5,10,0:0:0:0:
457,159,34740,2,0,P|484:147|490:112,1,59.9999981689454,8|10,0:0|0:0,0:0:0:0:
292,174,34940,5,8,0:0:0:0:
264,155,35040,2,0,P|237:167|236:197,1,59.9999981689454,10|8,0:0|0:0,0:0:0:0:
341,96,35240,5,10,0:3:0:0:
255,290,35440,6,0,P|206:283|133:273,1,100,6|0,1:2|0:0,0:0:0:0:
4,107,35840,1,10,0:0:0:0:
16,93,35940,2,0,P|37:114|41:149,1,50,10|10,0:0|0:0,0:0:0:0:
130,140,36140,2,0,P|113:186|77:219,1,100,6|0,1:2|0:0,0:0:0:0:
0,270,36440,5,10,0:3:0:0:
45,253,36540,1,8,0:3:0:0:
88,275,36640,1,10,0:3:0:0:
101,322,36740,1,8,0:3:0:0:
74,363,36840,5,6,0:3:0:0:
49,360,36940,1,4,0:3:0:0:
27,349,37040,1,6,1:2:0:0:
207,276,37240,6,0,P|238:281|260:294,1,50,8|8,0:0|0:0,0:0:0:0:
334,384,37440,2,0,P|324:361|321:336,1,50,2|10,1:2|0:0,0:0:0:0:
383,193,37640,1,10,0:0:0:0:
400,188,37740,2,0,P|370:228|329:256,1,100,6|0,1:2|0:0,0:0:0:0:
261,211,38040,1,2,1:2:0:0:
401,305,38240,1,2,1:2:0:0:
473,102,38440,5,10,0:0:0:0:
473,102,38540,1,10,0:0:0:0:
473,102,38640,6,0,P|423:96|378:74,1,100,6|8,1:2|0:0,0:0:0:0:
270,14,38940,1,8,0:0:0:0:
282,0,39040,2,0,P|299:17|304:41,1,50,2|8,1:2|0:0,0:0:0:0:
243,180,39240,5,10,0:0:0:0:
267,207,39340,2,0,P|301:171|312:123,1,100,6|0,1:2|0:0,0:0:0:0:
240,90,39640,1,10,0:3:0:0:
94,231,39840,1,10,0:3:0:0:
118,235,39940,1,8,0:3:0:0:
142,242,40040,1,6,0:3:0:0:
166,250,40140,1,4,0:3:0:0:
189,261,40240,6,0,P|206:278|211:302,1,50,6|8,1:2|0:0,0:0:0:0:
291,326,40440,2,0,P|284:349|266:366,1,50,8|8,0:0|0:0,0:0:0:0:
272,245,40640,6,0,P|300:237|329:246,1,59.9999981689454,10|8,0:0|0:0,0:0:0:0:
369,178,40840,1,2,1:2:0:0:
386,187,40940,2,0,P|406:208|413:237,1,59.9999981689454,10|2,0:0|0:0,0:0:0:0:
288,161,41140,2,0,P|295:132|317:112,1,59.9999981689454,0|2,1:0|0:0,0:0:0:0:
474,18,41340,6,0,B|407:15|435:40|351:41,1,119.999996337891,8|0,0:0|0:0,0:0:0:0:
278,44,41640,1,10,0:3:0:0:
106,150,41840,6,0,P|22:122|22:33,1,179.999994506836,6|8,1:2|0:0,0:0:0:0:
149,1,42240,1,10,0:0:0:0:
116,13,42340,2,0,P|102:49|94:84,1,59.9999981689454,10|10,0:0|0:0,0:0:0:0:
113,237,42540,6,0,P|131:181|204:156,1,129.999994049073,6|0,1:2|0:0,0:0:0:0:
283,231,42840,5,2,1:2:0:0:
279,215,42940,1,8,0:0:0:0:
275,197,43040,1,2,1:2:0:0:
323,200,43140,1,8,0:0:0:0:
363,227,43240,1,10,0:0:0:0:
384,270,43340,1,8,0:0:0:0:
382,318,43440,1,10,0:3:0:0:
197,237,43640,5,8,0:0:0:0:
180,375,43840,5,10,0:0:0:0:
220,360,43940,1,10,0:0:0:0:
262,348,44040,1,10,0:0:0:0:
304,339,44140,2,0,B|409:310|359:270|493:237,1,194.999991073609,6|2,1:2|1:2,0:0:0:0:
303,120,44640,1,2,1:2:0:0:
482,107,44840,5,10,0:0:0:0:
436,118,44940,1,10,0:0:0:0:
418,161,45040,1,4,1:2:0:0:
369,55,45240,5,2,3:2:0:0:
365,42,45440,1,2,0:0:0:0:
376,44,45640,1,2,3:2:0:0:
311,142,45840,5,2,0:0:0:0:
324,138,46040,1,2,3:2:0:0:
206,14,46240,5,2,0:0:0:0:
193,18,46440,1,2,3:2:0:0:
295,0,46640,6,0,B|272:124|235:47|214:177,1,200,2|2,0:0|0:0,0:0:0:0:
290,249,47240,1,2,3:2:0:0:
290,249,47440,2,0,B|166:226|243:189|113:168,1,200,2|0,0:0|0:0,0:0:0:0:
37,365,48240,6,0,P|45:333|49:310,1,50,6|0,1:2|0:0,0:0:0:0:
15,202,48440,1,0,1:0:0:0:
40,234,48540,2,0,P|60:314|70:372,1,129.999994049073,10|0,0:0|1:0,0:0:0:0:
238,347,48840,5,10,0:0:0:0:
207,319,48940,2,0,P|172:303|139:292,1,64.9999970245363,0|0,0:0|1:0,0:0:0:0:
387,206,49140,5,10,0:0:0:0:
418,234,49240,2,0,P|453:250|486:261,1,64.9999970245363,0|0,0:0|1:0,0:0:0:0:
317,324,49440,5,10,0:0:0:0:
309,275,49540,1,8,0:0:0:0:
300,227,49640,1,10,0:3:0:0:
296,223,49840,5,10,0:0:0:0:
240,217,49940,1,8,0:0:0:0:
195,183,50040,1,8,0:0:0:0:
176,130,50140,1,8,0:0:0:0:
187,75,50240,1,6,1:2:0:0:
187,75,50640,5,2,1:2:0:0:
276,123,50840,1,2,1:2:0:0:
274,22,51040,1,2,1:2:0:0:
100,128,51240,6,0,P|127:197|143:324,1,194.999991073609,6|0,1:2|0:0,0:0:0:0:
89,373,51640,1,10,0:0:0:0:
301,250,51840,1,2,1:2:0:0:
308,276,51940,1,10,0:0:0:0:
284,291,52040,2,0,P|247:286|204:281,1,64.9999970245363,2|0,1:2|1:0,0:0:0:0:
402,335,52240,6,0,P|393:270|385:206,1,129.999994049073,10|0,0:0|1:0,0:0:0:0:
411,127,52540,1,10,0:0:0:0:
430,123,52640,2,0,P|466:148|450:187,1,64.9999970245363,2|2,1:2|1:2,0:0:0:0:
371,58,52840,6,0,B|257:71|293:21|174:40,1,194.999991073609,10|0,0:0|0:0,0:0:0:0:
92,41,53240,2,0,P|102:70|116:117,1,64.9999970245363,10|0,0:0|0:0,0:0:0:0:
209,130,53440,2,0,P|141:125|89:232,1,194.999991073609,2|0,1:2|1:0,0:0:0:0:
153,290,53840,6,0,P|172:269|185:230,1,64.9999970245363,10|0,0:0|1:0,0:0:0:0:
66,313,54040,2,0,P|38:304|7:277,1,64.9999970245363,10|8,0:0|0:0,0:0:0:0:
153,290,54240,6,0,P|183:300|208:321,1,64.9999970245363,2|10,1:2|0:0,0:0:0:0:
66,313,54439,2,0,P|44:337|33:367,1,64.9999970245363,10|10,0:0|0:0,0:0:0:0:
127,375,54640,5,2,1:2:0:0:
270,253,54840,2,0,P|334:265|432:288,1,129.999994049073,8|0,0:0|1:0,0:0:0:0:
417,191,55140,2,0,P|353:179|255:156,1,129.999994049073,8|0,0:0|1:0,0:0:0:0:
314,348,55440,5,8,0:0:0:0:
482,249,55640,1,2,1:2:0:0:
504,255,55740,1,10,0:0:0:0:
512,279,55840,2,0,P|504:310|498:342,1,64.9999970245363,2|8,1:2|0:0,0:0:0:0:
417,191,56040,2,0,P|411:159|402:127,1,64.9999970245363,10|8,0:0|0:0,0:0:0:0:
501,167,56240,5,0,1:0:0:0:
321,84,56440,6,0,B|246:85|299:101|188:103,1,129.999994049073,8|0,0:0|1:0,0:0:0:0:
85,2,56740,2,0,B|160:3|107:19|218:21,1,129.999994049073,8|0,0:0|1:0,0:0:0:0:
313,170,57040,6,0,P|332:237|282:278,1,129.999994049073,10|8,0:0|0:0,0:0:0:0:
264,348,57340,1,8,0:0:0:0:
240,326,57440,1,8,0:0:0:0:
212,309,57540,1,8,0:0:0:0:
182,298,57640,1,8,0:0:0:0:
150,292,57740,1,8,0:0:0:0:
117,293,57840,6,0,B|79:131|39:230|12:107,1,209.999993591309,6|0,1:2|0:0,0:0:0:0:
146,73,58240,2,0,P|123:86|118:106,1,34.9999989318848,10|0,0:0|0:0,0:0:0:0:
150,77,58340,2,0,P|130:107|81:104,1,69.9999978637696,8|8,0:0|0:0,0:0:0:0:
16,263,58540,6,0,P|98:210|291:168,1,279.999991455078,6|8,1:2|0:3,0:0:0:0:
314,250,59040,1,10,0:3:0:0:
240,83,59240,1,6,0:3:0:0:
475,5,59440,6,0,B|441:150|383:66|357:194,1,209.999993591309,6|0,1:2|0:0,0:0:0:0:
477,186,59840,2,0,P|450:183|438:166,1,34.9999989318848,10|0,0:0|0:0,0:0:0:0:
479,180,59940,2,0,P|463:213|430:215,1,69.9999978637696,10|8,0:0|0:0,0:0:0:0:
380,3,60140,6,0,P|410:108|433:239,1,225.000008583069,6|0,1:2|1:0,0:0:0:0:
471,375,60640,1,2,1:2:0:0:
299,304,60840,1,10,0:0:0:0:
282,282,60940,1,10,0:0:0:0:
299,256,61040,1,6,1:2:0:0:
512,285,61240,6,0,P|448:296|387:319,1,129.999994049073,8|2,0:0|1:2,0:0:0:0:
336,380,61540,1,8,0:0:0:0:
336,380,61640,1,2,1:2:0:0:
201,209,61840,2,0,P|139:240|139:299,1,129.999994049073,8|2,0:0|1:2,0:0:0:0:
26,384,62240,6,0,P|56:372|88:366,1,64.9999970245363,2|8,1:2|0:0,0:0:0:0:
240,363,62440,1,10,0:0:0:0:
228,332,62540,1,10,0:0:0:0:
222,300,62640,1,2,1:2:0:0:
27,174,62840,5,10,0:0:0:0:
47,195,62940,2,0,P|77:206|109:212,1,64.9999970245363,10|2,0:0|1:2,0:0:0:0:
222,300,63140,5,8,0:0:0:0:
243,279,63240,2,0,P|273:267|305:261,1,64.9999970245363,10|10,0:0|0:0,0:0:0:0:
306,98,63440,6,0,P|232:105|202:212,1,194.999991073609,2|0,1:2|1:0,0:0:0:0:
305,260,63840,5,10,0:0:0:0:
337,265,63940,1,8,0:0:0:0:
368,273,64040,1,10,0:0:0:0:
398,284,64140,1,8,0:0:0:0:
428,298,64240,6,0,P|506:273|499:223,1,129.999994049073,6|10,1:2|0:0,0:0:0:0:
401,88,64640,1,2,1:2:0:0:
424,75,64740,1,10,0:0:0:0:
447,86,64840,2,0,P|453:138|460:181,1,64.9999970245363,2|0,1:2|1:0,0:0:0:0:
361,185,65040,6,0,B|284:168|317:203|206:179,1,129.999994049073,10|0,0:0|1:0,0:0:0:0:
116,270,65340,1,10,0:0:0:0:
133,286,65440,2,0,P|155:263|166:232,1,64.9999970245363,2|2,1:2|1:2,0:0:0:0:
271,108,65640,6,0,P|228:22|125:22,1,194.999991073609,10|0,0:0|0:0,0:0:0:0:
62,62,66040,2,0,P|84:84|115:95,1,64.9999970245363,10|0,0:0|0:0,0:0:0:0:
232,184,66240,2,0,P|135:191|44:226,1,194.999991073609,2|0,1:2|1:0,0:0:0:0:
62,309,66640,6,0,P|92:297|115:275,1,64.9999970245363,10|0,0:0|1:0,0:0:0:0:
222,352,66840,2,0,P|227:320|219:289,1,64.9999970245363,10|8,0:0|0:0,0:0:0:0:
62,309,67040,6,0,P|84:286|115:275,1,64.9999970245363,2|10,1:2|0:0,0:0:0:0:
222,352,67240,2,0,P|213:320|219:289,1,64.9999970245363,10|10,0:0|0:0,0:0:0:0:
304,250,67440,5,2,1:2:0:0:
466,369,67640,2,0,P|510:318|489:239,1,129.999994049073,8|0,0:0|1:0,0:0:0:0:
385,340,67940,2,0,P|380:276|423:230,1,129.999994049073,8|0,0:0|1:0,0:0:0:0:
487,179,68240,5,8,0:0:0:0:
380,55,68440,1,2,1:2:0:0:
401,32,68540,1,10,0:0:0:0:
422,47,68640,2,0,P|431:82|441:126,1,64.9999970245363,2|10,1:2|0:0,0:0:0:0:
291,67,68840,2,0,P|298:35|306:3,1,64.9999970245363,10|10,0:0|0:0,0:0:0:0:
512,56,69040,5,0,1:0:0:0:
337,157,69240,2,0,P|273:171|210:188,1,129.999994049073,8|0,0:0|1:0,0:0:0:0:
164,98,69540,2,0,P|227:83|290:66,1,129.999994049073,8|0,0:0|1:0,0:0:0:0:
201,287,69840,6,0,B|121:276|163:246|84:237,1,129.999994049073,10|8,0:0|0:0,0:0:0:0:
9,262,70140,1,8,0:0:0:0:
37,247,70240,1,8,0:0:0:0:
60,223,70340,1,8,0:0:0:0:
73,194,70440,1,8,0:0:0:0:
76,162,70540,1,8,0:0:0:0:
68,130,70640,5,6,1:2:0:0:
47,51,70840,1,2,1:2:0:0:
248,138,71040,5,10,0:0:0:0:
266,141,71140,2,0,P|246:111|197:114,1,69.9999978637696,10|10,0:0|0:0,0:0:0:0:
157,171,71340,6,0,B|294:133|208:118|344:81,1,209.999993591309,4|10,1:2|0:3,0:0:0:0:
379,55,71740,1,10,0:3:0:0:
379,55,71840,1,2,1:2:0:0:
424,63,71940,1,10,0:0:0:0:
446,100,72040,1,2,1:2:0:0:
453,199,72240,5,6,1:2:0:0:
295,268,72440,1,10,0:0:0:0:
450,316,72640,5,10,0:0:0:0:
432,319,72740,2,0,P|452:289|501:292,1,69.9999978637696,10|10,0:0|0:0,0:0:0:0:
512,384,72940,6,0,B|528:319|456:263|350:306|380:208,1,225.000008583069,4|2,1:2|1:2,0:0:0:0:
446,100,73440,1,2,1:2:0:0:
307,180,73640,5,10,0:0:0:0:
274,161,73740,1,8,0:0:0:0:
239,148,73840,1,0,1:0:0:0:
134,257,74040,2,0,P|78:252|56:192,1,119.999996337891,10|2,0:0|1:2,0:0:0:0:
74,124,74340,1,10,0:0:0:0:
74,124,74440,1,2,1:2:0:0:
175,57,74640,6,0,P|156:120|143:188,1,119.999996337891,10|2,0:0|1:2,0:0:0:0:
175,342,75040,1,2,1:2:0:0:
215,340,75140,1,10,0:0:0:0:
248,315,75240,1,10,0:0:0:0:
261,277,75340,1,10,0:0:0:0:
242,233,75440,6,0,B|303:222|277:191|350:176,1,119.999996337891,2|10,1:2|0:0,0:0:0:0:
405,239,75740,1,10,0:0:0:0:
405,239,75840,2,0,P|438:247|473:261,1,59.9999981689454,8|8,0:0|0:0,0:0:0:0:
480,174,76040,2,0,P|447:166|412:152,1,59.9999981689454,10|10,0:0|0:0,0:0:0:0:
289,113,76240,5,8,0:0:0:0:
263,71,76340,1,10,0:0:0:0:
290,25,76440,2,0,P|323:17|358:3,1,59.9999981689454,10|10,0:3|0:3,0:0:0:0:
481,89,76640,5,10,0:3:0:0:
477,69,76740,1,10,0:3:0:0:
463,82,76840,1,6,0:3:0:0:
344,176,77040,6,0,P|367:243|375:312,1,139.999995727539,6|0,1:2|0:0,0:0:0:0:
320,199,77440,6,0,P|337:252|344:307,1,110.000003356934,4|0,1:2|0:0,0:0:0:0:
187,108,77840,6,0,P|164:174|156:243,1,139.999995727539,4|0,1:2|0:0,0:0:0:0:
211,130,78240,6,0,P|193:183|186:238,1,110.000003356934,4|0,1:2|0:0,0:0:0:0:
325,71,78640,5,4,1:2:0:0:
325,71,78840,2,0,B|406:57|367:86|446:72,1,119.999996337891,2|6,0:0|1:2,0:0:0:0:
211,130,79240,2,0,P|137:122|142:30,1,179.999994506836,2|0,0:0|0:0,0:0:0:0:
213,53,79640,1,2,0:0:0:0:
80,183,79840,6,0,P|99:241|106:302,1,119.999996337891,6|10,1:2|0:0,0:0:0:0:
127,342,80140,1,10,0:0:0:0:
95,378,80240,6,0,P|68:371|34:344,1,64.9999970245363,6|0,1:2|0:0,0:0:0:0:
179,218,80440,5,10,0:0:0:0:
203,249,80540,1,10,0:0:0:0:
183,282,80640,2,0,P|175:255|181:212,1,64.9999970245363,6|0,1:2|0:0,0:0:0:0:
363,275,80840,5,10,0:0:0:0:
349,311,80940,1,10,0:0:0:0:
310,310,81040,2,0,P|329:290|369:274,1,64.9999970245363,6|0,1:2|0:0,0:0:0:0:
399,55,81240,5,10,0:0:0:0:
406,86,81340,1,10,0:0:0:0:
402,118,81440,1,6,1:2:0:0:
385,146,81540,1,10,0:0:0:0:
359,165,81640,1,10,0:0:0:0:
328,173,81740,1,10,0:0:0:0:
296,169,81840,1,14,0:0:0:0:
363,275,82040,5,2,1:2:0:0:
164,212,82240,2,0,B|141:210|125:198|125:198|136:221|136:221|160:230|189:224,1,120,2|10,1:2|0:0,0:0:0:0:
176,132,82640,1,10,0:0:0:0:
52,249,82840,6,0,P|31:272|21:305,1,59.9999981689454,2|0,1:2|0:0,0:0:0:0:
116,313,83040,1,10,0:0:0:0:
116,313,83140,2,0,P|88:227|31:158,1,179.999994506836,10|0,0:0|0:0,0:0:0:0:
12,75,83440,5,6,1:2:0:0:
176,132,83640,6,0,P|223:110|223:47,1,119.999996337891,10|0,0:0|1:0,0:0:0:0:
158,6,83940,2,0,P|111:28|111:91,1,119.999996337891,10|0,0:0|1:0,0:0:0:0:
163,216,84240,6,0,P|193:208|224:206,2,59.9999981689454,10|0|0,0:0|1:0|1:0,0:0:0:0:
291,159,84534,2,0,P|319:164|352:167,2,59.9999981689454,10|0|0,0:0|1:0|1:0,0:0:0:0:
405,235,84828,1,10,0:0:0:0:
304,356,85024,6,0,P|299:336|296:316,3,39.9999987792969,6|0|0|0,1:2|3:0|3:0|3:0,0:0:0:0:
231,382,85330,5,10,0:0:0:0:
231,382,85432,2,0,P|223:352|219:323,1,59.9999981689454,6|0,1:2|3:0,0:0:0:0:
59,272,85636,6,0,P|63:252|66:232,3,39.9999987792969,4|0|0|0,1:2|3:0|3:0|3:0,0:0:0:0:
136,299,85942,5,10,0:0:0:0:
136,299,86044,2,0,P|143:269|147:240,1,59.9999981689454,4|0,1:2|3:0,0:0:0:0:
0,350,86248,6,2,B|32:347|40:314|40:314|30:270|30:270|42:244|68:244|68:244|166:264|166:264|143:274|136:301,1,300.000011444092,6|0,1:2|0:0,0:1:0:0:
