osu file format v14

[General]
AudioFilename: audio.mp3
AudioLeadIn: 0
PreviewTime: 50590
Countdown: 0
SampleSet: Soft
StackLeniency: 0.7
Mode: 3
LetterboxInBreaks: 0
SpecialStyle: 0
WidescreenStoryboard: 0

[Editor]
DistanceSpacing: 0.7
BeatDivisor: 16
GridSize: 4
TimelineZoom: 1.8

[Metadata]
Title:Mixed Nuts (TV Size)
TitleUnicode:ミックスナッツ (TV Size)
Artist:Official HIGE DANdism
ArtistUnicode:Official髭男dism
Creator:Kibitz
Version:CODE NAME : NORMAL
Source:SPY×FAMILY
Tags:Yoru Yor Forger Briar ヨル・フォージャー ヨル・ブライア Spy Family スパイファミリー Higedan Anime Japanese Pop J-pop Jpop Opening OP Jazz Thorn Princess Assassin Hitman Peanuts Loid ロイド・フォージャー Anya アーニャ・フォージャー Twilight SpyxFamily Muse Dash Ballistic Mirsaaa 藤原聡 Fujihara Satoshi
BeatmapID:3593661
BeatmapSetID:1756056

[Difficulty]
HPDrainRate:7.5
CircleSize:4
OverallDifficulty:7.5
ApproachRate:5
SliderMultiplier:1.4
SliderTickRate:1

[Events]
//Background and Video events
Video,-98,"smallnut.mp4"
0,0,"Normal.jpg",0,0
//Break Periods
//Storyboard Layer 0 (Background)
//Storyboard Layer 1 (Fail)
//Storyboard Layer 2 (Pass)
//Storyboard Layer 3 (Foreground)
//Storyboard Layer 4 (Overlay)
//Storyboard Sound Samples
Sample,12890,0,"Ride.wav",40
Sample,15290,0,"Ride.wav",40
Sample,16090,0,"Ride.wav",40
Sample,21290,0,"Ride.wav",40
Sample,21690,0,"Ride.wav",40
Sample,24890,0,"Ride.wav",40
Sample,28890,0,"Ride.wav",40
Sample,31290,0,"Ride.wav",40
Sample,52090,0,"Ride.wav",40
Sample,52490,0,"Ride.wav",40
Sample,53290,0,"Ride.wav",40
Sample,53690,0,"Ride.wav",40
Sample,54490,0,"Ride.wav",40
Sample,54890,0,"Ride.wav",40
Sample,55290,0,"Ride.wav",40
Sample,56490,0,"Ride.wav",40
Sample,56890,0,"Ride.wav",40
Sample,62090,0,"Ride.wav",40
Sample,64890,0,"Ride.wav",40
Sample,66490,0,"Ride.wav",40
Sample,67690,0,"Ride.wav",40
Sample,68090,0,"Ride.wav",40
Sample,68690,0,"Ride.wav",40
Sample,69290,0,"Ride.wav",40
Sample,69690,0,"Ride.wav",40
Sample,71090,0,"Ride.wav",40
Sample,74090,0,"Ride.wav",40
Sample,74890,0,"Ride.wav",40

[TimingPoints]
290,413.080895008606,4,2,1,60,1,0
290,-97.0873786407767,4,2,1,60,0,0
1940,400,4,2,1,60,1,0
4290,400,4,2,1,60,1,0
4865,400,4,2,1,60,1,0
5090,400,4,2,1,60,1,0
6690,387.096774193548,4,2,1,60,1,0
6690,-103.092783505155,4,2,1,60,0,0
8240,412.371134020619,4,2,1,60,1,0
8240,-97.0873786407767,4,2,1,60,0,0
9890,400,4,2,1,60,1,0
84290,392.156862745098,4,2,1,70,1,0
84290,-102.040816326531,4,2,1,70,0,0
85074,408.163265306122,4,2,1,70,1,0
85074,-98.0392156862745,4,2,1,70,0,0

[HitObjects]
64,192,290,128,2,703:0:0:0:0:
448,192,290,1,4,0:0:0:0:
192,192,703,128,0,1116:0:0:0:0:
448,192,1116,128,0,1529:0:0:0:0:
320,192,1529,128,0,1940:0:0:0:0:
64,192,1940,128,0,2340:0:0:0:0:
448,192,2340,128,0,2740:0:0:0:0:
192,192,2740,128,0,3140:0:0:0:0:
320,192,3140,128,0,3540:0:0:0:0:
64,192,3540,128,0,3940:0:0:0:0:
192,192,3940,128,0,4290:0:0:0:0:
320,192,4290,128,0,4690:0:0:0:0:
448,192,4690,128,0,5090:0:0:0:0:
192,192,5090,128,0,5490:0:0:0:0:
64,192,5490,128,0,5890:0:0:0:0:
320,192,5890,128,0,6290:0:0:0:0:
448,192,6290,128,0,6690:0:0:0:0:
64,192,6690,1,2,0:0:0:0:
192,192,6690,1,4,0:0:0:0:
320,192,6883,1,8,0:0:0:0:
64,192,7077,1,0,0:0:0:20:soft-hitclap.wav
448,192,7173,1,8,0:0:0:0:
192,192,7367,1,0,0:0:0:20:soft-hitclap.wav
320,192,7464,1,8,0:0:0:0:
448,192,7657,1,0,0:0:0:20:soft-hitclap.wav
192,192,7754,1,8,0:0:0:0:
320,192,7948,1,0,0:0:0:20:soft-hitclap.wav
64,192,8044,1,8,0:0:0:0:
448,192,8240,128,0,8652:0:0:0:0:
320,192,8652,128,8,9064:0:0:0:0:
192,192,9064,128,8,9477:0:0:0:0:
64,192,9477,128,10,9889:0:0:0:0:
320,192,9890,1,2,0:0:0:0:
448,192,9890,1,0,0:0:0:20:soft-hitfinish.wav
192,192,10090,1,0,0:0:0:40:Ride.wav
64,192,10290,1,0,0:0:0:0:
320,192,10490,1,0,0:0:0:40:Ride.wav
448,192,10690,1,0,0:0:0:0:
64,192,10890,1,0,0:0:0:40:Ride.wav
192,192,11090,1,0,0:0:0:0:
448,192,11290,1,0,0:0:0:40:Ride.wav
320,192,11490,128,0,11890:0:0:0:0:
64,192,11890,1,0,0:0:0:0:
448,192,12290,128,0,12690:0:0:0:0:
320,192,12690,1,0,0:0:0:20:soft-hitclap.wav
192,192,12890,1,0,0:0:0:20:soft-hitclap.wav
64,192,13090,128,0,13490:0:0:0:0:
448,192,13490,1,0,0:0:0:0:
192,192,13890,1,0,0:0:0:0:
320,192,14290,128,0,14690:0:0:0:20:soft-hitclap.wav
448,192,14690,128,0,15290:0:0:0:20:soft-hitclap.wav
192,192,15290,1,0,0:0:0:20:soft-hitclap.wav
64,192,15490,128,0,15890:0:0:0:20:soft-hitclap.wav
320,192,16090,1,0,0:0:0:20:soft-hitclap.wav
448,192,16290,128,0,16690:0:0:0:20:soft-hitclap.wav
64,192,16690,1,0,0:0:0:0:
192,192,16890,1,0,0:0:0:40:Ride.wav
320,192,17090,128,0,17490:0:0:0:0:
448,192,17490,1,0,0:0:0:0:
192,192,17690,1,0,0:0:0:40:Ride.wav
64,192,17890,128,0,18290:0:0:0:0:
448,192,18290,1,0,0:0:0:0:
320,192,18490,1,0,0:0:0:40:Ride.wav
192,192,18690,128,0,19090:0:0:0:0:
64,192,19090,1,0,0:0:0:0:
320,192,19290,1,0,0:0:0:40:Ride.wav
448,192,19490,128,0,20090:0:0:0:20:soft-hitclap.wav
192,192,20090,1,0,0:0:0:40:Ride.wav
64,192,20290,128,0,20690:0:0:0:0:
320,192,20690,128,0,20890:0:0:0:0:
192,192,21090,1,0,0:0:0:20:soft-hitclap.wav
64,192,21290,1,0,0:0:0:20:soft-hitclap.wav
320,192,21490,1,0,0:0:0:20:soft-hitclap.wav
448,192,21690,1,0,0:0:0:20:soft-hitclap.wav
64,192,21890,1,4,0:0:0:0:
192,192,21890,1,2,0:0:0:0:
448,192,22090,1,8,0:0:0:0:
320,192,22190,1,8,0:0:0:0:
64,192,22390,1,8,0:0:0:0:
192,192,22490,1,8,0:0:0:0:
320,192,22690,1,2,0:0:0:0:
448,192,22690,1,0,0:0:0:20:soft-hitfinish.wav
64,192,22890,1,0,0:0:0:40:Ride.wav
320,192,23090,1,0,0:0:0:0:
192,192,23290,1,0,0:0:0:40:Ride.wav
448,192,23490,1,0,0:0:0:0:
64,192,23690,1,0,0:0:0:40:Ride.wav
192,192,23890,1,0,0:0:0:0:
320,192,24090,1,0,0:0:0:40:Ride.wav
448,192,24290,128,0,24690:0:0:0:20:soft-hitclap.wav
192,192,24690,1,0,0:0:0:0:
320,192,24890,1,0,0:0:0:20:soft-hitclap.wav
64,192,25090,128,0,25490:0:0:0:20:soft-hitclap.wav
192,192,25490,1,0,0:0:0:20:soft-hitclap.wav
448,192,25690,1,0,0:0:0:40:Ride.wav
320,192,25890,128,0,26290:0:0:0:0:
192,192,26290,128,0,26690:0:0:0:0:
64,192,26690,1,0,0:0:0:0:
448,192,27090,128,0,27490:0:0:0:20:soft-hitclap.wav
320,192,27490,128,0,28090:0:0:0:20:soft-hitclap.wav
192,192,28090,1,0,0:0:0:40:Ride.wav
64,192,28290,128,0,28690:0:0:0:0:
448,192,28890,1,0,0:0:0:20:soft-hitclap.wav
192,192,29090,128,0,29690:0:0:0:0:
320,192,29690,1,0,0:0:0:40:Ride.wav
448,192,29890,1,0,0:0:0:0:
64,192,30090,1,0,0:0:0:40:Ride.wav
192,192,30290,1,0,0:0:0:0:
320,192,30490,1,0,0:0:0:40:Ride.wav
448,192,30690,128,0,31290:0:0:0:0:
64,192,31290,1,0,0:0:0:20:soft-hitclap.wav
192,192,31490,128,0,31890:0:0:0:0:
320,192,32090,1,0,0:0:0:40:Ride.wav
448,192,32290,128,0,32690:0:0:0:0:
192,192,32690,1,0,0:0:0:0:
64,192,32890,128,0,33290:0:0:0:40:Ride.wav
320,192,33290,1,0,0:0:0:40:Ride.wav
192,192,33490,1,0,0:0:0:0:
448,192,33690,1,0,0:0:0:40:Ride.wav
64,192,33890,1,2,0:0:0:0:
192,192,33890,1,4,0:0:0:0:
448,192,34090,1,8,0:0:0:0:
64,192,34190,1,8,0:0:0:0:
320,192,34390,1,0,0:0:0:0:
192,192,34490,1,12,0:0:0:0:
448,192,34690,128,8,34890:0:0:0:0:
320,192,34890,128,0,35090:0:0:0:0:
192,192,35090,128,8,35290:0:0:0:0:
64,192,35290,128,8,35490:3:0:0:0:
192,192,35490,1,4,0:0:0:0:
448,192,35490,128,2,35890:0:0:0:0:
64,192,35890,1,8,0:0:0:0:
320,192,35890,1,0,0:0:0:0:
192,192,35990,1,8,0:0:0:0:
320,192,36190,128,2,36490:0:0:0:0:
448,192,36190,1,4,0:0:0:0:
64,192,36490,1,8,3:0:0:0:
448,192,36490,1,0,0:0:0:0:
192,192,36690,1,4,3:0:0:0:
320,192,36890,1,2,3:0:0:0:
64,192,37090,128,2,37490:0:0:0:0:
448,192,37090,1,4,0:0:0:0:
192,192,37490,1,0,0:0:0:0:
448,192,37490,1,0,0:0:0:0:
320,192,37590,1,8,0:0:0:0:
64,192,37790,1,4,0:0:0:0:
192,192,37790,128,2,38090:0:0:0:0:
64,192,38090,1,2,0:0:0:0:
448,192,38090,1,0,0:0:0:0:
320,192,38290,1,2,0:0:0:0:
64,192,38490,1,8,0:0:0:0:
192,192,38690,1,2,0:0:0:0:
448,192,38690,128,4,39090:0:0:0:0:
64,192,39090,1,8,0:0:0:0:
192,192,39090,1,0,0:0:0:0:
320,192,39190,1,8,0:0:0:0:
64,192,39390,128,4,39690:0:0:0:0:
448,192,39390,1,2,0:0:0:0:
192,192,39690,1,8,3:0:0:0:
448,192,39890,1,4,3:0:0:0:
320,192,40090,1,0,0:0:0:0:
64,192,40290,1,2,0:0:0:0:
448,192,40290,1,4,0:0:0:0:
192,192,40490,1,8,0:0:0:0:
320,192,40690,1,8,0:0:0:0:
64,192,40790,1,8,0:0:0:0:
320,192,40990,1,8,0:0:0:0:
448,192,40990,1,0,0:0:0:0:
64,192,41190,1,8,0:0:0:0:
192,192,41190,1,0,0:0:0:0:
64,192,41390,1,8,0:0:0:0:
448,192,41390,128,0,41690:0:0:0:0:
320,192,41690,1,4,3:0:0:0:
192,192,41790,1,4,3:0:0:0:
64,192,41890,1,4,0:0:0:0:
448,192,41890,1,2,0:0:0:0:
320,192,42090,1,0,0:0:0:20:soft-hitclap.wav
64,192,42290,1,8,0:0:0:0:
448,192,42390,1,8,0:0:0:0:
192,192,42590,128,2,42890:0:0:0:0:
320,192,42590,1,4,0:0:0:0:
64,192,42890,1,4,3:0:0:0:
448,192,42890,1,0,0:0:0:0:
320,192,43090,1,2,0:0:0:0:
64,192,43290,1,8,0:0:0:0:
192,192,43490,1,8,3:0:0:0:
448,192,43490,128,0,43790:0:0:0:0:
64,192,43890,1,0,0:0:0:0:
320,192,43990,1,8,0:0:0:0:
64,192,44190,128,4,44490:0:0:0:0:
192,192,44190,1,2,0:0:0:0:
320,192,44490,1,2,0:0:0:0:
448,192,44490,1,0,0:0:0:0:
64,192,44690,1,2,0:0:0:0:
192,192,44690,1,0,0:0:0:0:
448,192,44890,1,8,0:0:0:0:
320,192,44990,1,8,0:0:0:0:
64,192,45090,1,2,0:0:0:0:
192,192,45090,1,4,0:0:0:0:
448,192,45290,1,0,0:0:0:40:Ride.wav
64,192,45490,1,0,0:0:0:0:
192,192,45690,1,0,0:0:0:40:Ride.wav
448,192,45890,1,0,0:0:0:0:
320,192,46090,1,0,0:0:0:40:Ride.wav
64,192,46290,1,0,0:0:0:0:
192,192,46490,1,0,0:0:0:40:Ride.wav
448,192,46690,128,0,47090:0:0:0:0:
320,192,47090,1,0,0:0:0:0:
192,192,47290,1,0,0:0:0:40:Ride.wav
64,192,47490,128,0,48090:0:0:0:0:
192,192,48090,1,0,0:0:0:40:Ride.wav
320,192,48290,1,6,0:0:0:0:
448,192,48290,1,0,0:0:0:40:Ride.wav
192,192,48490,1,8,0:0:0:0:
64,192,48590,1,8,0:0:0:0:
64,192,48890,1,8,0:0:0:0:
448,192,48890,1,0,0:0:0:0:
192,192,49090,1,2,0:0:0:0:
320,192,49190,1,8,0:0:0:0:
64,192,49490,1,8,0:0:0:0:
192,192,49490,1,0,0:0:0:0:
448,192,49690,1,8,3:0:0:0:
192,192,49890,1,8,0:0:0:0:
320,192,49990,1,8,0:0:0:0:
64,192,50090,1,8,0:0:0:0:
448,192,50190,1,10,0:0:0:0:
192,192,50290,1,8,0:0:0:0:
64,192,50690,128,2,50890:0:0:0:0:
320,192,50690,1,0,0:0:0:0:
192,192,50890,128,2,51090:0:0:0:0:
448,192,50890,1,0,0:0:0:0:
64,192,51090,1,2,0:0:0:0:
320,192,51090,128,0,51290:0:0:0:0:
192,192,51290,1,2,0:0:0:0:
448,192,51290,128,4,51690:0:0:0:0:
64,192,51690,1,8,0:0:0:0:
320,192,51690,1,0,0:0:0:40:Ride.wav
192,192,51890,1,0,0:0:0:0:
320,192,52090,1,2,0:0:0:0:
64,192,52290,1,8,0:0:0:0:
448,192,52290,128,0,52690:0:0:0:0:
192,192,52490,1,2,0:0:0:0:
320,192,52690,1,2,0:0:0:0:
64,192,52890,1,8,0:0:0:0:
192,192,52890,1,0,0:0:0:0:
320,192,52990,1,0,0:0:0:0:
448,192,53090,1,2,0:0:0:0:
64,192,53290,1,8,0:0:0:0:
320,192,53490,1,2,0:0:0:0:
448,192,53490,1,0,0:0:0:0:
192,192,53590,1,8,0:0:0:0:
64,192,53690,1,2,0:0:0:0:
64,192,53890,1,8,0:0:0:0:
448,192,53890,1,0,0:0:0:0:
320,192,54090,1,0,0:0:0:40:Ride.wav
64,192,54290,1,2,0:0:0:0:
192,192,54290,1,0,0:0:0:0:
320,192,54390,1,8,0:0:0:0:
448,192,54490,1,8,0:0:0:0:
64,192,54690,128,2,55690:0:0:0:0:
192,192,54690,1,4,0:0:0:0:
448,192,54890,1,8,0:0:0:0:
192,192,55090,1,0,0:0:0:0:
320,192,55290,1,2,0:0:0:0:
448,192,55490,1,8,0:0:0:0:
192,192,55690,1,2,0:0:0:0:
320,192,55890,1,2,0:0:0:0:
64,192,56090,1,8,0:0:0:0:
448,192,56090,128,0,56890:0:0:0:0:
320,192,56290,1,2,0:0:0:0:
192,192,56490,1,8,0:0:0:0:
64,192,56690,1,0,0:0:0:0:
320,192,56890,1,2,0:0:0:0:
64,192,57090,1,8,0:0:0:0:
192,192,57090,1,0,0:0:0:0:
320,192,57290,1,8,0:0:0:0:
448,192,57290,1,0,0:0:0:0:
192,192,57490,1,8,0:0:0:0:
448,192,57590,1,8,0:0:0:0:
64,192,57690,1,8,0:0:0:0:
320,192,57790,1,8,0:0:0:0:
64,192,57890,1,4,0:0:0:0:
192,192,57890,1,2,0:0:0:0:
320,192,58090,1,2,0:0:0:0:
448,192,58090,1,0,0:0:0:0:
64,192,58290,1,8,0:0:0:0:
192,192,58390,1,8,0:0:0:0:
320,192,58590,1,2,0:0:0:0:
448,192,58590,128,4,59090:0:0:0:0:
64,192,59090,1,0,0:0:0:0:
192,192,59290,1,4,3:0:0:0:
320,192,59490,1,4,0:0:0:0:
448,192,59490,1,2,0:0:0:0:
64,192,59690,1,8,0:0:0:0:
192,192,59690,1,0,0:0:0:0:
448,192,59890,1,8,0:0:0:0:
320,192,59990,1,8,0:0:0:0:
64,192,60190,128,2,60690:0:0:0:0:
192,192,60190,1,4,0:0:0:0:
448,192,60690,1,2,0:0:0:0:
320,192,60890,1,8,0:0:0:0:
64,192,61090,1,4,0:0:0:0:
192,192,61090,128,2,61490:0:0:0:0:
320,192,61490,1,0,0:0:0:0:
64,192,61690,1,2,0:0:0:0:
448,192,61690,128,0,62090:0:0:0:0:
320,192,62090,1,2,0:0:0:0:
64,192,62290,1,2,0:0:0:0:
448,192,62490,1,8,0:0:0:0:
192,192,62690,128,2,63090:0:0:0:0:
320,192,62690,1,0,0:0:0:0:
64,192,63090,1,0,0:0:0:0:
320,192,63090,128,0,63490:0:0:0:0:
192,192,63490,1,2,0:0:0:0:
448,192,63490,128,0,63890:0:0:0:0:
64,192,63890,1,2,0:0:0:0:
320,192,63890,1,0,0:0:0:40:Ride.wav
192,192,64090,128,8,64490:0:0:0:0:
448,192,64090,1,0,0:0:0:0:
320,192,64290,1,6,0:0:0:0:
64,192,64490,1,8,0:0:0:0:
448,192,64490,1,0,0:0:0:0:
192,192,64690,1,0,0:0:0:0:
320,192,64890,1,2,0:0:0:0:
64,192,65090,1,8,0:0:0:0:
448,192,65090,128,0,65490:0:0:0:0:
192,192,65290,1,2,0:0:0:0:
320,192,65490,1,2,0:0:0:0:
64,192,65690,1,8,0:0:0:0:
192,192,65690,1,0,0:0:0:0:
320,192,65790,1,0,0:0:0:0:
448,192,65890,1,2,0:0:0:0:
64,192,66090,1,8,0:0:0:0:
448,192,66290,1,2,0:0:0:0:
320,192,66390,1,8,0:0:0:0:
192,192,66490,1,2,0:0:0:0:
64,192,66690,1,8,0:0:0:0:
448,192,66690,1,0,0:0:0:0:
320,192,66890,1,0,0:0:0:0:
64,192,67090,1,2,0:0:0:0:
192,192,67090,1,0,0:0:0:0:
320,192,67190,1,8,0:0:0:0:
448,192,67290,1,8,0:0:0:0:
64,192,67490,128,2,68490:0:0:0:0:
192,192,67490,1,0,0:0:0:0:
448,192,67690,1,8,0:0:0:0:
192,192,67890,1,0,0:0:0:0:
320,192,68090,1,2,0:0:0:0:
448,192,68290,1,8,0:0:0:0:
192,192,68490,1,2,0:0:0:0:
320,192,68690,1,2,0:0:0:0:
64,192,68890,1,8,0:0:0:0:
448,192,68890,128,0,69890:0:0:0:0:
320,192,69090,1,2,0:0:0:0:
192,192,69290,1,8,0:0:0:0:
64,192,69490,1,2,0:0:0:0:
320,192,69690,1,2,0:0:0:0:
64,192,69890,1,8,0:0:0:0:
192,192,69890,1,0,0:0:0:0:
320,192,70090,1,8,0:0:0:0:
448,192,70090,1,0,0:0:0:0:
192,192,70290,1,8,0:0:0:0:
448,192,70390,1,8,0:0:0:0:
64,192,70490,1,8,0:0:0:0:
320,192,70590,1,8,0:0:0:0:
64,192,70690,1,4,0:0:0:0:
192,192,70690,1,2,0:0:0:0:
320,192,70890,1,2,0:0:0:0:
448,192,70890,1,0,0:0:0:0:
64,192,71090,1,8,0:0:0:0:
448,192,71190,1,8,0:0:0:0:
192,192,71390,1,2,0:0:0:0:
320,192,71390,1,4,0:0:0:0:
64,192,71690,1,4,3:0:0:0:
192,192,71890,1,2,0:0:0:0:
448,192,72090,1,8,0:0:0:0:
64,192,72290,1,4,0:0:0:0:
320,192,72290,1,2,0:0:0:0:
192,192,72490,1,8,0:0:0:0:
448,192,72690,1,8,0:0:0:0:
64,192,72790,1,8,0:0:0:0:
320,192,72990,1,2,0:0:0:0:
448,192,72990,1,4,0:0:0:0:
64,192,73290,1,2,0:0:0:0:
192,192,73490,1,2,0:0:0:0:
448,192,73690,1,8,0:0:0:0:
320,192,73790,1,8,0:0:0:0:
64,192,73890,1,2,0:0:0:0:
192,192,73890,1,4,0:0:0:0:
448,192,74090,1,8,0:0:0:0:
64,192,74290,1,0,0:0:0:0:
320,192,74490,1,2,0:0:0:0:
64,192,74690,1,8,0:0:0:0:
448,192,74690,1,0,0:0:0:0:
192,192,74890,1,2,0:0:0:0:
448,192,75090,1,8,0:0:0:0:
64,192,75290,1,8,0:0:0:0:
320,192,75490,1,2,0:0:0:0:
448,192,75490,128,0,75890:0:0:0:0:
64,192,76090,1,8,0:0:0:0:
192,192,76290,1,8,0:0:0:0:
320,192,76490,1,8,3:0:0:0:
448,192,76690,1,8,3:0:0:0:
192,192,76890,1,2,3:0:0:0:
64,192,77090,128,2,77890:0:0:0:0:
320,192,77090,1,4,0:0:0:0:
320,192,77490,1,6,0:0:0:0:
192,192,77890,128,4,78690:0:0:0:0:
448,192,77890,1,2,0:0:0:0:
448,192,78290,1,6,0:0:0:0:
64,192,78690,1,2,0:0:0:0:
320,192,78690,128,4,79490:0:0:0:0:
64,192,79090,1,6,0:0:0:0:
192,192,79490,1,4,0:0:0:0:
448,192,79490,128,2,80090:0:0:0:0:
192,192,79890,1,6,0:0:0:0:
64,192,80090,1,8,0:0:0:0:
320,192,80190,1,8,0:0:0:0:
448,192,80290,1,6,0:0:0:0:
192,192,80490,1,8,0:0:0:0:
64,192,80590,1,8,0:0:0:0:
448,192,80690,1,2,0:0:0:0:
64,192,80890,1,8,0:0:0:0:
192,192,80990,1,8,0:0:0:0:
320,192,81090,1,6,0:0:0:0:
448,192,81290,1,8,0:0:0:0:
64,192,81390,1,8,0:0:0:0:
320,192,81490,1,8,0:0:0:0:
192,192,81590,1,8,0:0:0:0:
448,192,81690,128,8,81890:0:0:0:0:
320,192,81890,1,8,0:0:0:0:
64,192,82090,1,2,0:0:0:0:
192,192,82090,1,0,0:0:0:0:
320,192,82290,1,2,0:0:0:0:
448,192,82290,1,4,0:0:0:0:
320,192,82690,1,8,0:0:0:0:
448,192,82690,1,0,0:0:0:0:
64,192,82890,1,2,0:0:0:0:
192,192,82890,1,0,0:0:0:0:
64,192,83190,1,4,0:0:0:0:
192,192,83190,1,2,0:0:0:0:
320,192,83490,1,2,0:0:0:0:
448,192,83490,1,4,0:0:0:0:
64,192,83690,1,8,0:0:0:0:
320,192,83790,1,0,0:0:0:20:soft-hitclap.wav
192,192,83990,1,8,0:0:0:0:
320,192,84290,1,8,0:0:0:0:
64,192,84584,1,8,0:0:0:0:
448,192,84878,1,8,0:0:0:0:
320,192,85074,128,2,85482:0:0:0:0:
64,192,85482,1,2,0:0:0:0:
192,192,85686,128,2,86094:0:0:0:0:
320,192,86094,1,2,0:0:0:0:
64,192,86298,128,4,86706:0:0:0:0:
448,192,86298,1,2,0:0:0:0:
