osu file format v14

[General]
AudioFilename: audio.mp3
AudioLeadIn: 0
PreviewTime: 50590
Countdown: 0
SampleSet: Soft
StackLeniency: 0.7
Mode: 3
LetterboxInBreaks: 0
SpecialStyle: 0
WidescreenStoryboard: 1

[Editor]
Bookmarks: 9890,22690,35490,45090
DistanceSpacing: 0.7
BeatDivisor: 8
GridSize: 4
TimelineZoom: 2.799999

[Metadata]
Title:Mixed Nuts (TV Size)
TitleUnicode:ミックスナッツ (TV Size)
Artist:Official HIGE DANdism
ArtistUnicode:Official髭男dism
Creator:Kibitz
Version:CODE NAME : MD's HARD
Source:SPY×FAMILY
Tags:Yoru Yor Forger Briar ヨル・フォージャー ヨル・ブライア Spy Family スパイファミリー Higedan Anime Japanese Pop J-pop Jpop Opening OP Jazz Thorn Princess Assassin Hitman Peanuts Loid ロイド・フォージャー Anya アーニャ・フォージャー Twilight SpyxFamily Muse Dash Ballistic Mirsaaa 藤原聡 Fujihara Satoshi
BeatmapID:3593845
BeatmapSetID:1756056

[Difficulty]
HPDrainRate:8
CircleSize:4
OverallDifficulty:8
ApproachRate:5
SliderMultiplier:1.4
SliderTickRate:1

[Events]
//Background and Video events
Video,-98,"smallnut.mp4"
0,0,"MD.jpg",0,0
//Break Periods
//Storyboard Layer 0 (Background)
//Storyboard Layer 1 (Fail)
//Storyboard Layer 2 (Pass)
//Storyboard Layer 3 (Foreground)
//Storyboard Layer 4 (Overlay)
//Storyboard Sound Samples
Sample,12490,0,"Ride.wav",40
Sample,12890,0,"Ride.wav",40
Sample,15290,0,"Ride.wav",40
Sample,15690,0,"Ride.wav",40
Sample,16090,0,"Ride.wav",40
Sample,21290,0,"Ride.wav",40
Sample,21690,0,"Ride.wav",40
Sample,24890,0,"Ride.wav",40
Sample,25290,0,"Ride.wav",40
Sample,26890,0,"Ride.wav",40
Sample,27290,0,"Ride.wav",40
Sample,28490,0,"Ride.wav",40
Sample,28890,0,"Ride.wav",40
Sample,31290,0,"Ride.wav",40
Sample,52490,0,"Ride.wav",40
Sample,54490,0,"Ride.wav",40
Sample,55290,0,"Ride.wav",40
Sample,56890,0,"Ride.wav",40
Sample,68090,0,"Ride.wav",40
Sample,68690,0,"Ride.wav",40
Sample,69690,0,"Ride.wav",40

[TimingPoints]
290,413.080895008606,4,2,1,60,1,0
290,-97.0873786407767,4,2,1,60,0,0
1940,400,4,2,1,60,1,0
4290,400,4,2,1,60,1,8
4865,400,4,2,1,60,1,8
5090,400,4,2,1,60,1,0
6690,387.096774193548,4,2,1,60,1,0
6690,-103.092783505155,4,2,1,60,0,0
8240,412.371134020619,4,2,1,60,1,0
8240,-97.0873786407767,4,2,1,60,0,0
9890,400,4,2,1,60,1,0
84290,392.156862745098,4,2,1,70,1,8
84290,-102.040816326531,4,2,1,70,0,0
85074,408.163265306122,4,2,1,70,1,0
85074,-98.0392156862745,4,2,1,70,0,0

[HitObjects]
320,192,290,5,2,0:0:0:0:
448,192,290,128,4,1940:0:0:0:0:
64,192,548,1,0,0:0:0:0:
192,192,703,1,0,0:0:0:0:
320,192,857,1,0,0:0:0:40:Ride.wav
64,192,1116,1,0,0:0:0:0:
320,192,1271,1,0,0:0:0:40:Ride.wav
192,192,1391,1,0,0:0:0:0:
192,192,1684,1,0,0:0:0:40:Ride.wav
64,192,1940,128,0,2206:0:0:0:0:
320,192,2090,1,0,0:0:0:40:Ride.wav
192,192,2206,128,0,2473:0:0:0:0:
320,192,2473,128,0,2740:0:0:0:0:
448,192,2740,128,0,2890:0:0:0:0:
64,192,2890,1,0,0:0:0:40:Ride.wav
448,192,3006,128,0,3290:0:0:0:0:
192,192,3140,1,0,0:0:0:0:
64,192,3290,128,0,3440:0:0:0:40:Ride.wav
64,192,3540,128,0,3673:0:0:0:0:
320,192,3673,1,0,0:0:0:0:
192,192,3762,1,0,0:0:0:0:
448,192,3851,1,0,0:0:0:0:
320,192,3940,1,0,0:0:0:0:
64,192,4028,1,0,0:0:0:0:
192,192,4117,1,0,0:0:0:0:
320,192,4206,1,0,0:0:0:0:
64,192,4290,1,0,0:0:0:0:
448,192,4290,1,0,0:0:0:0:
448,192,4490,1,0,0:0:0:40:Ride.wav
64,192,4690,1,0,0:0:0:0:
64,192,4865,1,0,0:0:0:40:Ride.wav
448,192,4865,1,0,0:0:0:0:
448,192,5090,1,0,0:0:0:0:
192,192,5190,1,0,0:0:0:0:
320,192,5290,1,0,0:0:0:40:Ride.wav
64,192,5390,1,0,0:0:0:0:
448,192,5490,128,0,5890:0:0:0:0:
192,192,5690,1,0,0:0:0:40:Ride.wav
64,192,5890,128,0,6290:0:0:0:0:
448,192,6090,1,0,0:0:0:40:Ride.wav
320,192,6290,128,0,6690:0:0:0:0:
192,192,6490,1,0,0:0:0:40:Ride.wav
64,192,6690,1,2,0:0:0:0:
448,192,6690,1,4,0:0:0:0:
64,192,6883,1,8,0:0:0:0:
192,192,6883,1,0,0:0:0:0:
192,192,7077,1,0,0:0:0:20:soft-hitclap.wav
320,192,7173,1,8,0:0:0:0:
448,192,7173,1,0,0:0:0:0:
64,192,7270,1,0,0:0:0:20:soft-hitclap.wav
448,192,7367,1,0,0:0:0:20:soft-hitclap.wav
192,192,7464,1,8,0:0:0:0:
320,192,7464,1,0,0:0:0:0:
64,192,7560,1,0,0:0:0:20:soft-hitclap.wav
320,192,7657,1,0,0:0:0:20:soft-hitclap.wav
64,192,7754,1,8,0:0:0:0:
192,192,7754,1,0,0:0:0:0:
448,192,7851,1,0,0:0:0:20:soft-hitclap.wav
64,192,7948,1,0,0:0:0:20:soft-hitclap.wav
320,192,8044,1,8,0:0:0:0:
448,192,8044,1,0,0:0:0:0:
64,192,8240,1,0,0:0:0:0:
448,192,8240,1,0,0:0:0:0:
320,192,8343,128,0,8583:0:0:0:0:
64,192,8583,1,8,0:0:0:0:
192,192,8583,1,0,0:0:0:0:
320,192,8652,1,8,0:0:0:0:
448,192,8652,128,0,8858:0:0:0:0:
64,192,8996,1,8,0:0:0:0:
192,192,8996,1,0,0:0:0:0:
320,192,9064,1,8,0:0:0:0:
448,192,9064,1,0,0:0:0:0:
192,192,9167,128,8,9374:3:0:0:0:
320,192,9374,1,8,0:0:0:0:
448,192,9374,1,0,0:0:0:0:
192,192,9477,1,10,0:0:0:0:
64,192,9580,128,2,9786:0:0:0:0:
448,192,9580,1,0,0:0:0:0:
64,192,9889,128,0,10090:0:0:0:0:
448,192,9889,128,0,10090:0:0:0:0:
192,192,10090,128,0,10290:0:0:0:40:Ride.wav
320,192,10290,128,0,10490:0:0:0:0:
448,192,10490,128,0,10690:0:0:0:40:Ride.wav
320,192,10690,128,0,10890:0:0:0:0:
192,192,10890,128,0,11090:0:0:0:40:Ride.wav
64,192,11090,128,0,11290:0:0:0:0:
320,192,11290,128,0,11490:0:0:0:40:Ride.wav
64,192,11490,128,0,11890:0:0:0:0:
320,192,11690,1,0,0:0:0:40:Ride.wav
448,192,11890,128,0,12290:0:0:0:0:
64,192,12090,1,0,0:0:0:40:Ride.wav
320,192,12290,128,0,12690:0:0:0:0:
192,192,12490,1,0,0:0:0:20:soft-hitclap.wav
64,192,12690,128,0,12890:0:0:0:20:soft-hitclap.wav
192,192,12890,128,0,13090:0:0:0:20:soft-hitclap.wav
448,192,13090,128,0,13490:0:0:0:0:
64,192,13290,1,0,0:0:0:40:Ride.wav
192,192,13490,128,0,13890:0:0:0:0:
320,192,13690,1,0,0:0:0:40:Ride.wav
192,192,14090,1,0,0:0:0:40:Ride.wav
320,192,14290,128,0,14490:0:0:0:20:soft-hitclap.wav
64,192,14490,1,0,0:0:0:40:Ride.wav
320,192,14690,128,0,15290:0:0:0:20:soft-hitclap.wav
192,192,14990,1,0,0:0:0:20:soft-hitclap.wav
64,192,15290,128,0,15490:0:0:0:20:soft-hitclap.wav
448,192,15490,128,0,15890:0:0:0:20:soft-hitclap.wav
64,192,15690,1,0,0:0:0:20:soft-hitclap.wav
192,192,16090,1,0,0:0:0:20:soft-hitclap.wav
192,192,16290,128,0,16490:0:0:0:20:soft-hitclap.wav
320,192,16490,1,0,0:0:0:40:Ride.wav
64,192,16590,1,0,0:0:0:20:soft-hitclap.wav
448,192,16890,1,0,0:0:0:40:Ride.wav
448,192,17090,128,0,17290:0:0:0:0:
64,192,17290,1,0,0:0:0:40:Ride.wav
192,192,17490,128,0,17690:0:0:0:0:
320,192,17690,128,0,17890:0:0:0:40:Ride.wav
448,192,17890,128,0,18290:0:0:0:0:
192,192,18090,1,0,0:0:0:40:Ride.wav
64,192,18290,128,0,18490:0:0:0:0:
320,192,18490,128,0,18690:0:0:0:40:Ride.wav
64,192,18690,128,0,19090:0:0:0:0:
320,192,18890,1,0,0:0:0:40:Ride.wav
448,192,19090,128,0,19290:0:0:0:0:
192,192,19290,128,0,19490:0:0:0:40:Ride.wav
448,192,19490,128,0,19890:0:0:0:20:soft-hitclap.wav
192,192,19690,1,0,0:0:0:40:Ride.wav
192,192,20090,128,0,20290:0:0:0:40:Ride.wav
320,192,20290,128,0,20690:0:0:0:0:
64,192,20490,1,0,0:0:0:40:Ride.wav
448,192,20690,1,0,0:0:0:0:
64,192,20890,1,0,0:0:0:40:Ride.wav
64,192,21090,128,0,21290:0:0:0:20:soft-hitclap.wav
320,192,21290,1,0,0:0:0:20:soft-hitclap.wav
192,192,21390,1,0,0:0:0:0:
448,192,21490,1,0,0:0:0:20:soft-hitclap.wav
64,192,21590,1,0,0:0:0:0:
192,192,21690,1,0,0:0:0:20:soft-hitclap.wav
320,192,21790,1,0,0:0:0:0:
64,192,21890,1,4,0:0:0:0:
448,192,21890,1,2,0:0:0:0:
64,192,22090,1,8,0:0:0:0:
192,192,22090,1,0,0:0:0:0:
448,192,22190,1,8,0:0:0:0:
192,192,22290,1,0,0:0:0:0:
320,192,22390,1,8,0:0:0:0:
448,192,22390,1,0,0:0:0:0:
64,192,22490,1,8,0:0:0:0:
320,192,22590,1,0,0:0:0:0:
64,192,22690,128,2,22890:0:0:0:0:
448,192,22690,128,0,22890:0:0:0:20:soft-hitfinish.wav
320,192,22890,128,0,23090:0:0:0:40:Ride.wav
192,192,23090,128,0,23290:0:0:0:0:
64,192,23290,128,0,23490:0:0:0:40:Ride.wav
192,192,23490,128,0,23690:0:0:0:0:
320,192,23690,128,0,23890:0:0:0:40:Ride.wav
448,192,23890,128,0,24090:0:0:0:0:
192,192,24090,128,0,24290:0:0:0:40:Ride.wav
448,192,24290,128,0,24690:0:0:0:20:soft-hitclap.wav
192,192,24490,1,0,0:0:0:40:Ride.wav
64,192,24690,128,0,25090:0:0:0:0:
448,192,24890,1,0,0:0:0:20:soft-hitclap.wav
192,192,25090,128,0,25490:0:0:0:20:soft-hitclap.wav
320,192,25290,1,0,0:0:0:20:soft-hitclap.wav
448,192,25490,128,0,25690:0:0:0:20:soft-hitclap.wav
320,192,25690,128,0,25890:0:0:0:40:Ride.wav
64,192,25890,128,0,26290:0:0:0:0:
448,192,26090,1,0,0:0:0:40:Ride.wav
320,192,26290,128,0,26690:0:0:0:0:
192,192,26490,1,0,0:0:0:40:Ride.wav
448,192,26690,1,0,0:0:0:0:
64,192,26890,1,0,0:0:0:20:soft-hitclap.wav
320,192,26990,1,0,0:0:0:20:soft-hitclap.wav
192,192,27090,128,0,27290:0:0:0:20:soft-hitclap.wav
448,192,27290,1,0,0:0:0:20:soft-hitclap.wav
192,192,27490,128,0,28090:0:0:0:20:soft-hitclap.wav
320,192,27690,1,0,0:0:0:40:Ride.wav
64,192,27890,1,0,0:0:0:0:
448,192,28090,128,0,28290:0:0:0:40:Ride.wav
64,192,28290,128,0,28690:0:0:0:0:
448,192,28490,1,0,0:0:0:20:soft-hitclap.wav
192,192,28690,1,0,0:0:0:20:soft-hitclap.wav
320,192,28890,1,0,0:0:0:20:soft-hitclap.wav
320,192,29090,128,0,29290:0:0:0:0:
64,192,29290,1,0,0:0:0:40:Ride.wav
448,192,29390,1,0,0:0:0:0:
192,192,29490,1,0,0:0:0:0:
320,192,29590,1,0,0:0:0:0:
64,192,29690,1,0,0:0:0:40:Ride.wav
448,192,29790,1,0,0:0:0:0:
192,192,29890,128,0,30090:0:0:0:0:
448,192,30090,128,0,30290:0:0:0:40:Ride.wav
192,192,30290,128,0,30490:0:0:0:0:
448,192,30490,128,0,30690:0:0:0:40:Ride.wav
64,192,30690,128,0,31090:0:0:0:0:
320,192,30890,1,0,0:0:0:40:Ride.wav
448,192,31090,128,0,31290:0:0:0:20:soft-hitclap.wav
192,192,31290,1,0,0:0:0:20:soft-hitclap.wav
320,192,31390,1,0,0:0:0:20:soft-hitclap.wav
448,192,31490,128,0,31890:0:0:0:0:
192,192,31690,1,0,0:0:0:40:Ride.wav
64,192,31890,1,0,0:0:0:0:
192,192,31990,1,0,0:0:0:0:
320,192,32090,128,0,32290:0:0:0:40:Ride.wav
64,192,32290,128,0,32690:0:0:0:0:
320,192,32490,1,0,0:0:0:40:Ride.wav
448,192,32690,1,0,0:0:0:0:
192,192,32790,1,0,0:0:0:0:
320,192,32890,128,0,33090:0:0:0:40:Ride.wav
192,192,33090,128,0,33490:0:0:0:0:
448,192,33290,1,0,0:0:0:40:Ride.wav
64,192,33490,1,0,0:0:0:0:
448,192,33590,1,0,0:0:0:0:
192,192,33690,1,0,0:0:0:40:Ride.wav
320,192,33690,128,0,33890:0:0:0:0:
64,192,33890,1,2,0:0:0:0:
448,192,33890,128,4,34090:0:0:0:0:
192,192,34090,1,8,0:0:0:0:
320,192,34190,1,8,0:0:0:0:
448,192,34190,1,0,0:0:0:0:
64,192,34290,1,0,0:0:0:0:
448,192,34390,1,0,0:0:0:0:
64,192,34490,1,8,0:0:0:0:
192,192,34490,1,4,0:0:0:0:
320,192,34590,1,0,0:0:0:0:
64,192,34690,1,8,0:0:0:0:
192,192,34790,1,8,0:0:0:0:
320,192,34790,1,0,0:0:0:0:
448,192,34890,1,0,0:0:0:0:
192,192,34990,1,8,0:0:0:0:
320,192,35090,1,8,0:0:0:0:
448,192,35090,1,0,0:0:0:0:
64,192,35190,1,8,0:0:0:0:
320,192,35290,1,8,3:0:0:0:
192,192,35390,1,4,3:0:0:0:
64,192,35490,1,4,0:0:0:0:
320,192,35490,128,2,35890:0:0:0:0:
192,192,35890,1,8,0:0:0:0:
448,192,35990,1,8,0:0:0:0:
64,192,36090,1,0,0:0:0:0:
192,192,36190,128,2,36490:0:0:0:0:
320,192,36190,1,4,0:0:0:0:
448,192,36490,1,8,3:0:0:0:
64,192,36590,1,4,3:0:0:0:
320,192,36690,1,4,3:0:0:0:
192,192,36790,1,2,3:0:0:0:
448,192,36890,1,2,3:0:0:0:
320,192,36990,1,8,3:0:0:0:
64,192,37090,128,2,37290:0:0:0:0:
192,192,37090,1,4,0:0:0:0:
320,192,37290,1,8,0:0:0:0:
192,192,37390,1,8,0:0:0:0:
448,192,37490,1,0,0:0:0:0:
64,192,37590,1,8,0:0:0:0:
192,192,37690,1,8,0:0:0:0:
320,192,37790,1,4,0:0:0:0:
448,192,37790,128,2,38090:0:0:0:0:
64,192,38090,1,2,0:0:0:0:
192,192,38090,128,0,38290:0:0:0:0:
320,192,38290,128,2,38490:0:0:0:0:
448,192,38290,1,0,0:0:0:0:
64,192,38490,1,8,0:0:0:0:
448,192,38590,1,8,0:0:0:0:
64,192,38690,1,2,0:0:0:0:
192,192,38690,1,4,0:0:0:0:
320,192,38790,1,0,0:0:0:20:soft-hitclap.wav
64,192,38890,1,0,0:0:0:20:soft-hitclap.wav
448,192,38990,1,0,0:0:0:0:
192,192,39090,1,8,0:0:0:0:
320,192,39190,1,8,0:0:0:0:
448,192,39190,1,0,0:0:0:0:
64,192,39390,128,4,39690:0:0:0:0:
448,192,39390,1,2,0:0:0:0:
320,192,39690,1,8,3:0:0:0:
320,192,39890,1,4,3:0:0:0:
192,192,40090,1,0,0:0:0:0:
320,192,40190,1,0,0:0:0:0:
64,192,40290,1,2,0:0:0:0:
448,192,40290,1,4,0:0:0:0:
192,192,40390,1,8,0:0:0:0:
320,192,40490,1,8,0:0:0:0:
448,192,40590,1,8,0:0:0:0:
64,192,40690,1,8,0:0:0:0:
192,192,40690,1,0,0:0:0:0:
320,192,40790,1,8,0:0:0:0:
192,192,40890,1,2,0:0:0:0:
64,192,40990,1,8,0:0:0:0:
448,192,41090,1,0,0:0:0:0:
64,192,41190,1,8,0:0:0:0:
192,192,41290,1,0,0:0:0:0:
64,192,41390,128,8,41690:0:0:0:0:
320,192,41390,1,0,0:0:0:0:
448,192,41490,128,0,41690:0:0:0:0:
192,192,41690,1,4,3:0:0:0:
320,192,41790,1,4,3:0:0:0:
64,192,41890,1,4,0:0:0:0:
192,192,41890,128,2,42290:0:0:0:0:
320,192,42290,1,8,0:0:0:0:
64,192,42390,1,8,0:0:0:0:
448,192,42490,1,0,0:0:0:0:
192,192,42590,1,2,0:0:0:0:
320,192,42590,128,4,42890:0:0:0:0:
64,192,42890,1,4,3:0:0:0:
448,192,42990,1,0,0:0:0:0:
192,192,43090,1,2,0:0:0:0:
320,192,43190,1,4,3:0:0:0:
64,192,43290,1,8,0:0:0:0:
192,192,43390,1,0,0:0:0:0:
320,192,43490,1,8,3:0:0:0:
448,192,43490,128,0,43690:0:0:0:0:
192,192,43690,1,8,0:0:0:0:
320,192,43790,1,8,0:0:0:0:
64,192,43890,1,0,0:0:0:0:
448,192,43990,1,8,0:0:0:0:
320,192,44090,1,8,0:0:0:0:
64,192,44190,128,4,44490:0:0:0:0:
192,192,44190,1,2,0:0:0:0:
320,192,44490,128,2,44690:0:0:0:0:
448,192,44490,1,0,0:0:0:0:
64,192,44690,1,2,0:0:0:0:
192,192,44690,128,0,44890:0:0:0:0:
448,192,44890,1,8,0:0:0:0:
64,192,44990,1,8,0:0:0:0:
192,192,45090,1,2,0:0:0:0:
320,192,45090,1,4,0:0:0:0:
448,192,45290,128,0,45490:0:0:0:40:Ride.wav
320,192,45490,128,0,45690:0:0:0:0:
192,192,45690,128,0,45890:0:0:0:40:Ride.wav
64,192,45890,1,0,0:0:0:0:
64,192,46090,128,0,46290:0:0:0:40:Ride.wav
192,192,46290,128,0,46490:0:0:0:0:
320,192,46490,128,0,46690:0:0:0:40:Ride.wav
448,192,46690,128,0,47090:0:0:0:0:
64,192,46890,1,0,0:0:0:40:Ride.wav
192,192,47090,128,0,47290:0:0:0:0:
320,192,47290,128,0,47490:0:0:0:40:Ride.wav
64,192,47490,128,0,48090:0:0:0:0:
192,192,47690,1,0,0:0:0:40:Ride.wav
320,192,47890,1,0,0:0:0:0:
448,192,48090,1,0,0:0:0:40:Ride.wav
64,192,48290,1,6,0:0:0:0:
448,192,48290,1,0,0:0:0:40:Ride.wav
64,192,48490,1,8,0:0:0:0:
320,192,48590,1,8,0:0:0:0:
448,192,48590,1,0,0:0:0:0:
192,192,48790,1,0,0:0:0:0:
64,192,48890,1,8,0:0:0:0:
448,192,48890,1,0,0:0:0:0:
320,192,49090,1,2,0:0:0:0:
64,192,49190,1,8,0:0:0:0:
192,192,49190,1,0,0:0:0:0:
192,192,49390,1,0,0:0:0:0:
320,192,49490,1,8,0:0:0:0:
448,192,49490,1,0,0:0:0:0:
64,192,49590,1,8,0:0:0:0:
320,192,49690,1,8,3:0:0:0:
192,192,49790,1,8,3:0:0:0:
64,192,49890,1,8,0:0:0:0:
448,192,49890,1,0,0:0:0:0:
320,192,49990,1,8,0:0:0:0:
192,192,50090,1,8,0:0:0:0:
64,192,50190,1,10,0:0:0:0:
192,192,50290,1,8,0:0:0:0:
320,192,50290,128,0,50490:0:0:0:0:
64,192,50690,128,2,50890:0:0:0:0:
448,192,50690,1,0,0:0:0:0:
192,192,50890,128,2,51090:0:0:0:0:
320,192,50890,1,0,0:0:0:0:
64,192,51090,1,2,0:0:0:0:
320,192,51090,128,0,51290:0:0:0:0:
64,192,51290,128,2,51690:0:0:0:0:
192,192,51290,1,4,0:0:0:0:
448,192,51290,128,0,51690:0:0:0:0:
192,192,51690,128,8,51890:0:0:0:0:
320,192,51690,1,0,0:0:0:40:Ride.wav
448,192,51890,1,0,0:0:0:0:
64,192,51990,1,8,0:0:0:0:
192,192,51990,1,0,0:0:0:0:
320,192,52090,1,2,0:0:0:0:
448,192,52090,128,0,52290:0:0:0:40:Ride.wav
64,192,52290,128,8,52690:0:0:0:0:
192,192,52290,1,0,0:0:0:0:
448,192,52490,1,2,0:0:0:0:
192,192,52690,128,2,52890:0:0:0:0:
320,192,52690,1,0,0:0:0:0:
64,192,52890,1,8,0:0:0:0:
448,192,52890,1,0,0:0:0:0:
192,192,52990,1,8,0:0:0:0:
320,192,53090,128,2,53290:0:0:0:0:
448,192,53090,1,0,0:0:0:0:
64,192,53290,128,8,53490:0:0:0:0:
192,192,53290,1,0,0:0:0:40:Ride.wav
448,192,53490,1,2,0:0:0:0:
64,192,53590,1,8,0:0:0:0:
192,192,53590,1,0,0:0:0:0:
320,192,53690,1,2,0:0:0:0:
448,192,53690,1,0,0:0:0:40:Ride.wav
64,192,53890,1,8,0:0:0:0:
448,192,53890,1,0,0:0:0:0:
320,192,53990,1,2,0:0:0:0:
192,192,54090,1,0,0:0:0:40:Ride.wav
320,192,54190,1,8,0:0:0:0:
64,192,54290,1,2,0:0:0:0:
448,192,54290,1,0,0:0:0:0:
192,192,54390,1,8,0:0:0:0:
320,192,54490,1,8,0:0:0:0:
192,192,54590,1,8,0:0:0:0:
64,192,54690,128,2,55690:0:0:0:0:
448,192,54690,1,4,0:0:0:0:
192,192,54890,1,8,0:0:0:0:
320,192,54890,1,0,0:0:0:40:Ride.wav
192,192,55090,1,0,0:0:0:0:
320,192,55190,1,8,0:0:0:0:
448,192,55290,1,2,0:0:0:0:
320,192,55490,1,8,0:0:0:0:
448,192,55490,1,0,0:0:0:0:
448,192,55690,1,2,0:0:0:0:
64,192,55790,1,8,0:0:0:0:
320,192,55890,1,2,0:0:0:0:
192,192,55990,1,8,0:0:0:0:
448,192,56090,1,8,0:0:0:0:
64,192,56190,1,8,0:0:0:0:
320,192,56290,1,2,0:0:0:0:
448,192,56290,128,0,57090:0:0:0:0:
64,192,56490,1,8,0:0:0:0:
192,192,56490,1,0,0:0:0:40:Ride.wav
64,192,56690,1,0,0:0:0:0:
320,192,56790,1,8,0:0:0:0:
192,192,56890,1,2,0:0:0:0:
192,192,57090,1,8,0:0:0:0:
320,192,57090,128,0,57290:0:0:0:0:
64,192,57290,1,8,0:0:0:0:
448,192,57390,1,8,0:0:0:0:
192,192,57490,1,8,0:0:0:0:
320,192,57590,1,8,0:0:0:0:
64,192,57690,1,8,0:0:0:0:
192,192,57790,1,8,0:0:0:0:
320,192,57890,128,4,58290:0:0:0:0:
448,192,57890,1,2,0:0:0:0:
192,192,58090,1,2,0:0:0:0:
64,192,58290,1,8,0:0:0:0:
448,192,58290,1,0,0:0:0:0:
192,192,58390,128,8,58590:0:0:0:0:
320,192,58390,1,0,0:0:0:0:
64,192,58590,128,2,58890:0:0:0:0:
448,192,58590,128,4,58890:0:0:0:0:
192,192,58890,1,8,3:0:0:0:
320,192,58990,1,4,3:0:0:0:
64,192,59090,1,0,0:0:0:0:
192,192,59190,1,4,3:0:0:0:
448,192,59290,1,4,3:0:0:0:
320,192,59390,1,0,0:0:0:0:
64,192,59490,1,4,0:0:0:0:
192,192,59490,128,2,59690:0:0:0:0:
448,192,59690,1,8,0:0:0:0:
64,192,59790,1,0,0:0:0:0:
320,192,59890,1,8,0:0:0:0:
64,192,59990,1,8,0:0:0:0:
192,192,59990,128,0,60190:0:0:0:0:
64,192,60190,128,2,60490:0:0:0:0:
448,192,60190,128,4,60490:0:0:0:0:
192,192,60490,1,2,0:0:0:0:
320,192,60490,1,0,0:0:0:0:
320,192,60690,1,2,0:0:0:0:
448,192,60690,128,0,60890:0:0:0:0:
64,192,60890,1,8,0:0:0:0:
192,192,60990,1,8,0:0:0:0:
320,192,60990,1,0,0:0:0:0:
64,192,61090,128,4,61290:0:0:0:0:
448,192,61090,1,2,0:0:0:0:
192,192,61290,1,8,0:0:0:0:
320,192,61290,128,0,61490:0:0:0:40:Ride.wav
448,192,61490,1,0,0:0:0:0:
64,192,61590,1,8,0:0:0:0:
192,192,61690,1,2,0:0:0:0:
320,192,61690,128,0,61890:0:0:0:0:
192,192,61890,128,8,62090:0:0:0:0:
448,192,61890,1,0,0:0:0:0:
64,192,62090,128,2,62290:0:0:0:0:
448,192,62090,1,0,0:0:0:40:Ride.wav
320,192,62290,1,2,0:0:0:0:
192,192,62390,1,8,0:0:0:0:
448,192,62490,1,8,0:0:0:0:
320,192,62590,1,8,0:0:0:0:
64,192,62690,128,2,62890:0:0:0:0:
192,192,62690,1,0,0:0:0:0:
320,192,62890,1,8,0:0:0:0:
448,192,62890,1,0,0:0:0:0:
192,192,62990,1,8,0:0:0:0:
320,192,63090,1,0,0:0:0:0:
64,192,63190,1,8,0:0:0:0:
192,192,63190,1,0,0:0:0:0:
448,192,63290,1,8,0:0:0:0:
64,192,63390,1,8,0:0:0:0:
320,192,63490,1,2,0:0:0:0:
448,192,63490,1,0,0:0:0:0:
192,192,63590,1,8,0:0:0:0:
448,192,63690,1,8,0:0:0:0:
64,192,63790,1,8,0:0:0:0:
320,192,63890,1,2,0:0:0:0:
448,192,63890,128,0,64090:0:0:0:40:Ride.wav
64,192,64090,1,8,0:0:0:0:
320,192,64090,128,0,64290:0:0:0:0:
64,192,64290,128,2,64490:0:0:0:0:
192,192,64290,1,4,0:0:0:0:
448,192,64290,128,0,64490:0:0:0:0:
192,192,64490,1,8,0:0:0:0:
320,192,64490,128,0,64690:0:0:0:0:
64,192,64690,1,0,0:0:0:0:
320,192,64790,1,8,0:0:0:0:
448,192,64790,1,0,0:0:0:0:
64,192,64890,128,2,65090:0:0:0:0:
192,192,64890,1,0,0:0:0:40:Ride.wav
320,192,65090,1,8,0:0:0:0:
448,192,65090,128,0,65490:0:0:0:0:
64,192,65290,1,2,0:0:0:0:
192,192,65490,1,2,0:0:0:0:
320,192,65490,128,0,65690:0:0:0:0:
64,192,65690,1,8,0:0:0:0:
448,192,65690,1,0,0:0:0:0:
320,192,65790,1,8,0:0:0:0:
64,192,65890,1,2,0:0:0:0:
192,192,65890,128,0,66090:0:0:0:0:
320,192,66090,1,8,0:0:0:0:
448,192,66090,128,0,66290:0:0:0:0:
64,192,66290,1,2,0:0:0:0:
320,192,66390,1,8,0:0:0:0:
448,192,66390,1,0,0:0:0:0:
64,192,66490,1,2,0:0:0:0:
192,192,66490,1,0,0:0:0:40:Ride.wav
64,192,66690,1,8,0:0:0:0:
448,192,66690,1,0,0:0:0:0:
192,192,66790,1,2,0:0:0:0:
320,192,66890,1,0,0:0:0:0:
192,192,66990,1,8,0:0:0:0:
64,192,67090,1,2,0:0:0:0:
448,192,67090,1,0,0:0:0:0:
320,192,67190,1,8,0:0:0:0:
192,192,67290,1,8,0:0:0:0:
320,192,67390,1,8,0:0:0:0:
64,192,67490,1,2,0:0:0:0:
448,192,67490,128,0,68490:0:0:0:0:
192,192,67690,1,8,0:0:0:0:
320,192,67690,1,0,0:0:0:40:Ride.wav
320,192,67890,1,0,0:0:0:0:
192,192,67990,1,8,0:0:0:0:
64,192,68090,1,2,0:0:0:0:
64,192,68290,1,8,0:0:0:0:
192,192,68290,1,0,0:0:0:0:
64,192,68490,1,2,0:0:0:0:
448,192,68590,1,8,0:0:0:0:
192,192,68690,1,2,0:0:0:0:
320,192,68790,1,8,0:0:0:0:
64,192,68890,1,8,0:0:0:0:
448,192,68990,1,8,0:0:0:0:
64,192,69090,128,2,69890:0:0:0:0:
192,192,69090,1,0,0:0:0:0:
320,192,69290,1,8,0:0:0:0:
448,192,69290,1,0,0:0:0:40:Ride.wav
448,192,69490,1,2,0:0:0:0:
192,192,69590,1,8,0:0:0:0:
320,192,69690,1,2,0:0:0:0:
192,192,69890,128,8,70090:0:0:0:0:
320,192,69890,1,0,0:0:0:0:
448,192,70090,1,8,0:0:0:0:
64,192,70190,1,8,0:0:0:0:
320,192,70290,1,8,0:0:0:0:
192,192,70390,1,8,0:0:0:0:
448,192,70490,1,8,0:0:0:0:
320,192,70590,1,8,0:0:0:0:
64,192,70690,1,4,0:0:0:0:
192,192,70690,128,2,70890:0:0:0:0:
320,192,70890,128,2,71090:0:0:0:0:
448,192,70890,1,0,0:0:0:0:
64,192,71090,1,8,0:0:0:0:
448,192,71090,1,0,0:0:0:40:Ride.wav
320,192,71190,1,8,0:0:0:0:
64,192,71290,1,0,0:0:0:0:
320,192,71390,1,2,0:0:0:0:
448,192,71390,1,4,0:0:0:0:
192,192,71490,128,0,71690:0:0:0:0:
64,192,71690,1,4,3:0:0:0:
448,192,71690,1,0,0:0:0:0:
192,192,71790,1,8,0:0:0:0:
320,192,71890,1,2,0:0:0:0:
192,192,71990,1,4,3:0:0:0:
64,192,72090,128,8,72290:0:0:0:0:
448,192,72090,1,0,0:0:0:0:
192,192,72290,1,4,0:0:0:0:
448,192,72290,128,2,72490:0:0:0:0:
64,192,72490,1,8,0:0:0:0:
192,192,72490,128,0,72690:0:0:0:0:
320,192,72690,1,8,0:0:0:0:
448,192,72690,1,0,0:0:0:0:
192,192,72790,1,8,0:0:0:0:
448,192,72890,1,0,0:0:0:0:
64,192,72990,1,2,0:0:0:0:
192,192,72990,1,4,0:0:0:0:
320,192,73090,128,0,73290:0:0:0:0:
64,192,73290,1,2,0:0:0:0:
448,192,73290,128,0,73490:0:0:0:0:
64,192,73490,128,2,73690:0:0:0:0:
192,192,73490,1,0,0:0:0:0:
448,192,73690,1,8,0:0:0:0:
64,192,73790,1,8,0:0:0:0:
192,192,73790,1,0,0:0:0:0:
320,192,73890,1,2,0:0:0:0:
448,192,73890,1,4,0:0:0:0:
64,192,74090,1,8,0:0:0:0:
192,192,74090,1,0,0:0:0:40:Ride.wav
64,192,74290,1,0,0:0:0:0:
448,192,74390,1,8,0:0:0:0:
192,192,74490,128,2,74690:0:0:0:0:
320,192,74490,1,0,0:0:0:0:
64,192,74690,1,8,0:0:0:0:
320,192,74690,128,0,74890:0:0:0:0:
64,192,74890,1,2,0:0:0:0:
448,192,74890,128,0,75090:0:0:0:40:Ride.wav
192,192,75090,1,8,0:0:0:0:
320,192,75190,1,8,0:0:0:0:
64,192,75290,1,8,0:0:0:0:
192,192,75390,1,8,0:0:0:0:
320,192,75490,1,2,0:0:0:0:
448,192,75490,1,0,0:0:0:0:
192,192,75590,1,8,0:0:0:0:
64,192,75690,1,8,0:0:0:0:
448,192,75690,1,0,0:0:0:0:
320,192,75790,1,8,0:0:0:0:
192,192,75890,1,8,0:0:0:0:
320,192,75990,1,8,0:0:0:0:
448,192,75990,1,0,0:0:0:0:
64,192,76090,1,8,0:0:0:0:
448,192,76190,1,8,0:0:0:0:
64,192,76290,1,8,0:0:0:0:
192,192,76290,1,0,0:0:0:0:
320,192,76390,1,8,0:0:0:0:
64,192,76490,1,8,3:0:0:0:
448,192,76590,1,4,3:0:0:0:
192,192,76690,1,8,3:0:0:0:
448,192,76790,1,4,3:0:0:0:
64,192,76890,1,2,3:0:0:0:
320,192,76990,1,2,3:0:0:0:
64,192,77090,128,2,78690:0:0:0:0:
192,192,77090,1,4,0:0:0:0:
448,192,77090,128,0,77890:0:0:0:0:
192,192,77490,1,6,0:0:0:0:
192,192,77890,1,4,0:0:0:0:
320,192,77890,128,2,78690:0:0:0:0:
448,192,78290,1,6,0:0:0:0:
192,192,78690,128,2,78890:0:0:0:0:
448,192,78690,1,4,0:0:0:0:
320,192,78890,128,0,79090:0:0:0:0:
64,192,79090,128,2,79290:0:0:0:0:
192,192,79090,1,4,0:0:0:0:
320,192,79290,128,0,79490:0:0:0:0:
64,192,79490,128,4,79690:0:0:0:0:
448,192,79490,1,2,0:0:0:0:
320,192,79690,128,0,79890:0:0:0:0:
192,192,79890,128,4,80090:0:0:0:0:
448,192,79890,1,2,0:0:0:0:
320,192,80090,1,8,0:0:0:0:
64,192,80190,1,8,0:0:0:0:
192,192,80190,1,0,0:0:0:0:
320,192,80290,1,2,0:0:0:0:
448,192,80290,128,4,80490:0:0:0:0:
64,192,80490,1,8,0:0:0:0:
192,192,80490,1,0,0:0:0:0:
320,192,80590,1,8,0:0:0:0:
448,192,80590,1,0,0:0:0:0:
192,192,80690,1,2,0:0:0:0:
448,192,80890,1,8,0:0:0:0:
64,192,80990,1,8,0:0:0:0:
192,192,80990,1,0,0:0:0:0:
320,192,81090,128,2,81290:0:0:0:0:
448,192,81090,1,4,0:0:0:0:
64,192,81290,1,8,0:0:0:0:
192,192,81390,1,8,0:0:0:0:
320,192,81390,1,0,0:0:0:0:
64,192,81490,128,8,81690:0:0:0:0:
448,192,81490,1,0,0:0:0:0:
192,192,81690,1,8,0:0:0:0:
448,192,81690,128,0,81890:0:0:0:0:
192,192,81890,128,8,82090:0:0:0:0:
320,192,81890,1,0,0:0:0:0:
64,192,82090,1,2,0:0:0:0:
448,192,82090,1,0,0:0:0:0:
64,192,82290,1,2,0:0:0:0:
192,192,82290,1,4,0:0:0:0:
448,192,82290,1,0,0:0:0:0:
320,192,82490,1,0,0:0:0:0:
64,192,82590,1,8,0:0:0:0:
192,192,82590,1,0,0:0:0:0:
320,192,82690,128,8,82890:0:0:0:0:
448,192,82690,1,0,0:0:0:0:
64,192,82890,128,2,83090:0:0:0:0:
448,192,82890,1,0,0:0:0:0:
192,192,83090,1,8,0:0:0:0:
64,192,83190,1,4,0:0:0:0:
448,192,83190,1,2,0:0:0:0:
320,192,83290,128,0,83490:0:0:0:0:
64,192,83490,1,2,0:0:0:0:
192,192,83490,128,4,83690:0:0:0:0:
448,192,83490,1,0,0:0:0:0:
320,192,83690,1,8,0:0:0:0:
448,192,83690,1,0,0:0:0:0:
320,192,83890,1,0,0:0:0:20:soft-hitclap.wav
64,192,83990,1,8,0:0:0:0:
192,192,83990,1,0,0:0:0:0:
448,192,84090,1,0,0:0:0:20:soft-hitclap.wav
64,192,84190,1,0,0:0:0:20:soft-hitclap.wav
192,192,84290,1,8,0:0:0:0:
320,192,84290,1,0,0:0:0:0:
448,192,84388,1,0,0:0:0:20:soft-hitclap.wav
192,192,84486,1,0,0:0:0:0:
320,192,84584,1,8,0:0:0:0:
448,192,84584,1,0,0:0:0:0:
64,192,84682,1,0,0:0:0:20:soft-hitclap.wav
448,192,84780,1,0,0:0:0:0:
64,192,84878,1,8,0:0:0:0:
192,192,84878,1,0,0:0:0:0:
64,192,85074,1,2,0:0:0:0:
448,192,85074,1,0,0:0:0:0:
192,192,85176,128,0,85380:0:0:0:0:
320,192,85380,1,8,0:0:0:0:
448,192,85380,1,0,0:0:0:0:
192,192,85482,1,2,0:0:0:0:
320,192,85584,1,0,0:0:0:20:soft-hitclap.wav
64,192,85686,1,2,0:0:0:0:
320,192,85788,128,0,85992:0:0:0:0:
64,192,85992,1,8,0:0:0:0:
192,192,85992,1,0,0:0:0:0:
320,192,86094,1,2,0:0:0:0:
448,192,86094,1,0,0:0:0:0:
64,192,86298,128,4,86706:0:0:0:0:
192,192,86298,1,2,0:0:0:0:
448,192,86298,128,0,86706:0:0:0:0:
