osu file format v14

[General]
AudioFilename: audio.ogg
AudioLeadIn: 0
PreviewTime: 50877
Countdown: 0
SampleSet: Normal
StackLeniency: 0.7
Mode: 1
LetterboxInBreaks: 0
WidescreenStoryboard: 1

[Editor]
Bookmarks: 7111,28845,41645
DistanceSpacing: 1
BeatDivisor: 4
GridSize: 32
TimelineZoom: 0.8999999

[Metadata]
Title:Mixed Nuts (TV Size)
TitleUnicode:ミックスナッツ (TV Size)
Artist:Official HIGE DANdism
ArtistUnicode:Official髭男dism
Creator:Faputa
Version:Kantan
Source:SPY×FAMILY
Tags:HIGEDAN radar ler1211 op opening SPY FAMILY SPYxFAMILY J-pop Jpop pop Japanese Jazz anime
BeatmapID:3584411
BeatmapSetID:1738807

[Difficulty]
HPDrainRate:8
CircleSize:2
OverallDifficulty:3
ApproachRate:10
SliderMultiplier:1.4
SliderTickRate:1

[Events]
//Background and Video events
0,0,"spy.jpg",0,80
Video,0,"spy.mp4"
//Break Periods
//Storyboard Layer 0 (Background)
//Storyboard Layer 1 (Fail)
//Storyboard Layer 2 (Pass)
//Storyboard Layer 3 (Foreground)
//Storyboard Layer 4 (Overlay)
//Storyboard Sound Samples

[TimingPoints]
511,400,4,1,0,75,1,0
6811,-100,4,1,0,85,0,0
6911,387.096774193548,4,1,0,85,1,0
6911,-103.337811305157,4,1,0,85,0,0
8459,413.080895008606,4,1,0,85,1,0
8459,-96.8335431393435,4,1,0,85,0,0
10111,400,4,1,0,85,1,0
10211,-100,4,1,0,80,0,0
23011,-100,4,1,0,85,0,0
50811,-100,4,1,0,95,0,0
51511,-100,4,1,0,95,0,1
83711,444.444444444444,4,1,0,95,1,0
83711,-90.0009000090001,4,1,0,95,0,0
83836,-90.0009000090001,4,1,0,60,0,0
83933,387.096774193548,4,1,0,60,1,8
83933,-103.337811305157,4,1,0,60,0,0
85094,-103.337811305157,4,1,0,85,0,0
85287,375,4,1,0,85,1,0
85287,-106.666666666667,4,1,0,85,0,0
85974,352.941176470588,4,1,0,85,1,8
85974,-113.327289211242,4,1,0,85,0,0
86523,400,4,1,0,85,1,0

[HitObjects]
256,192,511,5,4,0:0:0:0:
256,192,1311,1,8,0:0:0:0:
256,192,2911,1,0,0:0:0:0:
256,192,3711,1,8,0:0:0:0:
256,192,4111,1,8,0:0:0:0:
256,192,4511,1,8,0:0:0:0:
256,192,4911,1,8,0:0:0:0:
256,192,5311,1,0,0:0:0:0:
256,192,6911,1,4,0:0:0:0:
256,192,7298,12,0,9285,0:0:0:0:
256,192,9801,5,12,0:0:0:0:
256,192,10111,1,4,0:0:0:0:
256,192,11311,1,8,0:0:0:0:
256,192,11711,1,0,0:0:0:0:
256,192,12511,1,8,0:0:0:0:
256,192,13311,1,0,0:0:0:0:
256,192,14511,1,8,0:0:0:0:
256,192,14911,1,8,0:0:0:0:
256,192,15711,1,0,0:0:0:0:
256,192,16511,1,0,0:0:0:0:
256,192,17311,1,8,0:0:0:0:
256,192,17711,1,8,0:0:0:0:
256,192,18111,1,0,0:0:0:0:
256,192,18911,1,8,0:0:0:0:
256,192,19311,1,0,0:0:0:0:
256,192,19711,1,8,0:0:0:0:
256,192,20511,1,8,0:0:0:0:
256,192,21311,1,0,0:0:0:0:
256,192,22511,1,8,0:0:0:0:
256,192,22911,1,4,0:0:0:0:
256,192,23711,1,0,0:0:0:0:
256,192,24111,1,8,0:0:0:0:
256,192,24511,1,0,0:0:0:0:
256,192,25311,1,8,0:0:0:0:
256,192,26111,1,0,0:0:0:0:
256,192,26511,1,8,0:0:0:0:
256,192,27311,1,8,0:0:0:0:
256,192,27711,1,0,0:0:0:0:
256,192,28511,1,8,0:0:0:0:
256,192,29311,1,8,0:0:0:0:
256,192,30511,1,0,0:0:0:0:
256,192,30911,1,8,0:0:0:0:
256,192,31711,1,8,0:0:0:0:
256,192,32511,1,0,0:0:0:0:
256,192,33311,1,8,0:0:0:0:
256,192,33711,1,8,0:0:0:0:
256,192,34111,1,4,0:0:0:0:
256,192,34911,1,0,0:0:0:0:
256,192,35311,1,0,0:0:0:0:
256,192,35711,1,12,0:0:0:0:
256,192,36411,1,12,0:0:0:0:
256,192,37311,1,4,0:0:0:0:
256,192,38011,1,4,0:0:0:0:
256,192,38911,1,12,0:0:0:0:
256,192,39611,1,12,0:0:0:0:
256,192,40511,1,4,0:0:0:0:
256,192,42111,1,12,0:0:0:0:
256,192,42811,1,12,0:0:0:0:
256,192,43711,1,0,0:0:0:0:
256,192,44411,1,12,0:0:0:0:
256,192,45311,1,4,0:0:0:0:
256,192,46511,1,8,0:0:0:0:
256,192,46911,1,0,0:0:0:0:
256,192,47711,1,8,0:0:0:0:
256,192,48111,1,8,0:0:0:0:
256,192,48511,1,0,0:0:0:0:
256,192,49311,1,8,0:0:0:0:
256,192,49711,1,0,0:0:0:0:
256,192,50111,1,8,0:0:0:0:
256,192,51511,1,12,0:0:0:0:
256,192,52111,1,8,0:0:0:0:
256,192,52511,1,0,0:0:0:0:
256,192,53311,1,8,0:0:0:0:
256,192,53711,1,0,0:0:0:0:
256,192,54111,1,8,0:0:0:0:
256,192,54511,1,8,0:0:0:0:
256,192,54911,1,0,0:0:0:0:
256,192,56111,1,8,0:0:0:0:
256,192,56511,1,0,0:0:0:0:
256,192,57311,1,8,0:0:0:0:
256,192,58111,1,8,0:0:0:0:
256,192,58811,1,4,0:0:0:0:
256,192,59711,1,0,0:0:0:0:
256,192,60411,1,12,0:0:0:0:
256,192,61311,1,0,0:0:0:0:
256,192,62111,1,8,0:0:0:0:
256,192,62511,1,0,0:0:0:0:
256,192,62911,1,8,0:0:0:0:
256,192,64311,1,4,0:0:0:0:
256,192,64911,1,8,0:0:0:0:
256,192,65311,1,0,0:0:0:0:
256,192,66111,1,8,0:0:0:0:
256,192,66511,1,0,0:0:0:0:
256,192,66911,1,8,0:0:0:0:
256,192,67311,1,8,0:0:0:0:
256,192,67711,1,0,0:0:0:0:
256,192,68911,1,8,0:0:0:0:
256,192,69311,1,8,0:0:0:0:
256,192,70111,1,0,0:0:0:0:
256,192,70911,1,8,0:0:0:0:
256,192,71711,1,0,0:0:0:0:
256,192,72111,1,0,0:0:0:0:
256,192,72511,1,8,0:0:0:0:
256,192,72911,1,8,0:0:0:0:
256,192,73711,1,0,0:0:0:0:
256,192,74511,1,0,0:0:0:0:
256,192,74911,1,8,0:0:0:0:
256,192,75711,1,8,0:0:0:0:
256,192,76511,1,0,0:0:0:0:
256,192,76911,1,0,0:0:0:0:
256,192,77311,1,12,0:0:0:0:
256,192,78911,1,8,0:0:0:0:
256,192,79311,1,0,0:0:0:0:
256,192,80111,1,0,0:0:0:0:
256,192,80511,1,12,0:0:0:0:
256,192,81311,1,0,0:0:0:0:
256,192,82111,1,8,0:0:0:0:
256,192,82911,1,8,0:0:0:0:
256,192,83311,1,0,0:0:0:0:
256,192,83711,1,12,0:0:0:0:
256,192,84126,12,0,85974,0:0:0:0:
256,192,86523,5,12,0:0:0:0:
