osu file format v14

[General]
AudioFilename: audio.mp3
AudioLeadIn: 0
PreviewTime: 50590
Countdown: 0
SampleSet: Soft
StackLeniency: 0.4
Mode: 0
LetterboxInBreaks: 0
WidescreenStoryboard: 1

[Editor]
DistanceSpacing: 1.2
BeatDivisor: 4
GridSize: 32
TimelineZoom: 1.6

[Metadata]
Title:Mixed Nuts (TV Size)
TitleUnicode:ミックスナッツ (TV Size)
Artist:Official HIGE DANdism
ArtistUnicode:Official髭男dism
Creator:-Aqua
Version:KeyWee's Hard
Source:SPY×FAMILY
Tags:Yor Forger ヨル・フォージャー Yor Briar ヨル・ブライア Spy Family スパイファミリー Higedan Anime Japanese Pop J-pop Jpop Opening OP Jazz Thorn Princess Assassin Hitman Peanuts Yoru Loid Forger ロイド・フォージャー Anya Forger アーニャ・フォージャー Twilight Alternator Shirahane Suou Iceluin KeyWee Vebox Kagayaki Kazuma Deez Ania SpyxFamily
BeatmapID:3583772
BeatmapSetID:1751696

[Difficulty]
HPDrainRate:4.5
CircleSize:3.5
OverallDifficulty:6.5
ApproachRate:8
SliderMultiplier:1.4
SliderTickRate:1

[Events]
//Background and Video events
0,0,"20220422_021713.jpg",0,0
Video,-176,"vid.mp4"
//Break Periods
//Storyboard Layer 0 (Background)
//Storyboard Layer 1 (Fail)
//Storyboard Layer 2 (Pass)
//Storyboard Layer 3 (Foreground)
//Storyboard Layer 4 (Overlay)
//Storyboard Sound Samples

[TimingPoints]
290,413.080895008606,4,2,1,60,1,0
1940,400,4,2,1,60,1,0
4290,400,4,2,1,60,1,0
4865,400,4,2,1,60,1,0
5090,400,4,2,1,60,1,0
5590,-100,4,2,1,5,0,0
6690,387.096774193548,4,2,1,60,1,0
6690,-100,4,2,1,70,0,0
6890,-100,4,2,1,70,0,0
8240,412.371134020619,4,2,1,70,1,0
9580,-76.9230769230769,4,2,1,70,0,0
9840,-76.9230769230769,4,2,1,5,0,0
9890,400,4,2,1,60,1,0
9890,-76.9230769230769,4,2,1,60,0,0
10090,-111.111111111111,4,2,1,60,0,0
14590,-111.111111111111,4,2,1,5,0,0
14690,-111.111111111111,4,2,1,60,0,0
21890,-111.111111111111,4,2,1,75,0,0
22690,-111.111111111111,4,2,1,60,0,0
27390,-111.111111111111,4,2,1,5,0,0
27490,-111.111111111111,4,2,1,60,0,0
33890,-90.9090909090909,4,2,1,60,0,0
35390,-90.9090909090909,4,2,1,5,0,0
35490,-90.9090909090909,4,2,1,70,0,0
35790,-90.9090909090909,4,2,1,5,0,0
35890,-90.9090909090909,4,2,1,70,0,0
39990,-90.9090909090909,4,2,1,5,0,0
40090,-90.9090909090909,4,2,1,70,0,0
40190,-90.9090909090909,4,2,1,5,0,0
40290,-90.9090909090909,4,2,1,70,0,0
41190,-90.9090909090909,4,2,1,70,0,0
41290,-90.9090909090909,4,2,1,5,0,0
41390,-90.9090909090909,4,2,1,70,0,0
45090,-111.111111111111,4,2,1,60,0,0
48290,-90.9090909090909,4,2,1,70,0,0
48790,-90.9090909090909,4,2,1,5,0,0
48890,-90.9090909090909,4,2,1,70,0,0
49790,-90.9090909090909,4,2,1,5,0,0
49890,-90.9090909090909,4,2,1,70,0,0
50590,-90.9090909090909,4,2,1,5,0,0
50690,-90.9090909090909,4,2,1,60,0,0
51290,-90.9090909090909,4,2,1,85,0,1
52440,-90.9090909090909,4,2,1,5,0,1
52490,-90.9090909090909,4,2,1,85,0,1
53240,-90.9090909090909,4,2,1,5,0,1
53290,-90.9090909090909,4,2,1,85,0,1
53840,-90.9090909090909,4,2,1,5,0,1
53890,-90.9090909090909,4,2,1,85,0,1
55040,-90.9090909090909,4,2,1,5,0,1
55090,-90.9090909090909,4,2,1,85,0,1
55440,-90.9090909090909,4,2,1,5,0,1
55490,-90.9090909090909,4,2,1,85,0,1
56440,-90.9090909090909,4,2,1,5,0,1
56490,-90.9090909090909,4,2,1,85,0,1
57240,-90.9090909090909,4,2,1,5,0,1
57290,-90.9090909090909,4,2,1,85,0,1
61840,-90.9090909090909,4,2,1,5,0,1
61890,-90.9090909090909,4,2,1,85,0,1
62840,-90.9090909090909,4,2,1,5,0,1
62890,-90.9090909090909,4,2,1,85,0,1
63140,-90.9090909090909,4,2,1,5,0,1
63190,-90.9090909090909,4,2,1,85,0,1
65240,-90.9090909090909,4,2,1,5,0,1
65290,-90.9090909090909,4,2,1,85,0,1
66040,-90.9090909090909,4,2,1,5,0,1
66090,-90.9090909090909,4,2,1,85,0,1
66640,-90.9090909090909,4,2,1,5,0,1
66690,-90.9090909090909,4,2,1,85,0,1
67840,-90.9090909090909,4,2,1,5,0,1
67890,-90.9090909090909,4,2,1,85,0,1
68240,-90.9090909090909,4,2,1,5,0,1
68290,-90.9090909090909,4,2,1,85,0,1
69240,-90.9090909090909,4,2,1,5,0,1
69290,-90.9090909090909,4,2,1,85,0,1
70040,-90.9090909090909,4,2,1,5,0,1
70090,-90.9090909090909,4,2,1,85,0,1
73240,-90.9090909090909,4,2,1,5,0,1
73290,-90.9090909090909,4,2,1,85,0,1
74840,-90.9090909090909,4,2,1,5,0,1
74890,-90.9090909090909,4,2,1,85,0,1
77090,-90.9090909090909,4,2,1,70,0,1
77390,-90.9090909090909,4,2,1,5,0,1
77490,-90.9090909090909,4,2,1,70,0,1
77790,-90.9090909090909,4,2,1,5,0,1
77890,-90.9090909090909,4,2,1,70,0,1
78190,-90.9090909090909,4,2,1,5,0,1
78290,-90.9090909090909,4,2,1,70,0,1
78590,-90.9090909090909,4,2,1,5,0,1
78690,-90.9090909090909,4,2,1,70,0,1
79590,-90.9090909090909,4,2,1,5,0,1
79690,-90.9090909090909,4,2,1,70,0,1
80390,-90.9090909090909,4,2,1,5,0,1
80490,-90.9090909090909,4,2,1,70,0,1
80790,-90.9090909090909,4,2,1,5,0,1
80890,-90.9090909090909,4,2,1,70,0,1
81190,-90.9090909090909,4,2,1,5,0,1
81290,-90.9090909090909,4,2,1,70,0,1
82190,-90.9090909090909,4,2,1,5,0,1
82290,-90.9090909090909,4,2,1,85,0,1
83440,-90.9090909090909,4,2,1,5,0,1
83490,-90.9090909090909,4,2,1,70,0,0
84290,392.156862745098,4,2,1,70,1,0
84290,-90.9090909090909,4,2,1,70,0,0
85074,408.163265306122,4,2,1,70,1,0
85074,-90.9090909090909,4,2,1,70,0,0
86240,-90.9090909090909,4,2,1,5,0,0
86290,-90.9090909090909,4,2,1,90,0,0

[Colours]
Combo1 : 54,54,54
Combo2 : 255,0,0

[HitObjects]
466,120,290,5,4,1:2:0:0:
256,192,393,12,0,5490,0:0:0:0:
466,120,6690,5,4,1:2:0:0:
466,218,6883,2,0,L|466:317,1,70,8|0,0:0|1:0,0:0:0:0:
431,323,7173,2,0,L|335:323,1,70,8|0,0:0|1:0,0:0:0:0:
327,287,7464,2,0,B|327:240|327:240|334:226|334:226|334:171,2,105,8|8|8,0:0|0:0|0:0,0:0:0:0:
257,357,8240,6,0,P|200:372|155:351,1,105,8|8,3:2|3:2,0:0:0:0:
118,326,8652,2,0,L|34:326,1,70,8|0,3:2|3:0,0:0:0:0:
15,296,8961,1,8,3:2:0:0:
15,296,9064,2,0,L|15:220,1,70,8|0,0:0|0:0,0:0:0:0:
20,131,9477,1,8,1:2:0:0:
20,131,9580,6,0,B|79:131|79:131|96:141|96:141|174:141,1,136.499993751526,6|6,1:2|1:2,0:0:0:0:
221,84,10090,6,0,L|221:18,2,62.9999980773926,2|0|0,0:0|0:0|0:0,0:0:0:0:
298,136,10690,1,2,0:0:0:0:
298,136,10890,1,2,0:0:0:0:
370,86,11090,2,0,P|401:80|437:91,1,62.9999980773926,2|0,0:0|0:0,0:0:0:0:
489,153,11490,6,0,L|489:270,1,94.499997116089,2|2,0:0|0:0,0:0:0:0:
489,291,11890,1,0,0:0:0:0:
489,291,12290,2,0,P|440:314|363:280,1,125.999996154785,2|0,0:0|3:0,0:0:0:0:
313,237,12890,1,2,3:2:0:0:
313,237,13090,6,0,P|255:215|198:238,1,125.999996154785,2|0,0:0|0:0,0:0:0:0:
27,353,14090,1,0,3:0:0:0:
27,353,14190,1,0,3:0:0:0:
27,353,14290,2,0,L|27:269,1,62.9999980773926,2|0,0:0|0:0,0:0:0:0:
88,226,14690,6,0,P|101:172|78:124,1,94.499997116089,2|2,0:0|0:0,0:0:0:0:
60,102,15090,2,0,L|60:28,1,62.9999980773926,0|0,0:0|3:0,0:0:0:0:
144,63,15490,2,0,B|201:63|201:63|217:70|217:70|290:70,1,125.999996154785,2|0,3:2|3:0,0:0:0:0:
336,126,16090,1,0,3:0:0:0:
267,180,16290,6,0,P|253:226|274:275,1,94.499997116089,2|2,0:0|0:0,0:0:0:0:
294,304,16690,1,0,0:0:0:0:
366,354,16890,2,0,L|439:354,1,62.9999980773926,0|2,0:0|0:0,0:0:0:0:
429,354,17490,2,0,L|493:354,1,62.9999980773926,2|0,0:0|0:0,0:0:0:0:
463,270,17890,2,0,B|463:221|463:221|456:201|456:201|456:118,1,125.999996154785,2|0,0:0|0:0,0:0:0:0:
509,75,18490,1,0,0:0:0:0:
455,5,18690,1,2,0:0:0:0:
455,5,19090,2,0,L|371:5,1,62.9999980773926,2|2,3:0|3:0,0:0:0:0:
361,36,19390,1,0,0:0:0:0:
361,36,19490,6,0,P|336:102|375:160,1,125.999996154785,2|0,0:0|0:0,0:0:0:0:
359,148,20290,2,0,P|384:214|345:272,1,125.999996154785,2|0,0:0|0:0,0:0:0:0:
360,260,21090,6,0,L|246:260,1,94.499997116089,2|0,3:2|3:0,0:0:0:0:
231,231,21490,2,0,L|231:154,1,62.9999980773926,0|0,3:0|3:0,0:0:0:0:
231,127,21790,1,0,3:0:0:0:
231,127,21890,1,0,1:0:0:0:
156,55,22090,5,10,0:0:0:0:
129,37,22190,1,10,0:0:0:0:
98,32,22290,1,10,0:0:0:0:
68,39,22390,1,10,0:0:0:0:
43,57,22490,2,0,L|43:133,1,62.9999980773926,10|6,0:0|1:2,0:0:0:0:
109,177,22890,6,0,L|180:177,2,62.9999980773926,2|0|0,0:0|0:0|3:0,0:0:0:0:
44,237,23490,2,0,L|45:314,1,62.9999980773926,2|0,3:2|3:0,0:0:0:0:
116,360,23890,1,0,3:0:0:0:
116,360,24090,1,2,0:0:0:0:
175,294,24290,6,0,P|234:272|304:308,1,125.999996154785,2|0,3:2|0:0,0:0:0:0:
454,357,25090,2,0,P|432:299|454:241,1,125.999996154785,2|2,3:2|3:2,0:0:0:0:
512,175,25690,1,0,0:0:0:0:
451,110,25890,6,0,B|394:110|394:110|379:118|379:118|297:118,1,125.999996154785,2|0,0:0|0:0,0:0:0:0:
174,29,26690,2,0,P|190:73|171:123,1,94.499997116089,0|0,0:0|3:0,0:0:0:0:
146,150,27090,2,0,L|61:150,1,62.9999980773926,2|0,3:2|0:0,0:0:0:0:
26,217,27490,6,0,P|4:268|28:338,1,125.999996154785,2|0,0:0|0:0,0:0:0:0:
102,373,28090,1,0,0:0:0:0:
179,331,28290,2,0,B|236:331|236:331|252:341|252:341|319:341,1,125.999996154785,2|2,0:0|3:2,0:0:0:0:
357,271,28890,1,0,3:2:0:0:
299,204,29090,6,0,P|278:145|300:87,1,125.999996154785,2|0,0:0|3:2,0:0:0:0:
359,21,29690,1,0,0:0:0:0:
414,89,29890,2,0,L|487:89,1,62.9999980773926,0|2,0:0|3:2,0:0:0:0:
475,177,30290,2,0,L|412:177,1,62.9999980773926,0|0,3:2|0:0,0:0:0:0:
334,135,30690,5,2,0:0:0:0:
95,33,31290,1,0,3:2:0:0:
95,33,31490,2,0,P|70:92|94:155,1,125.999996154785,2|2,3:2|0:0,0:0:0:0:
150,220,32090,1,2,0:0:0:0:
150,220,32290,6,0,B|150:277|150:277|158:294|158:294|158:374,1,125.999996154785,2|0,0:0|3:2,0:0:0:0:
69,343,32890,1,0,0:0:0:0:
241,243,33290,2,0,L|241:167,2,62.9999980773926,2|0|2,0:0|0:0|0:0,0:0:0:0:
309,307,33890,6,0,L|418:306,1,77.0000023498536,4|8,1:0|0:0,0:0:0:0:
436,309,34190,1,8,0:0:0:0:
480,183,34490,1,12,0:0:0:0:
480,183,34590,1,8,0:0:0:0:
480,183,34690,6,0,L|388:183,1,77.0000023498536,8|8,0:0|0:0,0:0:0:0:
368,151,34990,1,8,0:0:0:0:
368,151,35090,2,0,L|368:66,1,77.0000023498536,8|8,0:0|3:0,0:0:0:0:
289,24,35490,6,0,P|242:4|171:34,1,115.50000352478,6|0,1:0|0:0,0:0:0:0:
147,52,35890,1,10,0:1:0:0:
147,144,36090,1,2,0:0:0:0:
147,182,36190,1,2,1:0:0:0:
28,109,36490,2,0,L|28:27,2,77.0000023498536,8|4|0,3:0|3:0|1:0,0:0:0:0:
30,201,37090,6,0,L|31:300,1,77.0000023498536,6|10,1:2|0:1,0:0:0:0:
33,324,37390,1,10,0:1:0:0:
33,324,37490,1,2,0:0:0:0:
125,324,37690,1,8,0:0:0:0:
163,324,37790,1,6,1:0:0:0:
223,198,38090,2,0,L|134:198,2,77.0000023498536,0|2|8,1:0|1:2|0:0,0:0:0:0:
282,126,38690,6,0,L|282:13,1,77.0000023498536,6|8,1:0|0:0,0:0:0:0:
362,3,39090,1,10,0:1:0:0:
400,3,39190,1,8,0:0:0:0:
493,1,39390,1,6,1:0:0:0:
495,139,39690,1,8,3:0:0:0:
437,211,39890,1,4,3:0:0:0:
497,281,40090,1,0,1:0:0:0:
438,350,40290,6,0,L|328:350,1,77.0000023498536,14|10,1:0|0:0,0:0:0:0:
334,318,40590,1,10,0:0:0:0:
334,318,40690,2,0,L|224:318,1,77.0000023498536,10|0,0:0|1:0,0:0:0:0:
164,319,41090,2,0,P|95:349|26:320,1,154.000004699707,2|2,0:0|0:0,0:0:0:0:
94,258,41690,1,8,3:0:0:0:
19,202,41890,6,0,L|19:75,1,115.50000352478,6|0,1:2|1:0,0:0:0:0:
18,39,42290,1,10,0:1:0:0:
110,40,42490,1,2,0:0:0:0:
148,40,42590,1,6,1:0:0:0:
278,90,42890,2,0,L|278:181,2,77.0000023498536,8|8|8,3:0|3:0|0:0,0:0:0:0:
349,31,43490,5,8,3:0:0:0:
418,91,43690,2,0,L|417:149,1,38.5000011749268,10|10,0:1|0:1,0:0:0:0:
417,176,43890,2,0,L|417:272,1,77.0000023498536,2|10,0:0|0:1,0:0:0:0:
415,307,44190,1,6,1:0:0:0:
288,364,44490,2,0,P|255:374|214:363,1,77.0000023498536,0|0,1:0|1:0,0:0:0:0:
146,319,44890,1,8,0:0:0:0:
146,319,44990,1,8,0:0:0:0:
146,319,45090,6,0,L|146:235,1,62.9999980773926,6|2,1:2|3:2,0:0:0:0:
219,196,45490,1,0,0:0:0:0:
219,196,45690,1,0,3:0:0:0:
147,134,45890,2,0,L|147:52,1,62.9999980773926,2|0,0:0|3:0,0:0:0:0:
81,10,46290,1,2,0:0:0:0:
81,10,46490,1,0,3:0:0:0:
18,81,46690,6,0,P|-2:140|32:211,1,125.999996154785,0|0,0:0|0:0,0:0:0:0:
80,260,47290,1,0,3:2:0:0:
152,199,47490,2,0,B|204:199|204:199|221:207|221:207|285:207,1,125.999996154785,2|0,0:0|0:0,0:0:0:0:
414,354,48290,6,0,L|414:253,1,77.0000023498536,6|8,1:0|0:0,0:0:0:0:
414,230,48590,1,10,0:1:0:0:
465,101,48890,6,0,L|364:101,1,77.0000023498536,2|0,1:1|1:0,0:0:0:0:
341,101,49190,1,10,0:1:0:0:
235,11,49490,1,10,0:1:0:0:
142,14,49690,1,2,1:0:0:0:
67,68,49890,5,10,0:1:0:0:
44,99,49990,1,10,0:2:0:0:
37,137,50090,1,10,0:2:0:0:
45,174,50190,1,10,0:2:0:0:
68,205,50290,1,10,0:1:0:0:
68,205,50690,5,2,1:0:0:0:
5,273,50890,1,2,1:0:0:0:
68,339,51090,1,2,1:0:0:0:
132,272,51290,6,2,B|200:273|200:273|219:284|219:284|298:284,1,154.000004699707,6|10,1:0|0:0,0:1:0:0:
350,347,51890,1,10,0:0:0:0:
442,348,52090,1,2,1:2:0:0:
505,281,52290,2,0,L|505:187,1,77.0000023498536,10|0,0:0|1:0,0:0:0:0:
470,172,52590,1,8,0:2:0:0:
435,141,52690,2,0,L|435:47,1,77.0000023498536,2|10,1:2|0:0,0:0:0:0:
355,10,53090,5,0,1:0:0:0:
276,58,53290,2,0,L|276:152,1,77.0000023498536,10|10,0:0|0:0,0:0:0:0:
275,181,53590,1,8,0:0:0:0:
275,181,53690,1,0,1:0:0:0:
203,239,53890,2,0,L|113:239,1,77.0000023498536,10|2,0:0|0:0,0:0:0:0:
87,212,54190,1,8,0:0:0:0:
51,182,54290,2,0,L|51:99,1,77.0000023498536,2|10,1:2|0:0,0:0:0:0:
112,33,54690,6,0,P|158:6|258:44,1,154.000004699707,2|0,1:2|1:0,0:0:0:0:
306,105,55290,1,0,1:0:0:0:
368,36,55490,2,0,L|445:36,1,77.0000023498536,8|2,0:0|1:2,0:0:0:0:
506,105,55890,1,2,1:2:0:0:
445,175,56090,1,10,0:0:0:0:
445,175,56190,1,8,0:0:0:0:
445,175,56290,6,0,P|475:244|437:314,1,154.000004699707,0|8,1:0|0:0,0:0:0:0:
364,360,56890,1,2,1:2:0:0:
314,282,57090,2,0,L|211:282,1,77.0000023498536,10|8,0:0|0:0,0:0:0:0:
203,314,57390,1,8,0:0:0:0:
169,346,57490,2,0,L|71:345,1,77.0000023498536,8|8,0:0|0:0,0:0:0:0:
54,317,57790,1,8,0:0:0:0:
18,286,57890,6,0,L|17:122,1,154.000004699707,2|10,1:2|0:0,0:0:0:0:
17,85,58390,1,10,0:0:0:0:
98,34,58590,2,2,P|159:16|225:51,2,115.50000352478,6|8|8,1:0|3:0|0:0,0:0:0:0:
157,159,59490,6,0,P|207:186|303:148,1,154.000004699707,6|8,1:2|0:0,0:0:0:0:
327,124,59990,1,8,0:0:0:0:
326,31,60190,2,2,L|459:31,1,115.50000352478,6|0,1:0|1:0,0:1:0:0:
511,92,60690,1,2,1:2:0:0:
442,151,60890,1,10,0:0:0:0:
442,151,60990,1,8,0:0:0:0:
442,151,61090,6,0,B|442:209|442:209|453:232|453:232|453:321,1,154.000004699707,2|2,1:2|0:0,0:0:0:0:
376,354,61690,2,0,P|305:384|236:356,1,154.000004699707,2|2,1:2|1:2,0:0:0:0:
172,290,62290,2,0,L|172:207,1,77.0000023498536,2|10,1:2|0:0,0:0:0:0:
175,170,62590,1,8,0:0:0:0:
175,170,62690,5,2,1:2:0:0:
234,99,62890,1,10,0:1:0:0:
166,35,63090,2,0,P|124:23|71:53,1,77.0000023498536,2|8,0:0|0:0,0:0:0:0:
29,99,63490,2,0,L|29:202,1,77.0000023498536,2|8,1:0|0:0,0:0:0:0:
32,226,63790,1,8,0:0:0:0:
32,226,63890,1,2,1:0:0:0:
91,310,64090,1,8,0:0:0:0:
91,310,64190,1,8,0:0:0:0:
91,310,64290,6,2,L|194:310,1,77.0000023498536,6|8,1:0|0:0,0:0:0:0:
234,375,64690,1,10,0:0:0:0:
300,310,64890,1,2,1:2:0:0:
237,242,65090,2,0,P|210:182|264:93,1,154.000004699707,10|2,0:0|1:2,0:0:0:0:
318,51,65690,6,0,L|461:51,1,115.50000352478,10|0,0:0|0:0,0:0:0:0:
480,51,66090,1,10,0:0:0:0:
482,143,66290,2,0,B|482:195|482:195|475:213|475:213|475:283,1,115.50000352478,2|0,1:2|0:0,0:0:0:0:
475,303,66690,1,10,0:0:0:0:
409,368,66890,1,2,0:0:0:0:
341,304,67090,2,0,L|264:304,1,77.0000023498536,2|10,1:2|0:0,0:0:0:0:
235,267,67390,1,8,0:0:0:0:
205,231,67490,6,0,L|43:231,1,154.000004699707,2|2,1:2|0:0,0:0:0:0:
3,151,68090,1,0,1:0:0:0:
45,69,68290,2,0,L|152:69,1,77.0000023498536,8|2,0:0|1:2,0:0:0:0:
191,7,68690,2,0,P|233:-3|273:15,1,77.0000023498536,2|10,1:2|0:0,0:0:0:0:
300,36,68990,1,8,0:0:0:0:
336,64,69090,6,0,P|372:75|408:64,1,77.0000023498536,0|8,1:0|0:0,0:0:0:0:
488,16,69490,1,0,1:0:0:0:
488,108,69690,1,0,1:0:0:0:
488,200,69890,2,0,B|488:306,1,77.0000023498536,10|8,0:0|0:0,0:0:0:0:
463,316,70190,1,8,0:0:0:0:
437,354,70290,2,0,L|353:353,1,77.0000023498536,8|8,0:0|0:0,0:0:0:0:
317,354,70590,1,8,0:0:0:0:
317,354,70690,5,2,1:2:0:0:
263,278,70890,1,10,0:0:0:0:
311,199,71090,2,0,L|403:199,2,77.0000023498536,10|2|2,0:0|0:0|0:0,0:0:0:0:
267,129,71690,1,8,3:0:0:0:
267,129,71790,1,4,3:0:0:0:
267,129,71890,2,0,L|267:44,1,77.0000023498536,2|10,1:2|0:0,0:0:0:0:
183,0,72290,5,2,1:2:0:0:
109,55,72490,2,0,L|19:55,2,77.0000023498536,10|10|2,0:0|0:0|0:0,0:0:0:0:
141,88,72990,2,2,P|162:138|128:211,1,115.50000352478,6|2,1:1|1:2,0:1:0:0:
70,249,73490,1,2,1:2:0:0:
151,312,73690,1,10,0:0:0:0:
151,312,73790,1,8,0:0:0:0:
151,312,73890,6,0,L|255:312,1,77.0000023498536,0|10,1:0|0:0,0:0:0:0:
292,378,74290,1,2,0:0:0:0:
358,314,74490,1,2,1:2:0:0:
358,221,74690,2,0,L|358:122,1,77.0000023498536,10|2,0:0|1:2,0:0:0:0:
397,60,75090,2,0,P|352:51|320:60,1,77.0000023498536,2|10,1:2|0:0,0:0:0:0:
290,91,75390,1,8,0:0:0:0:
290,91,75490,5,2,1:2:0:0:
217,33,75690,1,8,0:0:0:0:
145,91,75890,2,0,L|50:91,1,77.0000023498536,8|10,0:0|0:0,0:0:0:0:
26,94,76190,1,8,0:0:0:0:
26,94,76290,1,10,0:0:0:0:
23,186,76490,1,8,3:0:0:0:
23,278,76690,1,4,3:0:0:0:
54,301,76790,1,4,3:0:0:0:
91,310,76890,1,0,1:0:0:0:
128,302,76990,1,0,1:0:0:0:
159,279,77090,5,6,1:2:0:0:
159,94,77490,1,2,1:2:0:0:
342,94,77890,1,2,1:2:0:0:
343,279,78290,1,2,1:2:0:0:
159,279,78690,5,2,1:2:0:0:
342,94,79090,1,2,1:2:0:0:
159,94,79490,1,2,1:2:0:0:
343,279,79890,1,2,1:2:0:0:
295,212,80090,1,10,0:0:0:0:
295,212,80190,1,8,0:0:0:0:
295,212,80290,6,0,L|186:212,1,77.0000023498536,2|8,1:2|0:0,0:0:0:0:
187,247,80590,1,8,0:0:0:0:
159,279,80690,2,0,L|50:279,1,77.0000023498536,0|10,1:0|0:0,0:0:0:0:
47,247,80990,1,8,0:0:0:0:
14,214,81090,6,0,B|14:132,1,77.0000023498536,2|8,1:2|0:0,0:0:0:0:
67,61,81490,1,8,0:0:0:0:
97,38,81590,1,8,0:0:0:0:
134,30,81690,1,8,0:0:0:0:
171,39,81790,1,8,0:0:0:0:
200,64,81890,5,8,0:0:0:0:
266,127,82090,2,0,L|307:127,1,38.5000011749268,0|0,1:0|0:0,0:0:0:0:
342,100,82290,2,2,L|440:100,1,77.0000023498536,6|0,1:0|0:0,0:1:0:0:
457,125,82590,1,8,0:0:0:0:
493,153,82690,6,0,L|493:259,1,77.0000023498536,10|2,0:0|1:0,0:0:0:0:
447,310,83090,2,0,L|378:310,1,38.5000011749268,8|6,0:0|1:0,0:0:0:0:
361,310,83290,1,0,0:0:0:0:
304,237,83490,6,0,L|201:237,1,77.0000023498536,12|8,0:0|0:0,0:0:0:0:
186,259,83790,2,0,L|186:336,1,77.0000023498536,0|8,0:0|0:0,0:0:0:0:
185,382,84090,1,0,0:0:0:0:
92,381,84290,6,0,L|92:258,1,115.50000352478,8|8,0:0|0:0,0:0:0:0:
92,218,84682,1,0,0:0:0:0:
28,150,84878,1,8,0:0:0:0:
91,83,85074,6,0,B|139:83|139:83|157:91|157:91|227:91,1,115.50000352478,2|8,3:0|0:0,0:0:0:0:
250,94,85482,1,0,3:0:0:0:
323,38,85686,5,2,3:0:0:0:
355,18,85788,1,0,3:0:0:0:
393,12,85890,1,0,3:0:0:0:
430,20,85992,1,8,0:0:0:0:
462,41,86094,1,2,3:0:0:0:
394,106,86298,1,6,1:0:0:0:
