osu file format v14

[General]
AudioFilename: audio.mp3
AudioLeadIn: 0
PreviewTime: 50590
Countdown: 0
SampleSet: Soft
StackLeniency: 0.4
Mode: 0
LetterboxInBreaks: 0
WidescreenStoryboard: 1

[Editor]
Bookmarks: 9890,22690,35490,45090,48290,51290,64290,77090,83490,86290
DistanceSpacing: 1.1
BeatDivisor: 4
GridSize: 16
TimelineZoom: 2.2

[Metadata]
Title:Mixed Nuts (TV Size)
TitleUnicode:ミックスナッツ (TV Size)
Artist:Official HIGE DANdism
ArtistUnicode:Official髭男dism
Creator:-Aqua
Version:Kazuma's Easy
Source:SPY×FAMILY
Tags:Yor Forger ヨル・フォージャー Yor Briar ヨル・ブライア Spy Family スパイファミリー Higedan Anime Japanese Pop J-pop Jpop Opening OP Jazz Thorn Princess Assassin Hitman Peanuts Yoru Loid Forger ロイド・フォージャー Anya Forger アーニャ・フォージャー Twilight Alternator Shirahane Suou Iceluin KeyWee Vebox Kagayaki Kazuma Deez Ania SpyxFamily
BeatmapID:3583771
BeatmapSetID:1751696

[Difficulty]
HPDrainRate:3
CircleSize:3
OverallDifficulty:3
ApproachRate:4
SliderMultiplier:1
SliderTickRate:1

[Events]
//Background and Video events
0,0,"20220422_021713.jpg",0,0
Video,-176,"vid.mp4"
//Break Periods
2,6890,8570
//Storyboard Layer 0 (Background)
//Storyboard Layer 1 (Fail)
//Storyboard Layer 2 (Pass)
//Storyboard Layer 3 (Foreground)
//Storyboard Layer 4 (Overlay)
//Storyboard Sound Samples

[TimingPoints]
290,413.080895008606,4,2,1,60,1,0
1940,400,4,2,1,60,1,0
4290,400,4,2,1,60,1,0
4865,400,4,2,1,60,1,0
5090,400,4,2,1,60,1,0
5590,-100,4,2,1,5,0,0
6690,387.096774193548,4,2,1,60,1,0
6690,-100,4,2,1,70,0,0
6840,-100,4,2,1,5,0,0
6890,-100,4,2,1,70,0,0
8240,412.371134020619,4,2,1,60,1,0
9840,-100,4,2,1,5,0,0
9890,400,4,2,1,60,1,0
9890,-100,4,2,1,60,0,0
14590,-100,4,2,1,5,0,0
14690,-100,4,2,1,60,0,0
21890,-100,4,2,1,75,0,0
22690,-100,4,2,1,60,0,0
27390,-100,4,2,1,5,0,0
27490,-100,4,2,1,60,0,0
35390,-100,4,2,1,5,0,0
35490,-100,4,2,1,70,0,0
35790,-100,4,2,1,5,0,0
35890,-100,4,2,1,70,0,0
39990,-100,4,2,1,5,0,0
40090,-100,4,2,1,70,0,0
40190,-100,4,2,1,5,0,0
40290,-100,4,2,1,70,0,0
41190,-100,4,2,1,70,0,0
41290,-100,4,2,1,5,0,0
41390,-100,4,2,1,70,0,0
45090,-100,4,2,1,60,0,0
48290,-100,4,2,1,70,0,0
48790,-100,4,2,1,5,0,0
48890,-100,4,2,1,70,0,0
49790,-100,4,2,1,5,0,0
49890,-100,4,2,1,70,0,0
50590,-100,4,2,1,5,0,0
50690,-100,4,2,1,60,0,0
51290,-100,4,2,1,85,0,0
52440,-100,4,2,1,5,0,0
52490,-100,4,2,1,85,0,0
53240,-100,4,2,1,5,0,0
53290,-100,4,2,1,85,0,0
53840,-100,4,2,1,5,0,0
53890,-100,4,2,1,85,0,0
55040,-100,4,2,1,5,0,0
55090,-100,4,2,1,85,0,0
55440,-100,4,2,1,5,0,0
55490,-100,4,2,1,85,0,0
56440,-100,4,2,1,5,0,0
56490,-100,4,2,1,85,0,0
57240,-100,4,2,1,5,0,0
57290,-100,4,2,1,85,0,0
61840,-100,4,2,1,5,0,0
61890,-100,4,2,1,85,0,0
62840,-100,4,2,1,5,0,0
62890,-100,4,2,1,85,0,0
63140,-100,4,2,1,5,0,0
63190,-100,4,2,1,85,0,0
65240,-100,4,2,1,5,0,0
65290,-100,4,2,1,85,0,0
66040,-100,4,2,1,5,0,0
66090,-100,4,2,1,85,0,0
66640,-100,4,2,1,5,0,0
66690,-100,4,2,1,85,0,0
67840,-100,4,2,1,5,0,0
67890,-100,4,2,1,85,0,0
68240,-100,4,2,1,5,0,0
68290,-100,4,2,1,85,0,0
69240,-100,4,2,1,5,0,0
69290,-100,4,2,1,85,0,0
70040,-100,4,2,1,5,0,0
70090,-100,4,2,1,85,0,0
73240,-100,4,2,1,5,0,0
73290,-100,4,2,1,85,0,0
74840,-100,4,2,1,5,0,0
74890,-100,4,2,1,85,0,0
77090,-100,4,2,1,70,0,0
77390,-100,4,2,1,5,0,0
77490,-100,4,2,1,70,0,0
77790,-100,4,2,1,5,0,0
77890,-100,4,2,1,70,0,0
78190,-100,4,2,1,5,0,0
78290,-100,4,2,1,70,0,0
78590,-100,4,2,1,5,0,0
78690,-100,4,2,1,70,0,0
79590,-100,4,2,1,5,0,0
79690,-100,4,2,1,70,0,0
80390,-100,4,2,1,5,0,0
80490,-100,4,2,1,70,0,0
80790,-100,4,2,1,5,0,0
80890,-100,4,2,1,70,0,0
81190,-100,4,2,1,5,0,0
81290,-100,4,2,1,70,0,0
82190,-100,4,2,1,5,0,0
82290,-100,4,2,1,85,0,0
83440,-100,4,2,1,5,0,0
83490,-100,4,2,1,70,0,0
84290,392.156862745098,4,2,1,70,1,0
85074,408.163265306122,4,2,1,70,1,0
86240,-100,4,2,1,5,0,0
86298,-100,4,2,1,90,0,0

[Colours]
Combo1 : 54,54,54
Combo2 : 255,0,0

[HitObjects]
256,192,290,5,4,1:2:0:0:
256,192,393,12,4,6690,1:2:0:0:
32,162,9890,6,0,P|78:145|124:162,1,100,6|0,1:2|0:0,0:0:0:0:
194,235,10690,1,2,0:0:0:0:
266,166,11090,1,2,0:0:0:0:
338,235,11490,2,0,B|360:281|360:281|338:324,2,100,2|0|2,0:0|0:0|0:0,0:0:0:0:
266,166,12690,1,0,3:0:0:0:
338,97,13090,6,0,B|378:97|378:97|394:107|394:107|438:107,1,100,2|0,0:0|0:0,0:0:0:0:
480,256,14290,1,2,0:0:0:0:
398,314,14690,2,0,B|348:290|288:316|323:337|266:364|209:341,1,200,2|2,0:0|3:2,0:0:0:0:
53,213,16290,6,0,B|41:176|41:176|53:142,1,75,2|2,0:0|0:0,0:0:0:0:
142,54,17090,2,0,L|262:54,1,100,2|2,0:0|0:0,0:0:0:0:
312,123,17890,2,0,P|359:107|405:122,2,100,2|2|2,0:0|0:0|0:0,0:0:0:0:
251,201,19090,1,2,3:0:0:0:
312,278,19490,6,0,B|364:302|428:275|391:253|451:224|511:249,1,200,2|2,0:0|0:0,0:0:0:0:
500,64,21090,2,0,L|396:64,1,100,2|0,3:2|3:0,0:0:0:0:
327,132,21890,1,0,1:0:0:0:
253,64,22290,1,10,0:0:0:0:
179,131,22690,6,0,B|201:177|201:177|179:220,1,100,6|0,1:2|0:0,0:0:0:0:
105,288,23490,1,2,3:2:0:0:
177,356,23890,1,2,3:2:0:0:
276,356,24290,2,0,B|320:356|320:356|331:362|331:362|392:362,1,100,2|0,3:2|0:0,0:0:0:0:
446,292,25090,6,0,P|461:245|445:199,2,100,2|2|2,3:2|3:2|0:0,0:0:0:0:
374,362,26290,1,0,0:0:0:0:
244,178,27090,1,2,3:2:0:0:
166,240,27490,2,0,B|119:246|81:297|81:297|44:245|-5:237,1,200,2|2,0:0|0:0,0:0:0:0:
95,64,29090,6,0,P|142:47|187:66,1,100,2|0,0:0|3:2,0:0:0:0:
235,153,29890,1,2,0:0:0:0:
235,253,30290,1,2,3:2:0:0:
306,323,30690,2,0,B|353:302|394:326|394:326|410:344|410:344|454:368|509:343,1,200,2|2,0:0|3:2,0:0:0:0:
491,149,32290,6,0,B|439:176|439:176|347:135,1,150,2|0,0:0|0:0,0:0:0:0:
242,39,33490,1,2,0:0:0:0:
172,110,33890,2,0,P|183:144|171:179,2,75,4|8|12,1:0|0:0|0:0,0:0:0:0:
21,110,35090,1,8,0:0:0:0:
0,206,35490,5,6,1:0:0:0:
21,303,35890,2,2,B|55:288|55:288|89:303,1,75,10|2,0:1|1:0,0:1:0:0:
214,307,36690,1,4,3:0:0:0:
287,238,37090,2,0,L|287:128,1,100,6|2,1:2|0:0,0:0:0:0:
329,67,37790,2,0,P|385:42|440:67,1,125,6|2,1:0|1:2,0:0:0:0:
497,148,38690,5,6,1:0:0:0:
428,219,39090,2,2,L|339:219,1,75,10|6,0:1|1:0,0:1:0:0:
256,298,39890,1,4,3:0:0:0:
156,298,40290,1,14,1:0:0:0:
32,176,41090,6,0,B|32:133|32:133|42:121|42:121|42:72,2,100,2|2|6,0:0|0:0|1:2,0:0:0:0:
32,274,42290,2,2,P|67:265|103:275,1,75,10|6,0:1|1:0,0:1:0:0:
205,348,43090,1,8,3:0:0:0:
304,348,43490,1,8,3:0:0:0:
371,274,43890,2,2,L|371:187,1,75,2|6,0:0|1:0,0:0:0:0:
455,106,44690,1,0,1:0:0:0:
369,51,45090,6,0,P|324:34|279:51,1,100,6|0,1:2|0:0,0:0:0:0:
213,127,45890,2,0,P|195:172|212:217,1,100,2|2,0:0|0:0,0:0:0:0:
290,280,46690,1,0,0:0:0:0:
209,339,47090,1,0,0:0:0:0:
109,339,47490,6,0,B|136:285|106:229|81:263|48:206|79:154,1,200,2|6,0:0|1:0,0:0:0:0:
175,43,48890,2,0,B|211:45|236:77|236:77|262:45|302:42,1,150,2|10,1:1|0:1,0:0:0:0:
385,115,49890,2,0,P|411:109|441:118,2,50,10|10|10,0:1|0:2|0:1,0:0:0:0:
317,228,50690,1,2,1:0:0:0:
167,228,51290,6,0,L|67:228,1,100,6|10,1:0|0:0,0:0:0:0:
36,188,51890,2,0,B|58:145|58:145|36:99,1,100,10|10,0:0|0:0,0:0:0:0:
101,22,52690,1,2,1:2:0:0:
101,22,52890,2,0,L|250:22,1,150,10|10,0:0|0:0,0:0:0:0:
318,108,53890,1,10,0:0:0:0:
320,217,54290,1,2,1:2:0:0:
257,307,54690,6,0,B|210:328|167:303|167:303|157:287|157:287|114:263|69:284,1,200,2|8,1:2|0:0,0:0:0:0:
20,186,55890,2,0,L|20:121,1,50,2|10,1:2|0:0,0:0:0:0:
55,100,56290,2,0,B|102:79|145:104|145:104|155:120|155:120|198:144|243:123,1,200,0|10,1:0|0:0,0:0:0:0:
328,79,57490,1,8,0:0:0:0:
407,140,57890,6,0,L|407:259,1,100,2|10,1:2|0:0,0:0:0:0:
351,300,58590,2,2,B|295:275|295:275|236:299,1,125,6|10,1:0|0:0,0:1:0:0:
161,366,59490,1,6,1:2:0:0:
87,298,59890,1,8,0:0:0:0:
87,215,60190,2,2,B|87:161|87:161|78:142|78:142|78:87,1,125,6|2,1:0|1:2,0:1:0:0:
151,10,61090,5,2,1:2:0:0:
249,67,61490,1,2,0:0:0:0:
249,67,61690,2,0,P|281:114|262:167,1,100,2|2,1:2|1:2,0:0:0:0:
235,259,62490,1,10,0:0:0:0:
235,259,62690,2,0,L|301:259,1,50,2|10,1:2|0:1,0:0:0:0:
332,326,63190,1,10,0:1:0:0:
408,304,63490,2,0,L|514:304,1,100,2|2,1:0|1:0,0:0:0:0:
495,198,64290,6,2,B|495:155|495:155|488:143|488:143|488:84,1,100,6|10,1:0|0:0,0:1:0:0:
447,70,64890,2,0,L|375:70,1,50,2|10,1:2|0:0,0:0:0:0:
297,68,65490,1,2,1:2:0:0:
297,68,65690,2,0,B|267:140|267:140|297:206,1,150,10|2,0:0|1:2,0:0:0:0:
311,304,66690,1,10,0:0:0:0:
224,358,67090,2,0,L|165:358,1,50,2|10,1:2|0:0,0:0:0:0:
166,303,67490,6,0,B|80:351|80:351|-5:282,1,200,2|8,1:2|0:0,0:0:0:0:
61,195,68690,2,0,L|61:135,1,50,2|10,1:2|0:0,0:0:0:0:
102,109,69090,2,0,B|187:60|187:60|273:129,1,200,0|10,1:2|0:0,0:0:0:0:
271,234,70290,1,8,0:0:0:0:
364,291,70690,5,2,1:2:0:0:
469,259,71090,2,2,P|479:223|470:187,1,75,10|6,0:0|1:0,0:0:0:0:
420,73,71890,1,2,1:2:0:0:
320,76,72290,2,0,B|276:76|276:76|264:82|264:82|216:82,1,100,2|10,1:2|0:0,0:0:0:0:
162,139,72990,1,6,1:1:0:0:
252,225,73490,6,0,B|272:273|272:273|252:317,1,100,2|0,1:2|1:0,0:0:0:0:
162,361,74290,1,2,0:0:0:0:
72,316,74690,2,0,B|52:272|52:272|72:224,1,100,10|2,0:0|1:2,0:0:0:0:
128,141,75490,1,2,1:2:0:0:
128,41,75890,1,8,0:0:0:0:
228,41,76290,2,0,L|334:41,1,100,10|4,0:0|3:0,0:0:0:0:
385,126,77090,6,0,P|432:109|478:126,2,100,6|2|2,1:2|1:2|1:2,0:0:0:0:
312,202,78290,1,2,1:2:0:0:
385,272,78690,2,0,P|432:288|478:271,2,100,2|2|2,1:2|1:2|1:2,0:0:0:0:
312,202,79890,1,2,1:2:0:0:
239,133,80290,6,0,B|193:113|193:113|147:133,1,100,2|0,1:2|1:0,0:0:0:0:
74,200,81090,1,2,1:2:0:0:
147,267,81490,1,8,0:0:0:0:
247,267,81890,2,0,L|247:317,1,50,10|0,0:0|1:0,0:0:0:0:
283,351,82290,2,0,B|328:351|328:351|338:357|338:357|399:357,1,100,6|10,1:0|0:0,0:0:0:0:
465,302,83090,1,8,0:0:0:0:
465,202,83490,5,12,0:0:0:0:
256,192,83690,12,6,86298,1:0:0:0:
