osu file format v14

[General]
AudioFilename: audio.mp3
AudioLeadIn: 0
PreviewTime: 50590
Countdown: 0
SampleSet: Soft
StackLeniency: 0.7
Mode: 0
LetterboxInBreaks: 0
WidescreenStoryboard: 1

[Editor]
Bookmarks: 9903
DistanceSpacing: 0.7
BeatDivisor: 8
GridSize: 32
TimelineZoom: 2.2

[Metadata]
Title:Mixed Nuts (TV Size)
TitleUnicode:ミックスナッツ (TV Size)
Artist:Official HIGE DANdism
ArtistUnicode:Official髭男dism
Creator:-Aqua
Version:Kagayaki's Normal
Source:SPY×FAMILY
Tags:Yor Forger ヨル・フォージャー Yor Briar ヨル・ブライア Spy Family スパイファミリー Higedan Anime Japanese Pop J-pop Jpop Opening OP Jazz Thorn Princess Assassin Hitman Peanuts Yoru Loid Forger ロイド・フォージャー Anya Forger アーニャ・フォージャー Twilight Alternator Shirahane Suou Iceluin KeyWee Vebox Kagayaki Kazuma Deez Ania SpyxFamily
BeatmapID:3583770
BeatmapSetID:1751696

[Difficulty]
HPDrainRate:3.5
CircleSize:3.5
OverallDifficulty:4
ApproachRate:5.5
SliderMultiplier:1.2
SliderTickRate:1

[Events]
//Background and Video events
0,0,"20220422_021713.jpg",0,0
Video,-176,"vid.mp4"
//Break Periods
2,6890,8765
//Storyboard Layer 0 (Background)
//Storyboard Layer 1 (Fail)
//Storyboard Layer 2 (Pass)
//Storyboard Layer 3 (Foreground)
//Storyboard Layer 4 (Overlay)
//Storyboard Sound Samples

[TimingPoints]
290,413.080895008606,4,2,1,60,1,0
1940,400,4,2,1,60,1,0
4290,400,4,2,1,60,1,0
4865,400,4,2,1,60,1,0
5090,400,4,2,1,60,1,0
5590,-100,4,2,1,5,0,0
6690,387.096774193548,4,2,1,60,1,0
6690,-100,4,2,1,70,0,0
6840,-100,4,2,1,5,0,0
6890,-100,4,2,1,70,0,0
8240,412.371134020619,4,2,1,60,1,0
9840,-100,4,2,1,5,0,0
9890,400,4,2,1,60,1,0
9890,-125,4,2,1,60,0,0
14590,-125,4,2,1,5,0,0
14690,-125,4,2,1,60,0,0
21890,-125,4,2,1,75,0,0
22690,-125,4,2,1,60,0,0
27390,-125,4,2,1,5,0,0
27490,-125,4,2,1,60,0,0
35390,-125,4,2,1,5,0,0
35490,-111.111111111111,4,2,1,70,0,0
35790,-111.111111111111,4,2,1,5,0,0
35890,-111.111111111111,4,2,1,70,0,0
39990,-111.111111111111,4,2,1,5,0,0
40090,-111.111111111111,4,2,1,70,0,0
40190,-111.111111111111,4,2,1,5,0,0
40290,-111.111111111111,4,2,1,70,0,0
41190,-111.111111111111,4,2,1,70,0,0
41290,-111.111111111111,4,2,1,5,0,0
41390,-111.111111111111,4,2,1,70,0,0
45090,-111.111111111111,4,2,1,60,0,0
48290,-111.111111111111,4,2,1,70,0,0
48790,-111.111111111111,4,2,1,5,0,0
48890,-111.111111111111,4,2,1,70,0,0
49790,-111.111111111111,4,2,1,5,0,0
49890,-111.111111111111,4,2,1,70,0,0
50590,-111.111111111111,4,2,1,5,0,0
50690,-111.111111111111,4,2,1,60,0,0
51290,-99.9999999999999,4,2,1,85,0,0
52440,-99.9999999999999,4,2,1,5,0,0
52490,-99.9999999999999,4,2,1,85,0,0
53240,-99.9999999999999,4,2,1,5,0,0
53290,-99.9999999999999,4,2,1,85,0,0
53840,-99.9999999999999,4,2,1,5,0,0
53890,-99.9999999999999,4,2,1,85,0,0
55040,-99.9999999999999,4,2,1,5,0,0
55090,-99.9999999999999,4,2,1,85,0,0
55440,-99.9999999999999,4,2,1,5,0,0
55490,-99.9999999999999,4,2,1,85,0,0
56440,-99.9999999999999,4,2,1,5,0,0
56490,-99.9999999999999,4,2,1,85,0,0
57240,-99.9999999999999,4,2,1,5,0,0
57290,-99.9999999999999,4,2,1,85,0,0
61840,-99.9999999999999,4,2,1,5,0,0
61890,-99.9999999999999,4,2,1,85,0,0
62840,-99.9999999999999,4,2,1,5,0,0
62890,-99.9999999999999,4,2,1,85,0,0
63140,-99.9999999999999,4,2,1,5,0,0
63190,-99.9999999999999,4,2,1,85,0,0
65240,-99.9999999999999,4,2,1,5,0,0
65290,-99.9999999999999,4,2,1,85,0,0
66040,-99.9999999999999,4,2,1,5,0,0
66090,-99.9999999999999,4,2,1,85,0,0
66640,-99.9999999999999,4,2,1,5,0,0
66690,-99.9999999999999,4,2,1,85,0,0
67840,-99.9999999999999,4,2,1,5,0,0
67890,-99.9999999999999,4,2,1,85,0,0
68240,-99.9999999999999,4,2,1,5,0,0
68290,-99.9999999999999,4,2,1,85,0,0
69240,-99.9999999999999,4,2,1,5,0,0
69290,-99.9999999999999,4,2,1,85,0,0
70040,-99.9999999999999,4,2,1,5,0,0
70090,-99.9999999999999,4,2,1,85,0,0
73240,-99.9999999999999,4,2,1,5,0,0
73290,-99.9999999999999,4,2,1,85,0,0
74840,-99.9999999999999,4,2,1,5,0,0
74890,-99.9999999999999,4,2,1,85,0,0
77090,-111.111111111111,4,2,1,70,0,0
77390,-111.111111111111,4,2,1,5,0,0
77490,-111.111111111111,4,2,1,70,0,0
77790,-111.111111111111,4,2,1,5,0,0
77890,-111.111111111111,4,2,1,70,0,0
78190,-111.111111111111,4,2,1,5,0,0
78290,-111.111111111111,4,2,1,70,0,0
78590,-111.111111111111,4,2,1,5,0,0
78690,-111.111111111111,4,2,1,70,0,0
79590,-111.111111111111,4,2,1,5,0,0
79690,-111.111111111111,4,2,1,70,0,0
80390,-111.111111111111,4,2,1,5,0,0
80490,-111.111111111111,4,2,1,70,0,0
80790,-111.111111111111,4,2,1,5,0,0
80890,-111.111111111111,4,2,1,70,0,0
81190,-111.111111111111,4,2,1,5,0,0
81290,-111.111111111111,4,2,1,70,0,0
82190,-111.111111111111,4,2,1,5,0,0
82290,-111.111111111111,4,2,1,85,0,0
83440,-111.111111111111,4,2,1,5,0,0
83490,-111.111111111111,4,2,1,70,0,0
84290,392.156862745098,4,2,1,70,1,0
85074,408.163265306122,4,2,1,70,1,0
86240,-111.111111111111,4,2,1,5,0,0
86298,-111.111111111111,4,2,1,90,0,0

[Colours]
Combo1 : 54,54,54
Combo2 : 255,0,0

[HitObjects]
57,220,290,5,4,1:2:0:0:
256,192,393,12,4,6690,1:2:0:0:
57,220,9890,5,6,1:2:0:0:
57,220,10090,2,0,L|161:196,1,96,2|0,0:0|0:0,0:0:0:0:
177,191,10690,1,2,0:0:0:0:
200,98,11090,2,0,L|252:86,1,48,2|0,0:0|0:0,0:0:0:0:
273,80,11490,1,2,0:0:0:0:
366,100,11890,1,0,0:0:0:0:
459,120,12290,2,0,L|480:213,1,96,2|0,0:0|3:0,0:0:0:0:
488,239,12890,5,2,3:2:0:0:
488,239,13090,2,0,P|432:242|398:281,1,96,2|0,0:0|0:0,0:0:0:0:
364,354,13890,1,0,0:0:0:0:
270,331,14290,2,0,L|254:263,1,48,2|0,0:0|0:0,0:0:0:0:
256,259,14690,2,0,B|186:242|186:242|184:238|184:238|102:219,1,144,2|0,0:0|3:0,0:0:0:0:
102,205,15490,2,0,L|55:215,1,48,0|2,3:0|0:0,0:0:0:0:
77,120,16090,5,0,3:0:0:0:
77,120,16290,2,0,B|176:96|176:96|200:53,1,144,2|0,0:0|0:0,0:0:0:0:
203,39,17090,1,2,0:0:0:0:
291,76,17490,2,0,L|337:65,1,48,2|0,0:0|0:0,0:0:0:0:
354,45,17890,2,0,P|405:53|434:100,1,96,0|2,0:0|0:0,0:0:0:0:
447,100,18490,2,0,L|436:146,1,48,0|2,0:0|0:0,0:0:0:0:
410,239,19090,5,2,3:0:0:0:
410,239,19290,1,2,3:0:0:0:
410,239,19490,2,0,B|340:221|340:221|276:270,1,144,2|0,0:0|0:0,0:0:0:0:
264,282,20290,2,0,L|218:271,1,48,2|0,0:0|0:0,0:0:0:0:
138,325,20890,1,0,0:0:0:0:
138,325,21090,2,0,L|45:302,1,96,2|0,3:2|3:0,0:0:0:0:
29,283,21690,2,0,L|18:237,1,48,0|0,3:0|1:0,0:0:0:0:
31,220,22090,1,10,0:0:0:0:
31,220,22290,2,0,L|20:174,1,48,10|10,0:0|0:0,0:0:0:0:
103,125,22890,6,0,L|125:217,1,96,2|0,0:0|3:0,0:0:0:0:
131,237,23490,1,2,3:2:0:0:
223,263,23890,2,0,L|269:274,1,48,2|0,3:2|0:0,0:0:0:0:
292,283,24290,1,2,3:2:0:0:
378,241,24690,1,0,0:0:0:0:
464,199,25090,2,0,B|438:155|438:155|387:146,1,96,2|2,3:2|3:2,0:0:0:0:
384,132,25690,5,0,0:0:0:0:
384,132,25890,2,0,L|282:156,1,96,2|0,0:0|0:0,0:0:0:0:
233,231,26690,1,0,0:0:0:0:
149,183,27090,2,0,B|144:160|144:160|161:141,1,48,2|0,3:2|0:0,0:0:0:0:
175,122,27490,2,0,L|25:157,1,144,2|0,0:0|0:0,0:0:0:0:
15,160,28290,2,0,L|4:206,1,48,0|2,0:0|0:0,0:0:0:0:
60,284,28890,5,0,3:2:0:0:
60,284,29090,2,0,P|137:282|184:335,1,144,2|0,0:0|0:0,0:0:0:0:
199,343,29890,2,0,L|245:332,1,48,2|2,0:0|3:2,0:0:0:0:
260,308,30290,2,0,L|306:319,1,48,2|0,3:2|0:0,0:0:0:0:
329,311,30690,2,0,B|377:276|377:276|342:177,1,144,2|0,0:0|3:2,0:0:0:0:
336,180,31490,2,0,L|290:169,1,48,2|0,3:2|3:2,0:0:0:0:
212,226,32090,5,2,0:0:0:0:
212,226,32290,2,0,L|112:202,1,96,2|0,0:0|3:2,0:0:0:0:
97,217,32890,2,0,P|66:191|64:129,1,96,0|2,0:0|0:0,0:0:0:0:
72,115,33490,2,0,L|118:104,1,48,0|2,0:0|0:0,0:0:0:0:
146,95,33890,2,0,L|157:49,1,48,4|8,1:0|0:0,0:0:0:0:
243,7,34490,1,12,0:0:0:0:
243,7,34690,2,0,L|289:18,1,48,8|0,0:0|0:0,0:0:0:0:
307,42,35090,2,0,L|353:31,1,48,8|8,0:0|3:0,0:0:0:0:
370,3,35490,6,0,P|422:17|442:83,1,107.999996704102,6|10,1:0|0:1,0:0:0:0:
481,134,36190,2,2,L|402:152,1,80.9999975280763,2|8,1:0|3:0,0:1:0:0:
377,159,36690,2,0,L|364:211,1,53.9999983520508,4|0,3:0|1:0,0:0:0:0:
358,237,37090,1,6,1:2:0:0:
393,338,37490,6,2,L|471:356,2,80.9999975280763,2|6|0,0:0|1:0|1:0,0:0:0:0:
375,322,38290,2,0,L|322:334,1,53.9999983520508,2|8,1:2|0:0,0:0:0:0:
298,344,38690,1,6,1:0:0:0:
200,298,39090,6,2,L|181:376,2,80.9999975280763,10|6|8,0:1|1:0|3:0,0:0:0:0:
206,275,39890,1,4,3:0:0:0:
98,276,40290,2,0,L|58:110,1,161.999995056153,14|0,1:0|1:0,0:0:0:0:
54,93,41090,1,2,0:0:0:0:
121,9,41490,2,0,L|173:21,1,53.9999983520508,2|8,0:0|3:0,0:0:0:0:
203,7,41890,6,0,P|256:19|271:76,1,107.999996704102,6|10,1:2|0:1,0:0:0:0:
271,145,42590,2,2,L|353:125,1,80.9999975280763,6|8,1:0|3:0,0:1:0:0:
364,102,43090,2,0,L|427:117,1,53.9999983520508,8|8,3:0|0:0,0:0:0:0:
444,124,43490,1,8,3:0:0:0:
411,226,43890,2,2,L|318:247,2,80.9999975280763,2|6|0,0:0|1:0|1:0,0:0:0:0:
437,220,44690,1,0,1:0:0:0:
437,220,44890,1,8,0:0:0:0:
452,326,45290,5,2,3:2:0:0:
452,326,45490,2,0,L|342:352,1,107.999996704102,0|2,0:0|0:0,0:0:0:0:
243,381,46290,1,2,0:0:0:0:
196,283,46690,2,0,L|86:256,1,107.999996704102,0|0,0:0|0:0,0:0:0:0:
74,283,47290,1,0,3:2:0:0:
74,283,47490,2,0,P|20:224|50:137,1,161.999995056153,2|0,0:0|3:0,0:0:0:0:
55,126,48290,6,0,B|106:138|106:138|143:121|143:121|215:138,1,161.999995056153,6|2,1:0|1:1,0:0:0:0:
275,184,49190,2,0,L|358:163,1,80.9999975280763,10|10,0:1|0:1,0:0:0:0:
366,138,49690,1,2,1:0:0:0:
365,137,49890,2,0,L|469:162,1,107.999996704102,10|10,0:1|0:1,0:0:0:0:
412,246,50690,2,0,L|353:260,1,53.9999983520508,2|2,1:0|1:0,0:0:0:0:
331,241,51090,5,2,1:0:0:0:
331,241,51290,2,2,B|271:228|271:228|222:298,1,120,6|10,1:0|0:0,0:1:0:0:
219,303,51890,2,0,L|160:288,1,60,10|2,0:0|1:2,0:0:0:0:
143,270,52290,1,10,0:0:0:0:
27,303,52690,1,2,1:2:0:0:
27,303,52890,2,0,P|-6:258|21:178,1,120,10|10,0:0|0:0,0:0:0:0:
24,180,53490,1,10,0:0:0:0:
87,78,53890,2,0,L|145:92,1,60,10|2,0:0|0:0,0:0:0:0:
164,121,54290,2,0,L|222:106,1,60,2|10,1:2|0:0,0:0:0:0:
253,96,54690,5,2,1:2:0:0:
253,96,54890,2,0,L|276:3,2,90,8|8|8,0:0|0:0|0:0,0:0:0:0:
362,145,55890,1,2,1:2:0:0:
362,145,56090,2,0,L|393:22,2,120,10|10|2,0:0|0:0|1:2,0:0:0:0:
332,159,57090,1,10,0:0:0:0:
332,159,57290,2,0,L|362:275,1,120,8|8,0:0|0:0,0:0:0:0:
384,297,57890,6,0,P|325:293|279:353,1,120,2|10,1:2|0:0,0:0:0:0:
207,380,58590,2,2,L|116:356,1,90,6|8,1:0|3:0,0:1:0:0:
93,349,59090,1,10,0:0:0:0:
89,235,59490,6,0,B|176:211|176:211|205:162,1,120,6|8,1:2|0:0,0:0:0:0:
270,141,60190,2,2,L|357:163,1,90,6|0,1:0|1:0,0:1:0:0:
370,195,60690,2,0,L|442:176,1,60,2|10,1:2|0:0,0:0:0:0:
454,169,61090,1,2,1:2:0:0:
439,55,61490,5,2,0:0:0:0:
439,55,61690,2,0,L|313:23,1,120,2|2,1:2|1:2,0:0:0:0:
303,3,62290,1,2,1:2:0:0:
303,3,62490,1,10,0:0:0:0:
303,3,62690,2,0,B|273:-1|273:-1|244:17,1,60,2|10,1:2|0:1,0:0:0:0:
227,44,63090,2,0,B|169:61|169:61|111:18,1,120,2|2,0:0|1:0,0:0:0:0:
22,93,63890,5,2,1:0:0:0:
22,93,64090,2,0,L|53:218,1,120,8|8,0:0|0:0,0:0:0:0:
62,237,64690,2,0,L|147:258,1,60,10|2,0:0|1:2,0:0:0:0:
149,261,65090,1,10,0:0:0:0:
227,351,65490,1,2,1:2:0:0:
227,351,65690,2,0,P|272:311|267:238,1,120,10|10,0:0|0:0,0:0:0:0:
264,232,66290,1,2,1:2:0:0:
303,118,66690,2,0,L|361:132,1,60,10|2,0:0|0:0,0:0:0:0:
380,161,67090,2,0,L|438:146,1,60,2|10,1:2|0:0,0:0:0:0:
469,136,67490,5,2,1:2:0:0:
469,136,67690,2,0,L|492:43,2,90,8|8|8,0:0|0:0|0:0,0:0:0:0:
349,126,68690,1,2,1:2:0:0:
349,126,68890,2,0,L|380:3,2,120,10|8|0,0:0|0:0|1:0,0:0:0:0:
319,140,69890,1,10,0:0:0:0:
319,140,70090,2,0,L|349:256,1,120,8|8,0:0|0:0,0:0:0:0:
375,273,70690,6,0,L|357:342,1,60,2|10,1:2|0:0,0:0:0:0:
352,358,71090,1,10,0:0:0:0:
232,368,71490,2,0,L|216:309,1,60,2|8,0:0|3:0,0:0:0:0:
210,284,71890,2,0,L|151:268,1,60,2|10,1:2|0:0,0:0:0:0:
120,282,72290,2,0,P|74:258|74:178,1,120,2|10,1:2|0:0,0:0:0:0:
82,106,72990,2,2,L|172:82,1,90,6|2,1:1|1:2,0:1:0:0:
198,73,73490,1,2,1:2:0:0:
198,73,73690,1,10,0:0:0:0:
268,0,74090,5,10,0:0:0:0:
268,0,74290,2,0,L|332:17,1,60,2|2,0:0|1:2,0:0:0:0:
343,49,74690,2,0,L|400:33,1,60,10|2,0:0|1:2,0:0:0:0:
423,4,75090,2,0,P|480:13|513:81,1,120,2|2,1:2|1:2,0:0:0:0:
504,93,75690,1,8,0:0:0:0:
423,181,76090,5,10,0:0:0:0:
423,181,76290,2,0,L|365:165,1,60,10|8,0:0|3:0,0:0:0:0:
348,132,76690,2,0,L|290:147,1,60,4|0,3:0|1:0,0:0:0:0:
259,155,77090,5,6,1:2:0:0:
310,249,77490,1,2,1:2:0:0:
238,330,77890,1,2,1:2:0:0:
139,282,78290,1,2,1:2:0:0:
152,176,78690,1,2,1:2:0:0:
152,176,78890,2,0,L|94:161,1,53.9999983520508,2|2,0:0|1:2,0:0:0:0:
77,156,79290,2,0,L|48:47,1,107.999996704102,2|2,0:0|0:0,0:0:0:0:
72,25,79890,5,2,1:2:0:0:
72,25,80090,1,10,0:0:0:0:
72,25,80290,2,0,P|123:20|170:72,1,107.999996704102,2|0,1:2|1:0,0:0:0:0:
174,85,80890,1,10,0:0:0:0:
174,85,81090,2,0,P|225:89|272:37,1,107.999996704102,2|8,1:2|0:0,0:0:0:0:
279,17,81690,5,10,0:0:0:0:
279,17,81890,2,0,L|331:30,1,53.9999983520508,10|0,0:0|1:0,0:0:0:0:
356,58,82290,1,6,1:0:0:0:
456,18,82690,2,0,L|469:70,1,53.9999983520508,10|2,0:0|1:0,0:0:0:0:
502,89,83090,2,0,L|488:141,1,53.9999983520508,8|0,0:0|0:0,0:0:0:0:
471,173,83490,1,12,0:0:0:0:
256,192,83690,12,6,86298,1:0:0:0:
