osu file format v14

[General]
AudioFilename: audio.mp3
AudioLeadIn: 0
PreviewTime: 50590
Countdown: 0
SampleSet: Soft
StackLeniency: 0.3
Mode: 0
LetterboxInBreaks: 0
WidescreenStoryboard: 1

[Editor]
Bookmarks: 4850,6690,9890,22690,35490,45090,51290,70690,77093,77490,83490
DistanceSpacing: 0.4
BeatDivisor: 4
GridSize: 32
TimelineZoom: 3.599999

[Metadata]
Title:Mixed Nuts (TV Size)
TitleUnicode:ミックスナッツ (TV Size)
Artist:Official HIGE DANdism
ArtistUnicode:Official髭男dism
Creator:-Aqua
Version:Iceluin's Insane
Source:SPY×FAMILY
Tags:Yor Forger ヨル・フォージャー Yor Briar ヨル・ブライア Spy Family スパイファミリー Higedan Anime Japanese Pop J-pop Jpop Opening OP Jazz Thorn Princess Assassin Hitman Peanuts Yoru Loid Forger ロイド・フォージャー Anya Forger アーニャ・フォージャー Twilight Alternator Shirahane Suou Iceluin KeyWee Vebox Kagayaki Kazuma Deez Ania SpyxFamily
BeatmapID:3583769
BeatmapSetID:1751696

[Difficulty]
HPDrainRate:4.5
CircleSize:4
OverallDifficulty:8
ApproachRate:9
SliderMultiplier:1.6
SliderTickRate:1

[Events]
//Background and Video events
0,0,"20220422_021713.jpg",0,0
Video,-176,"vid.mp4"
//Break Periods
//Storyboard Layer 0 (Background)
//Storyboard Layer 1 (Fail)
//Storyboard Layer 2 (Pass)
//Storyboard Layer 3 (Foreground)
//Storyboard Layer 4 (Overlay)
//Storyboard Sound Samples

[TimingPoints]
290,413.080895008606,4,2,1,60,1,0
290,-80,4,2,1,60,0,0
1940,400,4,2,1,60,1,0
1940,-125,4,2,1,60,0,0
2473,-105.263157894737,4,2,1,60,0,0
3006,-90.9090909090909,4,2,1,60,0,0
3540,-80,4,2,1,60,0,0
3673,-80,4,2,1,5,0,0
3740,-80,4,2,1,60,0,0
3873,-80,4,2,1,5,0,0
3940,-66.6666666666667,4,2,1,60,0,0
4006,-66.6666666666667,4,2,1,5,0,0
4106,-66.6666666666667,4,2,1,60,0,0
4173,-66.6666666666667,4,2,1,5,0,0
4290,400,4,2,1,60,1,0
4290,-66.6666666666667,4,2,1,60,0,0
4356,-66.6666666666667,4,2,1,5,0,0
4490,-66.6666666666667,4,2,1,60,0,0
4556,-66.6666666666667,4,2,1,5,0,0
4690,-66.6666666666667,4,2,1,60,0,0
4756,-66.6666666666667,4,2,1,5,0,0
4865,400,4,2,1,60,1,0
4865,-66.6666666666667,4,2,1,60,0,0
4931,-66.6666666666667,4,2,1,5,0,0
5090,400,4,2,1,60,1,0
5090,-66.6666666666667,4,2,1,60,0,0
5490,-74.0740740740741,4,2,1,60,0,0
5590,-74.0740740740741,4,2,1,5,0,0
6690,387.096774193548,4,2,1,60,1,0
6690,-86.9565217391304,4,2,1,70,0,0
6890,-86.9565217391304,4,2,1,70,0,0
8240,412.371134020619,4,2,1,70,1,0
8240,-86.9565217391304,4,2,1,70,0,0
9064,-80,4,2,1,70,0,0
9580,-74.0740740740741,4,2,1,70,0,0
9890,400,4,2,1,60,1,0
9890,-62.5,4,2,1,60,0,0
10090,-100,4,2,1,60,0,0
14690,-100,4,2,1,60,0,0
21890,-100,4,2,1,75,0,0
22690,-86.9565217391304,4,2,1,60,0,0
35490,-80,4,2,1,70,0,0
45090,-100,4,2,1,60,0,0
48290,-80,4,2,1,70,0,0
50690,-74.0740740740741,4,2,1,60,0,0
51290,-57.1428571428571,4,2,1,85,0,0
52440,-57.1428571428571,4,2,1,5,0,0
52490,-57.1428571428571,4,2,1,85,0,0
53240,-57.1428571428571,4,2,1,5,0,0
53290,-57.1428571428571,4,2,1,85,0,0
53840,-57.1428571428571,4,2,1,5,0,0
53890,-57.1428571428571,4,2,1,85,0,0
55040,-57.1428571428571,4,2,1,5,0,0
55090,-57.1428571428571,4,2,1,85,0,0
55440,-57.1428571428571,4,2,1,5,0,0
55490,-57.1428571428571,4,2,1,85,0,0
56440,-57.1428571428571,4,2,1,5,0,0
56490,-57.1428571428571,4,2,1,85,0,0
57240,-57.1428571428571,4,2,1,5,0,0
57290,-57.1428571428571,4,2,1,85,0,0
58590,-52.6315789473684,4,2,1,85,0,0
58990,-57.1428571428571,4,2,1,85,0,0
60190,-52.6315789473684,4,2,1,85,0,0
60690,-57.1428571428571,4,2,1,85,0,0
61840,-57.1428571428571,4,2,1,5,0,0
61890,-57.1428571428571,4,2,1,85,0,0
62840,-57.1428571428571,4,2,1,5,0,0
62890,-57.1428571428571,4,2,1,85,0,0
63140,-57.1428571428571,4,2,1,5,0,0
63190,-57.1428571428571,4,2,1,85,0,0
65240,-57.1428571428571,4,2,1,5,0,0
65290,-57.1428571428571,4,2,1,85,0,0
66040,-57.1428571428571,4,2,1,5,0,0
66090,-57.1428571428571,4,2,1,85,0,0
66640,-57.1428571428571,4,2,1,5,0,0
66690,-57.1428571428571,4,2,1,85,0,0
67840,-57.1428571428571,4,2,1,5,0,0
67890,-57.1428571428571,4,2,1,85,0,0
68240,-57.1428571428571,4,2,1,5,0,0
68290,-57.1428571428571,4,2,1,85,0,0
69240,-57.1428571428571,4,2,1,5,0,0
69290,-57.1428571428571,4,2,1,85,0,0
70040,-57.1428571428571,4,2,1,5,0,0
70090,-57.1428571428571,4,2,1,85,0,0
71390,-52.6315789473684,4,2,1,85,0,0
71690,-57.1428571428571,4,2,1,85,0,0
72990,-52.6315789473684,4,2,1,85,0,0
73240,-52.6315789473684,4,2,1,5,0,0
73290,-57.1428571428571,4,2,1,85,0,0
74840,-57.1428571428571,4,2,1,5,0,0
74890,-57.1428571428571,4,2,1,85,0,0
77090,-57.1428571428571,4,2,1,70,0,0
77390,-57.1428571428571,4,2,1,5,0,0
77490,-117.647058823529,4,2,1,70,0,0
77790,-117.647058823529,4,2,1,5,0,0
77890,-57.1428571428571,4,2,1,70,0,0
78190,-57.1428571428571,4,2,1,5,0,0
78290,-117.647058823529,4,2,1,70,0,0
78590,-117.647058823529,4,2,1,5,0,0
78690,-57.1428571428571,4,2,1,70,0,0
79090,-117.647058823529,4,2,1,70,0,0
79490,-57.1428571428571,4,2,1,70,0,0
79590,-57.1428571428571,4,2,1,5,0,0
79690,-57.1428571428571,4,2,1,70,0,0
79890,-117.647058823529,4,2,1,70,0,0
80290,-57.1428571428571,4,2,1,70,0,0
80390,-57.1428571428571,4,2,1,5,0,0
80490,-57.1428571428571,4,2,1,70,0,0
80790,-57.1428571428571,4,2,1,5,0,0
80890,-57.1428571428571,4,2,1,70,0,0
81190,-57.1428571428571,4,2,1,5,0,0
81290,-57.1428571428571,4,2,1,70,0,0
82190,-57.1428571428571,4,2,1,5,0,0
82290,-57.1428571428571,4,2,1,85,0,0
83440,-57.1428571428571,4,2,1,5,0,0
83490,-86.9565217391304,4,2,1,70,0,0
84290,392.156862745098,4,2,1,70,1,0
84290,-86.9565217391304,4,2,1,70,0,0
85074,408.163265306122,4,2,1,70,1,0
85074,-86.9565217391304,4,2,1,70,0,0
86290,-50,4,2,1,90,0,0

[Colours]
Combo1 : 54,54,54
Combo2 : 255,0,0

[HitObjects]
126,63,290,6,0,P|163:107|151:164,1,120,4|2,1:2|0:0,0:0:0:0:
150,164,703,1,2,0:0:0:0:
0,141,868,2,0,B|30:162|36:187|36:187|32:161|56:130,1,120,2|2,0:0|0:0,0:0:0:0:
227,223,1391,2,0,P|293:209|359:199,1,133.333333333333,2|2,0:0|0:0,0:0:0:0:
247,85,1940,6,0,P|243:64|255:46,1,42.6666666666667,2|0,0:0|0:0,0:0:0:0:
295,58,2206,2,0,P|298:78|286:96,1,42.6666666666667,2|0,0:0|0:0,0:0:0:0:
228,223,2473,6,0,P|232:198|218:177,1,50.6666653137207,2|0,0:0|0:0,0:0:0:0:
131,197,2740,2,0,P|126:221|141:242,1,50.6666653137207,2|0,0:0|0:0,0:0:0:0:
261,354,3006,6,0,P|256:325|272:302,1,58.6666684570313,2|0,0:0|0:0,0:0:0:0:
417,329,3273,2,0,P|420:358|405:382,1,58.6666684570313,2|0,0:0|0:0,0:0:0:0:
446,187,3540,6,0,L|380:197,1,66.6666666666667,2|2,0:0|0:0,0:0:0:0:
293,213,3740,2,0,L|227:223,1,66.6666666666667,2|2,0:0|0:0,0:0:0:0:
140,241,3940,6,0,B|153:253|153:253|146:272,1,40.000001525879,2|0,0:0|0:0,0:0:0:0:
144,350,4106,2,0,B|130:337|130:337|137:318,1,40.000001525879,2|0,0:0|0:0,0:0:0:0:
9,223,4290,6,0,B|16:262,1,40.000001525879,2|0,0:0|0:0,0:0:0:0:
46,380,4490,2,0,B|38:340,1,40.000001525879,2|0,0:0|0:0,0:0:0:0:
100,161,4690,6,0,B|87:163|82:168|82:168|78:161|66:156,1,40.000001525879,2|0,0:0|0:0,0:0:0:0:
85,29,4865,2,0,B|97:26|103:21|103:21|107:28|117:34,1,40.000001525879,2|0,0:0|0:0,0:0:0:0:
208,108,5090,6,0,P|191:119|204:101,4,48.0000018310548
211,84,5490,6,0,B|282:75|342:119|386:246|306:253|301:366|454:390|538:319|549:194|402:129|357:234,1,594.00000226593,2|0,0:0|0:0,0:0:0:0:
345,240,6690,6,0,P|322:235|299:232,1,46.0000008773804,4|0,1:2|0:0,0:0:0:0:
216,215,6883,1,8,0:0:0:0:
91,88,7077,1,0,1:0:0:0:
99,99,7173,1,8,0:0:0:0:
107,110,7270,1,0,1:0:0:0:
115,121,7367,1,0,1:0:0:0:
122,132,7464,2,0,P|117:154|114:177,1,46.0000008773804,8|0,0:0|1:0,0:0:0:0:
55,294,7657,5,0,1:0:0:0:
52,280,7754,1,8,0:0:0:0:
48,266,7851,2,0,L|36:222,1,46.0000008773804,0|0,1:0|1:0,0:0:0:0:
203,170,8044,2,0,L|215:214,1,46.0000008773804,8|0,0:0|1:0,0:0:0:0:
151,367,8240,6,0,L|124:354,5,30.6666672515869,8|0|0|0|0|8,3:2|3:2|3:2|3:2|0:0|3:2,0:0:0:0:
321,342,8652,2,0,L|332:309,5,30.6666672515869,8|0|0|0|0|8,3:2|3:0|3:0|3:0|3:0|3:2,0:0:0:0:
233,336,9064,5,8,0:0:0:0:
229,313,9167,2,0,P|222:262|214:213,1,100,8|0,0:3|0:0,0:0:0:0:
203,170,9477,5,8,1:2:0:0:
203,170,9580,2,0,P|245:199|296:184,1,108.000000411987,6|0,1:2|0:0,0:0:0:0:
321,151,9890,6,0,B|346:120|382:128|382:128|353:135|335:161,1,128,6|0,1:2|0:0,0:0:0:0:
406,218,10290,1,0,0:0:0:0:
406,218,10490,1,0,0:0:0:0:
406,218,10689,2,0,P|397:257|392:296,1,80,0|2,0:0|0:0,0:0:0:0:
381,382,11090,1,0,0:0:0:0:
381,382,11290,1,0,0:0:0:0:
195,345,11490,6,0,P|254:333|314:326,1,120,2|2,0:0|0:0,0:0:0:0:
32,32,12490,5,0,3:0:0:0:
32,32,12590,1,0,3:0:0:0:
32,32,12690,2,0,L|27:72,3,40,0|0|2|0,3:0|3:0|3:2|3:0,0:0:0:0:
24,92,13090,6,0,P|80:77|130:107,1,120,2|2,0:0|0:0,0:0:0:0:
34,365,14090,5,0,3:0:0:0:
34,365,14190,1,0,3:0:0:0:
34,365,14290,2,0,P|43:306|52:247,1,120,2|0,0:0|0:0,0:0:0:0:
26,213,14690,6,0,B|57:191|63:166|63:166|59:192|81:220,1,120,2|2,0:0|0:0,0:0:0:0:
192,322,15290,1,0,3:0:0:0:
192,322,15390,1,0,3:0:0:0:
192,322,15490,2,0,L|241:315,3,40,0|0|0|0,3:0|3:0|3:0|3:0,0:0:0:0:
312,370,15890,1,0,3:0:0:0:
312,370,15990,2,0,L|365:364,1,40,2|0,3:2|3:0,0:0:0:0:
512,283,16290,6,0,P|456:266|409:299,1,120,2|2,0:0|0:0,0:0:0:0:
68,141,17290,6,0,P|75:180|81:219,1,80,2|0,0:0|0:0,0:0:0:0:
81,219,17690,1,0,0:0:0:0:
26,69,17890,6,0,P|73:102|129:85,1,120
159,58,18290,1,0,0:0:0:0:
159,58,18490,1,0,0:0:0:0:
256,166,18690,2,0,P|315:155|374:147,1,120,2|2,0:0|0:0,0:0:0:0:
455,190,19090,1,0,3:0:0:0:
455,190,19190,2,0,L|462:150,1,40,0|0,3:0|3:0,0:0:0:0:
394,28,19490,6,0,P|383:87|374:146,2,120,2|2|0,0:0|0:0|0:0,0:0:0:0:
394,28,20290,2,0,P|355:20|320:38,1,80,2|0,0:0|0:0,0:0:0:0:
96,192,20890,5,0,0:0:0:0:
115,281,21090,2,0,L|118:300,14,20,2|0|0|0|0|0|0|0|0|0|0|0|0|0|0,3:2|3:0|3:0|3:0|3:0|3:0|3:0|3:0|3:0|3:0|3:0|3:0|3:0|3:0|3:0,0:0:0:0:
123,332,21890,1,0,1:0:0:0:
236,183,22090,5,10,0:0:0:0:
263,205,22190,1,10,0:0:0:0:
281,238,22290,1,10,0:0:0:0:
265,272,22390,1,10,0:0:0:0:
239,297,22490,2,0,P|220:293|199:290,1,40,10|10,0:0|0:0,0:0:0:0:
45,367,22690,6,0,P|38:321|30:276,1,92.0000017547608,6|0,1:2|0:0,0:0:0:0:
0,190,23090,1,0,0:0:0:0:
0,190,23290,1,0,3:0:0:0:
0,190,23489,2,0,P|43:179|81:204,1,92.0000017547608,2|0,3:2|3:0,0:0:0:0:
149,145,23890,1,0,3:0:0:0:
149,145,24090,1,0,0:0:0:0:
225,250,24290,6,0,P|238:159|253:68,2,184.000003509522,0|0|2,3:0|0:0|3:2,0:0:0:0:
304,327,25290,1,0,3:2:0:0:
304,327,25390,1,0,3:2:0:0:
304,327,25490,2,0,L|367:318,3,46.0000008773804,0|0|0|0,3:2|3:0|3:0|3:0,0:0:0:0:
386,325,25890,6,0,B|428:352|465:310|465:310|420:272|380:310,1,184.000003509522
146,80,26690,6,0,P|104:131|129:192,1,138.000002632141,2|2,0:0|0:0,0:0:0:0:
157,209,27090,1,0,3:0:0:0:
157,209,27490,6,0,B|197:235|247:196|227:176|280:136|318:165,1,184.000003509522,0|0,0:0|0:0,0:0:0:0:
406,215,28090,1,0,3:0:0:0:
406,215,28190,1,0,3:0:0:0:
406,215,28290,2,0,L|414:170,2,46.0000008773804,0|0|2,3:0|3:0|3:2,0:0:0:0:
505,128,28690,1,0,3:2:0:0:
505,128,28790,1,2,3:2:0:0:
505,128,28890,1,0,3:2:0:0:
380,0,29090,6,0,P|435:37|500:18,2,138.000002632141,2|2|0,0:0|3:2|0:0,0:0:0:0:
202,34,29890,2,0,P|211:80|217:125,1,92.0000017547608,0|2,0:0|3:2,0:0:0:0:
307,108,30290,2,0,P|299:63|293:18,1,92.0000017547608,0|0,3:2|0:0,0:0:0:0:
397,173,30690,6,0,P|266:140|153:212,1,276.000005264282,0|0,0:0|3:2,0:0:0:0:
1,162,31490,2,0,B|50:190|63:228|63:228|53:190|83:143,1,184.000003509522,2|2,3:2|0:0,0:0:0:0:
83,141,32290,6,0,B|54:179|94:232|114:212|153:262|127:302,1,184.000003509522,2|0,0:0|3:2,0:0:0:0:
45,363,32890,2,0,P|135:344|226:331,1,184.000003509522,0|2,0:0|0:0,0:0:0:0:
316,383,33490,1,0,0:0:0:0:
316,383,33690,1,2,0:0:0:0:
356,203,33890,6,0,P|364:248|370:293,1,92.0000017547608,4|8,1:2|0:0,0:0:0:0:
370,293,34190,1,8,0:0:0:0:
219,232,34390,1,8,0:0:0:0:
219,232,34490,1,8,0:0:0:0:
341,119,34690,5,8,0:0:0:0:
341,119,34790,2,0,P|334:73|326:28,1,92.0000017547608,8|8,0:0|0:0,0:0:0:0:
243,79,35090,1,8,0:0:0:0:
243,79,35190,1,8,0:0:0:0:
243,79,35290,2,0,P|220:75|197:72,1,46.0000008773804,8|0,3:0|0:0,0:0:0:0:
54,10,35490,6,0,B|79:47|110:54|110:54|78:50|41:79,1,150,6|0,1:0|0:0,0:0:0:0:
30,99,35890,2,0,P|35:123|39:148,1,50,10|8,0:1|0:0,0:0:0:0:
23,316,36190,6,2,P|64:289|111:300,1,100,2|0,1:0|0:0,0:1:0:0:
192,342,36490,1,8,3:0:0:0:
192,342,36590,1,8,3:0:0:0:
192,342,36690,2,0,L|199:292,2,50,4|4|0,3:0|3:0|1:0,0:0:0:0:
368,283,37090,6,0,P|360:332|353:381,1,100,6|10,1:2|0:1,0:0:0:0:
275,355,37390,1,10,0:1:0:0:
275,355,37490,2,0,P|278:331|282:306,1,50,2|8,0:0|0:0,0:0:0:0:
397,209,37690,5,8,0:0:0:0:
397,209,37790,2,2,P|356:235|308:224,1,100,6|0,1:0|0:0,0:1:0:0:
293,142,38090,2,0,P|334:116|382:127,2,100,0|2|8,1:0|1:2|0:0,0:0:0:0:
198,292,38690,6,0,P|148:282|99:275,1,100,6|8,1:0|0:0,0:0:0:0:
24,306,38990,1,8,0:0:0:0:
24,306,39090,2,0,B|5:288|5:288|17:268,1,50,10|8,0:1|0:0,0:0:0:0:
0,106,39390,6,2,B|32:84|73:116|56:132|99:165|130:141,1,150,6|8,1:1|3:1,0:1:0:0:
207,103,39790,1,0,3:0:0:0:
207,103,39890,2,0,P|211:127|214:152,2,50,4|8|0,3:0|0:3|1:0,0:0:0:0:
352,3,40290,5,14,1:0:0:0:
381,30,40390,1,10,0:0:0:0:
390,68,40490,1,10,0:0:0:0:
375,105,40590,1,10,0:0:0:0:
340,124,40690,2,0,P|315:119|290:116,1,50,10|10,0:0|0:0,0:0:0:0:
207,103,40890,5,0,1:0:0:0:
207,103,40990,1,6,1:0:0:0:
111,224,41190,1,6,1:0:0:0:
17,346,41390,1,6,1:0:0:0:
263,355,41690,5,8,3:0:0:0:
263,355,41790,1,8,3:0:0:0:
263,355,41890,2,0,P|250:307|276:266,1,100,6|0,1:2|1:0,0:0:0:0:
342,208,42190,1,0,1:0:0:0:
342,208,42290,2,0,P|367:212|391:215,1,50,10|8,0:1|0:0,0:0:0:0:
488,84,42590,6,2,P|438:75|389:67,1,100,6|0,1:0|0:0,0:1:0:0:
296,54,42890,1,8,3:0:0:0:
296,54,42990,1,8,0:0:0:0:
296,54,43090,2,0,P|300:79|303:103,2,50,8|4|8,3:0|3:0|0:0,0:0:0:0:
437,224,43490,6,0,B|418:199|421:177|421:177|416:198|391:215,1,100,8|10,3:0|0:1,0:0:0:0:
413,312,43790,1,10,0:1:0:0:
413,312,43891,2,0,B|392:323|392:323|374:304,1,50,2|10,0:0|0:1,0:0:0:0:
202,275,44090,1,10,0:1:0:0:
202,275,44190,2,2,P|211:324|217:373,1,100,6|0,1:0|0:0,0:1:0:0:
302,361,44490,2,0,P|293:312|287:263,2,100,0|0|8,1:0|1:0|0:0,0:0:0:0:
237,188,45090,5,6,1:2:0:0:
237,188,45290,2,0,P|270:168|309:176,2,80,2|0|0,3:2|0:0|3:0,0:0:0:0:
105,277,45890,1,2,0:0:0:0:
55,200,46090,1,0,3:0:0:0:
95,117,46290,1,2,0:0:0:0:
191,113,46490,1,0,3:0:0:0:
237,188,46690,6,0,B|271:210|315:176|297:159|343:124|376:149,1,160,2|0,0:0|0:0,0:0:0:0:
376,149,47290,1,0,3:2:0:0:
512,53,47490,2,0,P|492:171|474:290,1,240,2|0,0:0|3:0,0:0:0:0:
474,289,48290,6,0,P|427:275|387:303,1,100,6|8,1:0|0:0,0:0:0:0:
346,371,48590,2,0,P|331:384|334:364,1,50,10|0,0:1|0:0,0:0:0:0:
116,272,48890,2,0,P|163:286|203:258,1,100,2|0,1:1|1:0,0:0:0:0:
237,188,49190,2,0,P|250:174|238:191,1,50,10|0,0:1|0:0,0:0:0:0:
131,356,49490,5,10,0:1:0:0:
127,338,49590,1,8,0:0:0:0:
123,321,49690,2,0,P|120:296|115:271,1,50,2|0,1:0|0:0,0:0:0:0:
88,90,49890,5,10,0:1:0:0:
21,111,49990,1,10,0:2:0:0:
8,179,50090,1,10,0:2:0:0:
61,224,50190,1,10,0:2:0:0:
127,201,50290,1,10,0:1:0:0:
408,32,50690,6,0,B|393:28|386:17|386:17|384:30|372:39,1,54.0000002059937,2|0,1:0|0:0,0:0:0:0:
451,137,50890,2,0,B|462:124|474:124|474:124|464:116|462:100,1,54.0000002059937,2|0,1:0|0:0,0:0:0:0:
339,121,51089,2,0,B|342:135|336:146|336:146|349:141|363:148,1,54.0000002059937,2|0,1:0|0:0,0:0:0:0:
512,200,51290,6,2,P|412:175|325:229,1,210.000002002716,6|0,1:0|0:0,0:1:0:0:
348,317,51690,2,0,P|313:310|278:306,1,70.000000667572,10|0,0:0|0:0,0:0:0:0:
121,253,51890,1,10,0:0:0:0:
121,253,51990,1,8,0:0:0:0:
121,253,52090,2,0,B|94:278|94:278|112:307,1,70.000000667572,2|0,1:2|0:0,0:0:0:0:
189,363,52290,6,0,P|198:294|209:224,1,140.000001335144,10|0,0:0|1:0,0:0:0:0:
188,138,52590,1,8,0:2:0:0:
188,138,52690,2,0,P|222:141|257:147,1,70.000000667572,2|8,1:2|0:0,0:0:0:0:
423,87,52890,5,10,0:0:0:0:
427,69,52990,1,8,0:0:0:0:
431,53,53090,2,0,P|366:33|311:73,1,140.000001335144,0|10,1:0|0:0,0:0:0:0:
208,224,53490,2,0,P|105:205|1:191,1,210.000002002716,10|0,0:0|0:0,0:0:0:0:
0,190,53890,6,0,P|-3:224|14:254,1,70.000000667572,10|0,0:0|1:0,0:0:0:0:
108,233,54090,2,0,P|112:198|95:168,1,70.000000667572,2|8,0:0|0:0,0:0:0:0:
25,359,54290,1,2,1:2:0:0:
45,330,54390,1,8,0:0:0:0:
77,316,54490,1,10,0:0:0:0:
113,320,54590,1,8,0:0:0:0:
141,340,54690,6,0,P|175:334|210:329,1,70.000000667572,2|0,1:2|0:0,0:0:0:0:
365,371,54890,2,0,P|388:308|347:254,1,140.000001335144,8|0,0:0|1:0,0:0:0:0:
281,208,55190,1,8,0:0:0:0:
281,208,55290,2,0,P|261:235|267:268,1,70.000000667572,0|0,1:0|0:0,0:0:0:0:
365,371,55490,1,8,0:0:0:0:
469,178,55690,5,2,1:2:0:0:
469,178,55790,1,8,0:0:0:0:
469,178,55890,1,2,1:2:0:0:
497,206,55990,1,8,0:0:0:0:
492,247,56090,1,10,0:0:0:0:
457,270,56190,1,8,0:0:0:0:
416,265,56290,6,0,P|381:258|346:254,1,70.000000667572,0|0,1:0|0:0,0:0:0:0:
210,328,56490,2,0,P|140:317|71:308,1,140.000001335144,10|8,0:0|0:0,0:0:0:0:
0,299,56790,1,8,0:0:0:0:
0,299,56890,1,2,1:2:0:0:
32,111,57090,2,0,P|66:117|101:121,1,70.000000667572,10|0,0:0|0:0,0:0:0:0:
139,49,57290,5,8,0:0:0:0:
169,65,57390,1,8,0:0:0:0:
185,96,57490,1,8,0:0:0:0:
188,130,57590,1,8,0:0:0:0:
178,164,57690,1,8,0:0:0:0:
153,189,57790,1,8,0:0:0:0:
122,206,57890,6,0,P|187:187|244:225,1,140.000001335144,2|0,1:2|1:0,0:0:0:0:
384,96,58290,1,10,0:0:0:0:
384,96,58390,2,0,P|419:101|454:107,1,70.000000667572,10|8,0:0|0:0,0:0:0:0:
448,3,58590,6,2,B|484:49|432:115|407:90|358:151|389:203,1,227.999993911743,6|8,1:0|0:3,0:1:0:0:
387,201,58990,1,8,0:3:0:0:
459,379,59190,1,4,0:3:0:0:
459,379,59290,1,4,0:3:0:0:
506,302,59490,6,0,P|439:286|382:322,1,140.000001335144,6|8,1:2|0:0,0:0:0:0:
245,185,59890,1,8,0:0:0:0:
245,185,59990,2,0,B|257:167|255:152|255:152|258:167|276:180,1,70.000000667572,8|0,0:0|1:0,0:0:0:0:
318,258,60190,6,2,B|283:291|292:363|292:363|275:292|230:270,1,227.999993911743,6|0,1:0|1:0,0:1:0:0:
49,201,60690,2,0,P|-7:236|0:302,1,140.000001335144,2|10,1:2|0:0,0:0:0:0:
51,371,60990,1,8,0:0:0:0:
51,371,61090,2,0,P|119:357|189:349,1,140.000001335144,2|8,1:2|0:0,0:0:0:0:
317,195,61490,5,2,3:2:0:0:
317,195,61590,1,8,0:0:0:0:
317,195,61690,2,0,P|331:226|317:257,1,70.000000667572,2|0,1:2|0:0,0:0:0:0:
189,348,61890,2,0,P|179:278|166:209,1,140.000001335144,8|2,0:0|1:2,0:0:0:0:
129,25,62290,5,2,1:2:0:0:
88,36,62390,1,8,0:0:0:0:
65,70,62490,1,10,0:0:0:0:
69,111,62590,1,8,0:0:0:0:
96,143,62690,1,2,1:2:0:0:
275,21,62890,5,10,0:1:0:0:
300,24,62990,2,0,P|334:30|369:35,1,70.000000667572,10|0,0:1|0:0,0:0:0:0:
358,125,63190,1,10,0:1:0:0:
333,122,63290,2,0,P|298:115|263:110,1,70.000000667572,8|8,0:0|0:0,0:0:0:0:
176,104,63490,5,2,1:0:0:0:
185,133,63590,1,8,0:0:0:0:
195,163,63690,1,8,0:0:0:0:
205,193,63790,1,8,0:0:0:0:
215,223,63890,5,2,1:0:0:0:
173,260,63990,1,8,0:0:0:0:
163,315,64090,1,8,0:0:0:0:
197,359,64190,1,8,0:0:0:0:
249,380,64290,6,2,P|354:361|456:347,1,210.000002002716,6|0,1:0|0:0,0:1:0:0:
391,202,64690,1,10,0:0:0:0:
391,202,64790,1,8,0:0:0:0:
391,202,64890,2,0,P|384:236|380:271,1,70.000000667572,2|0,1:2|0:0,0:0:0:0:
456,346,65090,6,0,P|464:276|475:207,1,140.000001335144,10|0,0:0|1:0,0:0:0:0:
512,135,65390,1,8,0:0:0:0:
512,135,65490,2,0,P|481:119|448:128,1,70.000000667572,2|8,1:2|0:0,0:0:0:0:
300,224,65690,5,10,0:0:0:0:
289,235,65790,1,8,0:0:0:0:
278,245,65890,2,0,P|213:264|157:225,1,140.000001335144,0|10,1:0|0:0,0:0:0:0:
272,75,66290,2,0,B|294:60|222:-11|140:101|237:173,1,210.000002002716,2|0,1:2|0:0,0:0:0:0:
157,225,66690,6,0,P|122:220|87:213,1,70.000000667572,10|0,0:0|1:0,0:0:0:0:
72,300,66890,2,0,P|106:304|141:311,1,70.000000667572,2|8,0:0|0:0,0:0:0:0:
280,379,67090,1,2,1:2:0:0:
309,359,67190,1,8,0:0:0:0:
323,327,67290,1,10,0:0:0:0:
318,292,67390,1,8,0:0:0:0:
291,268,67490,6,0,P|256:262|225:278,1,70.000000667572,2|0,1:2|0:0,0:0:0:0:
130,381,67690,2,0,B|156:353|192:358|192:358|158:345|140:309,1,140.000001335144,8|2,0:0|0:0,0:0:0:0:
157,225,67990,1,8,0:0:0:0:
157,225,68090,2,0,P|152:190|148:155,1,70.000000667572,0|0,1:0|0:0,0:0:0:0:
131,21,68290,1,8,0:0:0:0:
34,153,68490,5,2,1:2:0:0:
34,153,68590,1,8,0:0:0:0:
34,153,68690,1,2,1:2:0:0:
46,187,68790,1,8,0:0:0:0:
85,202,68890,1,10,0:0:0:0:
125,192,68990,1,8,0:0:0:0:
148,155,69090,6,0,P|182:160|216:167,1,70.000000667572,0|0,1:0|0:0,0:0:0:0:
348,67,69290,2,0,P|368:131|329:186,1,140.000001335144,8|0,0:0|1:0,0:0:0:0:
281,115,69590,1,8,0:0:0:0:
281,115,69690,1,0,1:0:0:0:
183,315,69890,2,0,P|178:280|172:245,1,70.000000667572,10|0,0:0|0:0,0:0:0:0:
116,183,70090,5,8,0:0:0:0:
148,155,70190,1,8,0:0:0:0:
148,113,70290,1,8,0:0:0:0:
120,81,70390,1,8,0:0:0:0:
79,71,70490,1,8,0:0:0:0:
42,92,70590,1,8,0:0:0:0:
25,130,70690,6,0,P|36:198|47:268,1,140.000001335144,2|10,1:2|0:0,0:0:0:0:
202,381,71090,1,10,0:0:0:0:
202,381,71190,1,8,0:0:0:0:
24,352,71390,6,2,B|74:381|135:332|110:307|176:255|222:291,1,227.999993911743,6|8,1:0|3:0,0:1:0:0:
283,352,71790,1,4,3:0:0:0:
303,332,71890,1,2,1:2:0:0:
311,305,71990,1,4,3:0:0:0:
305,276,72090,1,10,0:0:0:0:
200,123,72290,5,2,1:2:0:0:
305,276,72490,1,10,0:0:0:0:
440,91,72690,1,10,0:0:0:0:
440,91,72790,1,8,0:0:0:0:
267,188,72990,6,2,P|192:174|116:164,1,151.999995941162,6|0,1:1|0:0,0:1:0:0:
32,149,73290,2,0,B|18:116|18:116|41:89,1,70.000000667572,2|0,1:2|0:0,0:0:0:0:
127,104,73490,2,0,B|139:136|139:136|117:163,1,70.000000667572,2|0,1:2|0:0,0:0:0:0:
50,312,73690,1,10,0:0:0:0:
54,332,73790,1,8,0:0:0:0:
58,353,73890,1,0,1:0:0:0:
0,233,74090,6,0,P|55:272|119:251,1,140.000001335144,10|2,0:0|0:0,0:0:0:0:
189,209,74390,1,8,0:0:0:0:
189,209,74490,1,2,1:2:0:0:
351,381,74690,1,10,0:0:0:0:
189,209,74890,1,2,1:2:0:0:
251,375,75090,1,2,1:2:0:0:
257,347,75190,1,8,0:0:0:0:
262,319,75290,1,10,0:0:0:0:
267,291,75390,1,8,0:0:0:0:
274,264,75490,6,0,P|303:281|336:273,3,70.000000667572,2|8|8|8,1:2|0:0|0:0|0:0,0:0:0:0:
470,230,75890,2,0,P|440:212|407:219,3,70.000000667572,8|8|10|8,0:0|0:0|0:0|0:0,0:0:0:0:
336,272,76290,5,10,0:0:0:0:
307,232,76390,1,8,0:0:0:0:
310,183,76490,1,8,3:0:0:0:
345,148,76590,1,8,3:0:0:0:
391,131,76690,1,4,3:0:0:0:
425,95,76790,1,4,3:0:0:0:
429,46,76890,1,0,1:0:0:0:
393,12,76990,1,0,1:0:0:0:
343,4,77090,6,0,P|239:19|135:36,1,210.000002002716,6|0,1:2|0:0,0:0:0:0:
62,69,77490,2,0,B|12:51|12:51|54:24,1,102.000001945496,2|0,1:2|0:0,0:0:0:0:
53,24,77890,6,0,B|86:65|39:126|17:103|-26:160|2:207,1,210.000002002716,6|0,1:2|0:0,0:0:0:0:
62,266,78290,2,0,P|78:300|46:278,1,102.000001945496,2|0,1:2|0:0,0:0:0:0:
46,278,78690,6,0,P|143:251|219:316,1,210.000002002716,6|0,1:2|0:0,0:0:0:0:
278,373,79090,2,0,P|328:364|378:357,1,102.000001945496,2|0,1:2|0:0,0:0:0:0:
378,356,79490,6,0,B|416:317|409:259|409:259|419:317|470:342,1,210.000002002716,6|0,1:2|0:0,0:0:0:0:
495,259,79890,1,2,1:2:0:0:
329,161,80090,5,10,0:0:0:0:
329,161,80190,1,8,0:0:0:0:
329,161,80290,2,0,P|394:180|450:141,1,140.000001335144,2|8,1:2|0:0,0:0:0:0:
435,61,80590,1,8,0:0:0:0:
435,61,80690,2,0,P|371:38|313:74,1,140.000001335144,0|10,1:0|0:0,0:0:0:0:
247,122,80990,1,8,0:0:0:0:
247,122,81090,2,0,P|178:110|108:100,1,140.000001335144,2|8,1:2|0:0,0:0:0:0:
27,280,81490,5,8,0:0:0:0:
0,237,81590,1,8,0:0:0:0:
10,189,81690,1,10,0:0:0:0:
54,166,81790,1,8,0:0:0:0:
99,184,81890,1,10,0:0:0:0:
223,333,82090,6,0,P|257:326|292:322,1,70.000000667572,0|0,1:0|0:0,0:0:0:0:
323,294,82290,2,2,P|254:303|184:316,1,140.000001335144,6|0,1:0|0:0,0:1:0:0:
115,271,82590,1,8,0:0:0:0:
115,271,82690,1,10,0:0:0:0:
223,69,82890,6,2,B|231:125|240:178|240:178|221:200,1,140.000001335144,2|8,1:0|0:0,0:1:0:0:
308,55,83190,2,2,B|317:111|325:164|325:164|350:179,1,140.000001335144,2|8,1:0|0:0,0:1:0:0:
375,191,83490,6,0,P|398:186|421:183,1,46.0000008773804,12|0,0:0|0:0,0:0:0:0:
512,170,83690,1,8,0:0:0:0:
400,72,83890,1,0,1:0:0:0:
408,61,83990,1,8,0:0:0:0:
420,55,84090,1,0,1:0:0:0:
433,56,84190,1,0,1:0:0:0:
446,60,84290,2,0,P|449:82|453:105,1,46.0000008773804,8|0,0:0|0:0,0:0:0:0:
390,259,84486,5,0,1:0:0:0:
386,245,84584,1,8,0:0:0:0:
381,230,84682,2,0,B|388:208|388:208|374:190,1,46.0000008773804,0|0,0:0|1:0,0:0:0:0:
239,211,84878,2,0,B|231:232|231:232|245:250,1,46.0000008773804,8|0,0:0|0:0,0:0:0:0:
300,331,85074,6,0,L|322:327,4,23.0000004386902,2|0|0|0|0,3:0|3:2|3:2|3:2|3:2,0:0:0:0:
213,350,85380,1,8,0:0:0:0:
213,350,85482,2,0,L|167:356,1,46.0000008773804,0|0,1:0|1:0,0:0:0:0:
245,250,85686,2,0,L|267:246,4,23.0000004386902,2|0|0|0|0,3:0|3:0|3:0|3:0|3:0,0:0:0:0:
158,269,85992,1,8,0:0:0:0:
158,269,86094,2,0,L|112:275,1,46.0000008773804,0|0,1:0|1:0,0:0:0:0:
31,114,86298,6,2,B|-24:162|-24:162|19:238|19:238|83:179|83:179|47:116,1,320,6|0,1:0|0:0,0:1:0:0:
