osu file format v14

[General]
AudioFilename: audio.mp3
AudioLeadIn: 0
PreviewTime: 39833
Countdown: 0
SampleSet: Soft
StackLeniency: 0.3
Mode: 0
LetterboxInBreaks: 0
WidescreenStoryboard: 1

[Editor]
Bookmarks: 52771
DistanceSpacing: 0.5
BeatDivisor: 12
GridSize: 32
TimelineZoom: 2.8

[Metadata]
Title:Cry Baby (TV Size)
TitleUnicode:Cry Baby (TV Size)
Artist:Official HIGE DANdism
ArtistUnicode:Official髭男dism
Creator:Nevo
Version:Retribution
Source:東京リベンジャーズ
Tags:HIGEDAN Tokyo Revengers Manji 卍 Gang 東京卍會 Manji-kai kai Toman OP Opening jrock j-rock rock japanese anime pop j-pop jpop kyouren o k u DT Best Mod gokugohan12468 kittyadventure gorou wanpachi cycopton o_k_u
BeatmapID:4060150
BeatmapSetID:1959410

[Difficulty]
HPDrainRate:6
CircleSize:3
OverallDifficulty:9
ApproachRate:9.3
SliderMultiplier:1.7
SliderTickRate:1

[Events]
//Background and Video events
Video,-370,"video.mp4"
0,0,"bg.jpg",0,0
//Break Periods
//Storyboard Layer 0 (Background)
//Storyboard Layer 1 (Fail)
//Storyboard Layer 2 (Pass)
//Storyboard Layer 3 (Foreground)
//Storyboard Layer 4 (Overlay)
//Storyboard Sound Samples

[TimingPoints]
-929,600,4,2,1,70,1,0
1471,-50,4,2,1,70,0,0
11071,-41.6666666666667,4,2,1,70,0,0
20671,-50,4,2,1,60,0,0
29671,-62.5,4,2,1,60,0,0
30271,-50,4,2,1,60,0,0
35071,-41.6666666666667,4,2,1,60,0,0
39871,-31.25,4,2,1,80,0,1
42271,-40,4,2,1,80,0,1
45921,-40,4,2,1,5,0,1
45971,-40,4,2,1,80,0,1
47121,-40,4,2,1,5,0,1
47171,-40,4,2,1,80,0,1
48271,-50,4,2,1,80,0,1
48871,-40,4,2,1,80,0,1
64471,-45.4545454545455,4,2,1,80,0,1
65071,-40,4,2,1,80,0,1
65121,-40,4,2,1,5,0,1
65171,-40,4,2,1,80,0,1
65571,-45.4545454545455,4,2,1,80,0,1
66271,-40,4,2,1,80,0,1
68071,-45.4545454545455,4,2,1,80,0,1
68671,-40,4,2,1,80,0,1
69871,-45.4545454545455,4,2,1,80,0,1
73471,-40,4,2,1,80,0,1
85471,-40,4,2,1,50,0,0

[Colours]
Combo1 : 250,190,0
Combo2 : 255,0,0
Combo3 : 255,128,0

[HitObjects]
150,306,1471,6,0,L|17:288,1,113.333333333333,6|0,3:2|0:2,0:0:0:0:
157,319,1771,2,0,L|163:375,2,56.6666666666667,2|2|2,0:2|0:2|0:2,0:0:0:0:
176,171,2071,2,0,P|231:223|277:225,1,113.333333333333,10|0,0:2|0:2,0:0:0:0:
352,179,2371,2,0,P|382:167|418:162,1,56.6666666666667,2|2,0:2|0:2,0:0:0:0:
488,202,2571,1,2,3:2:0:0:
268,136,2671,6,0,L|250:14,1,113.333333333333,2|0,3:2|0:2,0:0:0:0:
368,291,2971,2,0,L|350:169,1,113.333333333333,2|0,3:2|0:2,0:0:0:0:
192,283,3271,2,0,L|174:161,1,113.333333333333,10|2,0:2|0:2,0:0:0:0:
427,123,3571,2,0,L|409:1,1,113.333333333333,2|2,3:2|0:2,0:0:0:0:
114,44,3871,6,0,P|149:71|209:82,1,56.6666666666667,2|2,3:2|0:2,0:0:0:0:
87,145,4071,1,2,0:2:0:0:
87,145,4171,2,0,P|61:157|40:176,1,56.6666666666667,2|0,0:2|0:2,0:0:0:0:
0,288,4371,1,2,0:2:0:0:
0,288,4471,2,0,P|47:265|124:266,1,113.333333333333,10|0,0:2|0:2,0:0:0:0:
200,375,4771,1,2,0:2:0:0:
278,317,4871,2,0,L|349:307,1,56.6666666666667,2|0,0:2|0:2,0:0:0:0:
474,289,5071,6,0,B|447:291|447:291|385:215,1,113.333333333333,2|0,3:2|0:2,0:0:0:0:
277,107,5371,2,0,B|297:124|297:124|288:210,1,113.333333333333,2|0,3:2|0:2,0:0:0:0:
453,47,5671,2,0,B|455:74|455:74|388:128,1,113.333333333333,10|2,0:2|3:2,0:0:0:0:
199,180,5971,1,2,3:2:0:0:
199,180,6071,2,0,L|148:138,1,56.6666666666667,2|0,0:2|0:2,0:0:0:0:
55,7,6271,6,0,P|77:59|50:125,1,113.333333333333,2|0,3:2|0:2,0:0:0:0:
10,191,6571,1,2,0:2:0:0:
10,191,6671,2,0,L|33:251,1,56.6666666666667,2|2,0:2|0:2,0:0:0:0:
105,360,6871,2,0,P|104:304|138:260,1,113.333333333333,10|0,0:2|0:2,0:0:0:0:
331,193,7171,1,2,0:2:0:0:
331,193,7271,1,2,0:2:0:0:
267,262,7371,1,2,3:2:0:0:
302,358,7471,6,0,L|181:333,1,113.333333333333,2|0,3:2|0:2,0:0:0:0:
441,215,7771,2,0,L|320:190,1,113.333333333333,2|0,3:2|0:2,0:0:0:0:
156,239,8071,2,0,L|267:262,1,113.333333333333,10|0,0:2|0:2,0:0:0:0:
294,95,8371,2,0,L|405:118,1,113.333333333333,2|0,3:2|3:2,0:0:0:0:
194,139,8671,6,0,P|184:73|211:25,1,113.333333333333,2|0,3:2|0:2,0:0:0:0:
81,108,8971,2,0,P|84:136|93:162,2,56.6666666666667,2|2|2,0:2|0:2|0:2,0:0:0:0:
294,95,9271,2,0,P|310:133|307:165,1,56.6666666666667,10|0,0:2|0:2,0:0:0:0:
168,270,9471,1,2,3:2:0:0:
168,270,9571,2,0,L|87:259,2,56.6666666666667,2|2|0,0:2|0:2|3:2,0:0:0:0:
248,337,9871,6,0,B|269:303|269:303|363:291,1,113.333333333333,2|0,3:2|0:2,0:0:0:0:
504,178,10171,2,0,B|483:212|483:212|389:224,1,113.333333333333,2|0,3:2|0:2,0:0:0:0:
194,139,10471,2,0,P|303:191|298:58,1,283.333333333333,10|0,0:2|3:2,0:0:0:0:
78,203,11071,6,0,P|46:278|59:345,1,135.99999584961,6|0,3:2|0:2,0:0:0:0:
95,192,11371,2,0,L|85:116,1,67.9999979248048,2|2,0:2|0:2,0:0:0:0:
225,6,11571,1,2,0:2:0:0:
225,6,11671,2,0,L|191:147,1,135.99999584961,10|0,0:2|0:2,0:0:0:0:
159,276,11971,2,0,L|226:254,1,67.9999979248048,2|2,0:2|0:2,0:0:0:0:
412,289,12171,1,0,3:2:0:0:
365,373,12271,6,0,B|311:358|307:305|307:305|322:268,1,135.99999584961,2|0,3:2|0:2,0:0:0:0:
471,176,12571,2,0,B|422:203|381:168|381:168|366:132,1,135.99999584961,2|0,3:2|0:2,0:0:0:0:
130,81,12871,2,0,B|178:108|219:73|219:73|234:37,1,135.99999584961,10|0,0:2|0:2,0:0:0:0:
236,278,13171,2,0,B|290:263|294:210|294:210|279:173,1,135.99999584961,2|2,3:2|3:2,0:0:0:0:
38,178,13471,6,0,B|182:202,1,135.99999584961,2|0,3:2|0:2,0:0:0:0:
79,283,13771,2,0,L|13:297,2,67.9999979248048,2|2|2,0:2|0:2|0:2,0:0:0:0:
279,173,14071,2,0,B|423:149,1,135.99999584961,10|0,0:2|0:2,0:0:0:0:
301,51,14371,2,0,L|234:37,2,67.9999979248048,2|2|2,0:2|0:2|0:2,0:0:0:0:
482,82,14671,6,0,B|512:143|512:143|492:235,1,135.99999584961,2|0,3:2|0:2,0:0:0:0:
279,173,14971,2,0,B|249:234|249:234|263:300,1,135.99999584961,2|0,3:2|0:2,0:0:0:0:
377,94,15271,2,0,B|407:155|407:155|375:245,1,135.99999584961,10|0,0:2|0:2,0:0:0:0:
165,170,15571,2,0,B|135:231|135:231|149:297,1,135.99999584961,2|0,3:2|3:2,0:0:0:0:
489,337,15871,6,0,B|468:311|444:312|444:312|401:336|354:316,1,135.99999584961,2|0,3:2|0:2,0:0:0:0:
286,376,16171,1,2,0:2:0:0:
286,376,16271,2,0,P|214:383|187:400,1,67.9999979248048,2|2,0:2|0:2,0:0:0:0:
384,219,16471,2,0,B|315:232|315:232|269:284,1,135.99999584961,10|0,0:2|0:2,0:0:0:0:
169,67,16771,2,0,P|247:102|266:176,1,135.99999584961,2|0,3:2|3:2,0:0:0:0:
80,136,17071,6,0,L|59:-11,1,135.99999584961,2|0,3:2|0:2,0:0:0:0:
384,219,17371,2,0,L|405:72,1,135.99999584961,2|0,3:2|0:2,0:0:0:0:
188,201,17671,2,0,L|167:54,1,135.99999584961,10|0,0:2|0:2,0:0:0:0:
281,274,17971,2,0,L|302:127,1,135.99999584961,2|0,3:2|3:2,0:0:0:0:
88,359,18271,6,0,P|142:299|207:310,1,135.99999584961,2|0,3:2|0:2,0:0:0:0:
269,163,18571,2,0,P|338:173|388:229,1,135.99999584961,2|0,3:2|0:2,0:0:0:0:
71,85,18871,2,0,P|127:43|191:25,1,135.99999584961,10|0,0:2|3:2,0:0:0:0:
247,384,19171,2,0,P|264:321|294:252,1,135.99999584961,2|0,3:2|3:2,0:0:0:0:
510,209,19471,6,0,B|472:234|472:234|344:211,1,135.99999584961,2|0,3:2|0:2,0:0:0:0:
192,234,19771,2,0,B|102:217|102:217|64:242,1,135.99999584961,2|0,3:2|0:2,0:0:0:0:
472,115,20071,2,0,L|325:86,1,135.99999584961,10|0,0:2|0:2,0:0:0:0:
249,146,20371,2,0,L|115:119,1,135.99999584961,2|0,3:2|3:2,0:0:0:0:
450,250,20671,6,0,B|388:178|309:231|309:231|236:277|159:210,1,283.333333333333,6|0,3:2|0:2,0:0:0:0:
371,305,21271,1,10,0:2:0:0:
102,222,21571,2,0,P|100:250|108:278,2,56.6666666666667,2|2|2,0:2|0:2|0:2,0:0:0:0:
245,72,21871,2,0,P|218:131|186:284,1,170,2|0,3:2|3:2,0:0:0:0:
191,232,22471,6,0,P|264:201|341:180,1,113.333333333333,10|0,0:2|0:2,0:0:0:0:
226,323,22771,2,0,P|277:299|331:281,1,113.333333333333,2|0,3:2|3:2,0:0:0:0:
427,245,23071,6,0,P|395:198|408:118,1,113.333333333333,2|0,3:2|0:2,0:0:0:0:
495,115,23371,2,0,L|481:211,2,56.6666666666667,2|2|2,0:2|0:2|0:2,0:0:0:0:
477,0,23671,2,0,P|413:54|322:19,1,170,10|0,0:2|3:2,0:0:0:0:
335,33,24271,2,0,P|270:20|219:46,1,113.333333333333,2|0,3:2|0:2,0:0:0:0:
185,120,24571,2,0,L|203:181,2,56.6666666666667,2|2|2,0:2|0:2|0:2,0:0:0:0:
100,183,24871,2,0,L|78:302,1,113.333333333333,10|0,0:2|3:2,0:0:0:0:
278,276,25171,2,0,L|299:165,1,113.333333333333,2|0,3:2|0:2,0:0:0:0:
158,384,25471,6,0,B|203:371|203:371|227:377|227:377|267:367,1,113.333333333333,2|0,3:2|0:2,0:0:0:0:
384,229,25771,2,0,B|429:216|429:216|453:222|453:222|493:212,1,113.333333333333,2|0,3:2|0:2,0:0:0:0:
168,292,26071,2,0,B|213:279|213:279|237:285|237:285|277:275,1,113.333333333333,10|0,0:2|0:2,0:0:0:0:
393,131,26371,2,0,B|438:118|438:118|462:124|462:124|502:114,1,113.333333333333,2|0,3:2|3:2,0:0:0:0:
177,196,26671,2,0,B|222:183|222:183|246:189|246:189|286:179,1,113.333333333333,2|0,3:2|0:2,0:0:0:0:
396,36,26971,2,0,B|441:23|441:23|465:29|465:29|505:19,1,113.333333333333,2|0,3:2|3:2,0:0:0:0:
46,3,27271,6,0,P|66:84|15:218,1,226.666666666667,10|0,0:2|0:2,0:0:0:0:
80,330,27871,2,0,P|59:248|111:115,1,226.666666666667,2|0,3:2|0:2,0:0:0:0:
347,204,28471,6,0,B|301:213|301:213|264:232|264:232|130:220,1,170,10|0,0:2|0:2,0:0:0:0:
367,311,29071,2,0,B|321:320|321:320|284:339|284:339|150:327,1,170,2|0,3:2|3:2,0:0:0:0:
431,145,29571,1,0,3:2:0:0:
431,145,29671,2,0,B|474:179|474:179|489:220|457:264|457:264|417:232,1,181.333333333333,10|0,0:2|0:2,0:0:0:0:
238,113,30271,6,0,P|304:110|364:64,1,113.333333333333,6|0,3:2|0:2,0:0:0:0:
268,13,30571,2,0,P|202:16|142:62,1,113.333333333333,2|0,3:2|0:2,0:0:0:0:
166,190,30871,2,0,P|215:215|271:216,1,113.333333333333,10|0,0:2|0:2,0:0:0:0:
108,115,31171,2,0,P|84:142|73:178,2,56.6666666666667,2|2|2,0:2|0:2|0:2,0:0:0:0:
185,301,31471,6,0,L|161:166,1,113.333333333333,2|0,3:2|0:2,0:0:0:0:
352,123,31771,2,0,L|371:234,1,113.333333333333,2|0,3:2|0:2,0:0:0:0:
333,384,32071,2,0,B|316:313|316:313|285:285|285:285|261:165,1,226.666666666667,10|0,0:2|0:2,0:0:0:0:
487,37,32671,6,0,P|479:154|346:99,1,283.333333333333,2|0,3:2|3:2,0:0:0:0:
255,33,33271,1,10,0:2:0:0:
78,273,33571,2,0,L|57:357,2,56.6666666666667,2|2|2,0:2|0:2|0:2,0:0:0:0:
76,160,33871,6,0,P|124:191|182:202,1,113.333333333333,2|0,3:2|0:2,0:0:0:0:
185,301,34171,2,0,P|240:288|289:255,1,113.333333333333,2|0,3:2|0:2,0:0:0:0:
275,140,34471,2,0,P|323:171|381:182,1,113.333333333333,10|0,0:2|0:2,0:0:0:0:
384,281,34771,2,0,P|439:268|488:235,1,113.333333333333,2|0,0:2|3:2,0:0:0:0:
322,49,35071,6,0,B|279:31|279:31|184:59,1,135.99999584961,6|0,3:2|0:2,0:0:0:0:
158,149,35371,1,2,3:2:0:0:
158,149,35471,2,0,P|191:187|202:221,1,67.9999979248048,2|2,0:2|0:2,0:0:0:0:
125,264,35671,2,0,B|168:246|168:246|263:274,1,135.99999584961,10|0,0:2|3:2,0:0:0:0:
505,372,35971,6,0,L|484:223,1,135.99999584961,2|0,3:2|0:2,0:0:0:0:
340,183,36271,2,0,L|319:34,1,135.99999584961,2|0,3:2|0:2,0:0:0:0:
207,220,36571,1,2,3:2:0:0:
207,220,36671,2,0,P|179:269|176:296,1,67.9999979248048,2|2,0:2|0:2,0:0:0:0:
237,379,36871,2,0,L|216:230,1,135.99999584961,10|0,0:2|0:2,0:0:0:0:
321,48,37171,2,0,P|388:56|439:114,1,135.99999584961,2|0,0:2|3:2,0:0:0:0:
95,121,37471,6,0,B|167:129|167:129|252:84,1,135.99999584961,2|0,3:2|0:2,0:0:0:0:
47,28,37771,1,2,3:2:0:0:
47,28,37871,2,0,P|14:54|-7:91,1,67.9999979248048,2|2,3:2|3:2,0:0:0:0:
0,244,38071,6,0,B|56:214|56:214|128:222,1,135.99999584961,14|0,0:2|0:2,0:0:0:0:
343,342,38371,2,0,B|415:350|415:350|471:320,1,135.99999584961,14|0,0:2|0:2,0:0:0:0:
209,63,38671,5,14,0:2:0:0:
219,95,38771,1,8,0:2:0:0:
229,128,38871,1,8,0:2:0:0:
237,162,38971,1,8,0:2:0:0:
244,196,39071,1,8,0:2:0:0:
250,230,39171,1,8,0:2:0:0:
418,2,39271,5,14,0:2:0:0:
399,57,39371,1,8,0:2:0:0:
383,113,39471,1,8,0:2:0:0:
369,169,39571,1,8,0:2:0:0:
357,226,39671,1,8,0:2:0:0:
347,284,39771,1,8,0:2:0:0:
343,342,39871,6,0,P|258:284|166:291,1,181.333333333333,6|0,3:2|0:2,0:0:0:0:
25,350,40171,2,0,P|90:269|90:225,1,90.6666666666667,2|2,3:2|0:2,0:0:0:0:
124,108,40371,1,2,0:2:0:0:
9,208,40471,2,0,B|83:191|83:191|123:200|123:200|207:181,1,181.333333333333,10|0,0:2|0:2,0:0:0:0:
48,22,40771,2,0,B|122:5|122:5|162:14|162:14|246:-5,1,181.333333333333,2|0,0:2|0:2,0:0:0:0:
468,92,41071,6,0,P|488:131|482:175,2,90.6666666666667,2|2|2,3:2|3:2|3:2,0:0:0:0:
335,179,41371,2,0,L|306:382,1,181.333333333333,2|0,3:2|0:2,0:0:0:0:
119,375,41671,2,0,P|89:343|83:299,2,90.6666666666667,10|2|2,0:2|3:2|3:2,0:0:0:0:
195,255,41971,2,0,L|170:51,1,181.333333333333,2|0,3:2|3:2,0:0:0:0:
427,233,42271,6,0,P|339:295|271:288,1,141.666666666667,6|0,3:2|0:2,0:0:0:0:
101,208,42571,1,2,3:2:0:0:
101,208,42671,2,0,L|12:226,1,70.8333333333333,2|2,0:2|0:2,0:0:0:0:
335,179,42871,2,0,P|266:261|198:272,1,141.666666666667,10|0,0:2|0:2,0:0:0:0:
190,380,43171,1,2,3:2:0:0:
190,380,43271,2,0,L|99:374,1,70.8333333333333,2|2,0:2|0:2,0:0:0:0:
38,126,43471,6,0,P|126:64|194:71,1,141.666666666667,6|0,3:2|0:2,0:0:0:0:
364,151,43771,1,0,3:2:0:0:
364,151,43871,2,0,L|453:133,1,70.8333333333333,2|2,0:2|0:2,0:0:0:0:
165,204,44071,2,0,P|233:121|301:110,1,141.666666666667,10|0,0:2|0:2,0:0:0:0:
310,3,44371,1,2,3:2:0:0:
310,3,44471,2,0,L|400:8,1,70.8333333333333,2|2,0:2|0:2,0:0:0:0:
455,303,44671,2,0,B|405:347|321:302|321:302|253:267|184:311,1,283.333333333333,6|0,3:2|0:2,0:0:0:0:
0,338,45171,5,2,0:2:0:0:
0,338,45271,2,0,P|148:303|69:169,1,354.166666666667,10|0,0:2|3:2,0:0:0:0:
443,52,45871,2,0,L|427:110,1,35.4166666666667,6|0,3:2|0:2,0:0:0:0:
64,266,46371,5,2,0:2:0:0:
64,266,46471,2,0,P|216:270|174:120,1,354.166666666667,10|0,0:2|0:2,0:0:0:0:
458,68,47071,2,0,P|442:93|433:124,1,35.4166666666667,6|0,3:2|0:2,0:0:0:0:
143,213,47571,5,2,0:2:0:0:
143,213,47671,2,0,P|288:256|287:101,1,354.166666666667,10|0,0:2|3:2,0:0:0:0:
510,64,48271,2,0,P|475:129|410:338,1,283.333333333333,6|0,0:2|3:2,0:0:0:0:
319,381,48871,6,0,B|286:357|286:357|165:374,1,141.666666666667,14|0,0:2|0:2,0:0:0:0:
132,275,49171,2,0,B|32:289|32:289|0:265,1,141.666666666667,2|0,3:2|3:2,0:0:0:0:
288,64,49471,6,0,P|286:128|226:183,1,141.666666666667,6|0,3:2|0:2,0:0:0:0:
127,104,49771,2,0,L|209:90,2,70.8333333333333,2|2|2,3:2|3:2|3:2,0:0:0:0:
225,282,50071,6,0,B|298:260|298:260|357:199,1,141.666666666667,8|0,0:2|0:2,0:0:0:0:
435,87,50371,2,0,L|458:247,1,141.666666666667,2|0,0:2|3:2,0:0:0:0:
369,377,50671,1,2,3:2:0:0:
369,377,50771,2,0,L|385:271,1,70.8333333333333,0|0,3:2|3:2,0:0:0:0:
332,142,50971,2,0,L|348:248,2,70.8333333333333,2|0|0,3:2|3:2|3:2,0:0:0:0:
257,19,51271,1,10,0:2:0:0:
127,265,51571,2,0,P|50:251|19:172,1,141.666666666667,2|0,0:2|3:2,0:0:0:0:
202,205,51871,6,0,P|174:301|166:366,1,141.666666666667,2|0,3:2|0:2,0:0:0:0:
94,107,52171,2,0,P|106:148|115:191,2,70.8333333333333,2|2|2,3:2|3:2|3:2,0:0:0:0:
295,164,52471,2,0,P|336:160|417:90,1,141.666666666667,10|0,0:2|0:2,0:0:0:0:
351,0,52771,2,0,P|310:4|229:74,1,141.666666666667,2|0,3:2|3:2,0:0:0:0:
284,277,53071,6,0,P|374:252|439:243,1,141.666666666667,6|0,3:2|0:2,0:0:0:0:
445,370,53371,1,2,3:2:0:0:
445,370,53471,2,0,L|370:359,1,70.8333333333333,2|2,3:2|3:2,0:0:0:0:
120,347,53671,2,0,P|193:333|196:196,1,212.5,10|0,0:2|0:2,0:0:0:0:
41,118,54171,5,0,3:2:0:0:
112,186,54271,2,0,B|137:139|137:139|119:3,1,141.666666666667,6|0,3:2|0:2,0:0:0:0:
219,3,54571,5,2,3:2:0:0:
219,3,54671,2,0,L|229:87,1,70.8333333333333,2|2,3:2|3:2,0:0:0:0:
316,132,54871,2,0,L|324:61,1,70.8333333333333,10|0,3:2|0:2,0:0:0:0:
428,231,55071,6,0,B|403:184|403:184|421:48,1,141.666666666667,2|0,0:2|3:2,0:0:0:0:
503,294,55371,1,2,3:2:0:0:
503,294,55471,2,0,P|431:328|356:297,1,141.666666666667,6|0,3:2|0:2,0:0:0:0:
241,251,55771,2,0,P|290:243|325:225,2,70.8333333333333,2|2|2,3:2|3:2|3:2,0:0:0:0:
153,291,56071,2,0,P|138:322|133:357,1,70.8333333333333,10|0,0:2|0:2,0:0:0:0:
249,156,56271,1,2,3:2:0:0:
249,156,56371,2,0,P|217:117|184:96,1,70.8333333333333,2|2,3:2|3:2,0:0:0:0:
0,60,56571,5,2,3:2:0:0:
0,60,56671,2,0,B|56:94|113:75|113:75|151:91|151:91|208:50|281:66,1,283.333333333333,6|0,3:2|0:2,0:0:0:0:
462,136,57171,1,2,3:2:0:0:
473,233,57271,6,0,P|402:210|368:143,1,141.666666666667,14|0,3:2|3:2,0:0:0:0:
337,275,57571,2,0,B|300:293|300:293|181:279,1,141.666666666667,6|0,3:2|0:2,0:0:0:0:
101,322,57871,2,0,L|25:347,1,70.8333333333333,2|2,3:2|3:2,0:0:0:0:
266,170,58071,5,10,0:2:0:0:
196,165,58171,1,10,0:2:0:0:
139,206,58271,1,10,0:2:0:0:
74,232,58371,1,10,0:2:0:0:
7,213,58471,1,14,0:2:0:0:
512,169,58671,5,10,0:2:0:0:
428,184,58771,1,10,0:2:0:0:
373,249,58871,1,10,0:2:0:0:
305,300,58971,1,10,0:2:0:0:
222,298,59071,6,0,P|190:218|216:119,1,141.666666666667,6|0,3:2|0:2,0:0:0:0:
168,0,59371,2,0,P|117:48|97:87,1,70.8333333333333,2|2,3:2|3:2,0:0:0:0:
194,164,59571,1,2,3:2:0:0:
254,74,59671,2,0,B|297:63|297:63|344:85|344:85|448:81,1,141.666666666667,10|0,0:2|0:2,0:0:0:0:
501,292,59971,2,0,B|456:291|456:291|416:258|416:258|372:248,1,141.666666666667,2|0,3:2|3:2,0:0:0:0:
220,372,60271,2,0,P|303:356|313:347,2,70.8333333333333,2|2|2,3:2|3:2|3:2,0:0:0:0:
90,274,60571,6,0,L|72:124,1,141.666666666667,2|0,3:2|0:2,0:0:0:0:
406,223,60871,2,0,L|389:82,1,141.666666666667,10|0,0:2|0:2,0:0:0:0:
250,272,61171,2,0,L|232:122,1,141.666666666667,2|0,3:2|3:2,0:0:0:0:
73,0,61471,6,0,P|131:45|199:41,1,141.666666666667,6|0,3:2|0:2,0:0:0:0:
73,133,61771,1,2,3:2:0:0:
73,133,61871,2,0,P|56:157|40:214,1,70.8333333333333,2|2,3:2|3:2,0:0:0:0:
180,384,62071,6,0,P|238:339|306:343,1,141.666666666667,10|0,0:2|0:2,0:0:0:0:
169,265,62371,1,2,3:2:0:0:
169,265,62471,2,0,P|152:241|136:184,1,70.8333333333333,2|2,3:2|3:2,0:0:0:0:
295,48,62671,6,0,L|250:192,1,141.666666666667,2|0,3:2|0:2,0:0:0:0:
341,252,62971,1,2,3:2:0:0:
341,252,63071,2,0,L|353:321,1,70.8333333333333,2|2,3:2|3:2,0:0:0:0:
429,14,63271,6,0,L|384:158,1,141.666666666667,10|0,0:2|0:2,0:0:0:0:
500,136,63571,1,2,3:2:0:0:
500,136,63671,2,0,L|512:205,1,70.8333333333333,2|2,3:2|3:2,0:0:0:0:
485,342,63871,2,0,B|439:346|407:326|407:326|355:359|355:359|276:327|202:348,1,283.333333333333,2|0,3:2|0:2,0:0:0:0:
79,379,64371,5,2,0:2:0:0:
79,379,64471,2,0,P|93:273|21:84,1,311.666676177979,14|0,0:2|3:2,0:0:0:0:
412,50,65071,2,0,P|397:82|391:105,1,35.4166666666667,6|0,3:2|0:2,0:0:0:0:
173,346,65571,5,2,0:2:0:0:
173,346,65671,2,0,P|159:239|30:69,1,311.666676177979,14|0,0:2|3:2,0:0:0:0:
443,95,66271,6,0,P|421:122|395:234,1,141.666666666667,6|0,0:2|0:2,0:0:0:0:
317,141,66571,2,0,P|339:168|365:279,1,141.666666666667,2|0,3:2|0:2,0:0:0:0:
352,42,66871,6,0,B|301:32|301:32|182:59,1,141.666666666667,14|0,0:2|0:2,0:0:0:0:
159,176,67171,2,0,B|71:195|71:195|20:185,1,141.666666666667,2|0,3:2|3:2,0:0:0:0:
299,338,67471,2,0,P|418:349|384:174,1,354.166666666667,6|0,0:2|3:2,0:0:0:0:
366,269,68071,2,0,P|269:231|33:222,1,311.666676177979,14|0,0:2|0:2,0:0:0:0:
438,76,68671,6,0,P|363:85|286:114,1,141.666666666667,6|0,3:2|0:2,0:0:0:0:
177,82,68971,2,0,P|156:49|151:0,2,70.8333333333333,2|2|2,3:2|3:2|3:2,0:0:0:0:
263,197,69271,2,0,P|338:206|415:235,1,141.666666666667,10|0,0:2|3:2,0:0:0:0:
512,332,69571,2,0,B|472:314|472:314|343:343,1,141.666666666667,2|0,0:2|3:2,0:0:0:0:
233,311,69871,2,0,P|165:270|176:141,1,187.000005706787,2|0,3:2|3:2,0:0:0:0:
246,51,70371,1,0,3:2:0:0:
246,51,70471,2,0,B|209:80|209:80|122:69,1,124.666670471192,10|0,0:2|0:2,0:0:0:0:
23,100,70771,1,2,3:2:0:0:
23,100,70871,2,0,L|34:161,1,62.3333352355958,2|2,3:2|3:2,0:0:0:0:
52,341,71071,6,0,P|79:273|114:208,1,124.666670471192,2|0,3:2|0:2,0:0:0:0:
182,170,71371,2,0,P|213:174|240:189,1,62.3333352355958,2|2,3:2|0:2,0:0:0:0:
137,375,71571,2,0,P|164:307|199:242,1,124.666670471192,2|0,3:2|0:2,0:0:0:0:
312,132,71871,2,0,P|330:156|338:186,2,62.3333352355958,2|2|2,3:2|3:2|3:2,0:0:0:0:
294,288,72171,5,0,3:2:0:0:
294,288,72271,2,0,L|468:266,1,124.666670471192,2|0,3:2|0:2,0:0:0:0:
495,140,72571,2,0,L|480:230,2,62.3333352355958,2|2|2,3:2|3:2|3:2,0:0:0:0:
388,51,72871,2,0,P|241:31|117:51,1,249.333340942383,10|0,0:2|0:2,0:0:0:0:
98,240,73371,5,2,3:2:0:0:
98,240,73471,2,0,L|78:395,1,141.666666666667,6|0,3:2|0:2,0:0:0:0:
199,252,73771,1,2,3:2:0:0:
199,252,73871,2,0,L|180:173,1,70.8333333333333,2|2,3:2|3:2,0:0:0:0:
64,70,74071,2,0,P|91:99|129:118,1,70.8333333333333,10|2,0:2|0:2,0:0:0:0:
287,191,74271,2,0,P|365:157|471:147,1,141.666666666667,2|0,0:2|3:2,0:0:0:0:
417,358,74571,5,2,3:2:0:0:
417,358,74671,2,0,L|265:339,1,141.666666666667,2|0,3:2|0:2,0:0:0:0:
199,252,74971,2,0,L|118:271,1,70.8333333333333,2|2,3:2|3:2,0:0:0:0:
53,334,75171,1,2,3:2:0:0:
53,334,75271,2,0,P|27:256|46:214,1,70.8333333333333,10|0,0:2|0:2,0:0:0:0:
99,118,75471,1,2,3:2:0:0:
99,118,75571,2,0,L|79:205,1,70.8333333333333,2|2,3:2|3:2,0:0:0:0:
287,191,75771,5,2,3:2:0:0:
287,191,75871,2,0,P|282:102|187:9,1,212.5,2|0,3:2|0:2,0:0:0:0:
400,83,76271,2,0,L|375:174,1,70.8333333333333,0|0,3:2|3:2,0:0:0:0:
456,326,76471,2,0,P|450:240|503:154,1,141.666666666667,10|0,0:2|0:2,0:0:0:0:
378,384,76771,2,0,P|404:318|398:248,1,141.666666666667,10|0,0:2|0:2,0:0:0:0:
189,271,77071,2,0,L|210:357,1,70.8333333333333,2|0,3:2|3:2,0:0:0:0:
100,204,77271,5,10,0:2:0:0:
110,155,77371,1,10,0:2:0:0:
120,106,77471,1,10,0:2:0:0:
130,58,77571,1,10,0:2:0:0:
140,9,77671,1,10,0:2:0:0:
306,298,77871,5,10,0:2:0:0:
293,237,77971,1,10,0:2:0:0:
281,176,78071,1,10,0:2:0:0:
268,116,78171,1,10,0:2:0:0:
256,55,78271,6,0,L|375:29,1,70.8333333333333,6|0,3:2|0:2,0:0:0:0:
488,29,78471,2,0,L|335:61,1,141.666666666667,2|0,3:2|0:2,0:0:0:0:
179,171,78771,2,0,L|26:203,1,141.666666666667,2|0,3:2|0:2,0:0:0:0:
94,290,79071,1,0,3:2:0:0:
94,290,79171,2,0,L|251:257,1,141.666666666667,2|0,3:2|3:2,0:0:0:0:
383,382,79471,6,0,P|333:325|360:227,1,141.666666666667,2|0,3:2|0:2,0:0:0:0:
411,175,79771,2,0,P|455:236|420:331,1,141.666666666667,2|0,3:2|0:2,0:0:0:0:
232,260,80071,2,0,P|250:193|309:157,1,141.666666666667,10|0,0:2|0:2,0:0:0:0:
453,77,80371,2,0,B|381:89|381:89|315:40,1,141.666666666667,2|0,3:2|0:2,0:0:0:0:
151,147,80671,6,0,P|74:126|0:155,1,141.666666666667,2|0,3:2|0:2,0:0:0:0:
97,256,80971,2,0,P|163:277|231:259,1,141.666666666667,2|0,3:2|0:2,0:0:0:0:
245,59,81271,2,0,P|186:21|116:20,1,141.666666666667,10|0,0:2|0:2,0:0:0:0:
254,165,81571,5,2,3:2:0:0:
254,165,81671,2,0,L|339:153,1,70.8333333333333,2|2,3:2|3:2,0:0:0:0:
474,262,81871,2,0,L|332:254,1,141.666666666667,2|0,3:2|0:2,0:0:0:0:
224,371,82171,2,0,L|82:363,1,141.666666666667,2|0,3:2|0:2,0:0:0:0:
75,146,82471,2,0,P|135:215|148:282,1,141.666666666667,10|0,0:2|0:2,0:0:0:0:
254,165,82771,2,0,P|276:98|326:48,1,141.666666666667,2|0,3:2|0:2,0:0:0:0:
130,51,83071,6,0,B|197:26,2,70.8333333333333,6|2|2,3:2|3:2|3:2,0:0:0:0:
40,57,83371,2,0,L|203:1,1,141.666666666667,2|0,3:2|0:2,0:0:0:0:
505,110,83671,2,0,L|372:157,1,141.666666666667,10|0,0:2|0:2,0:0:0:0:
147,262,83971,2,0,B|80:287,1,70.8333333333333,2|0,3:2|3:2,0:0:0:0:
236,337,84171,5,0,3:2:0:0:
236,337,84271,2,0,P|265:251|252:191,1,141.666666666667,10|0,3:2|0:2,0:0:0:0:
400,300,84571,5,10,0:2:0:0:
381,273,84646,1,10,0:2:0:0:
367,245,84721,1,10,0:2:0:0:
358,214,84796,1,10,0:2:0:0:
352,183,84871,1,10,0:2:0:0:
352,151,84946,1,10,0:2:0:0:
356,120,85021,1,10,0:2:0:0:
364,89,85096,1,10,0:2:0:0:
377,60,85171,2,0,L|455:68,3,53.125,10|10|10|10,0:2|0:2|0:2|0:2,0:0:0:0:
244,106,85471,5,14,0:2:0:0:
256,192,85521,12,2,88371,0:2:0:0:
