osu file format v14

[General]
AudioFilename: audio.mp3
AudioLeadIn: 0
PreviewTime: 39833
Countdown: 0
SampleSet: Soft
StackLeniency: 0.3
Mode: 0
LetterboxInBreaks: 0
WidescreenStoryboard: 1

[Editor]
DistanceSpacing: 0.5
BeatDivisor: 12
GridSize: 32
TimelineZoom: 1.1

[Metadata]
Title:Cry Baby (TV Size)
TitleUnicode:Cry Baby (TV Size)
Artist:Official HIGE DANdism
ArtistUnicode:Official髭男dism
Creator:Nevo
Version:Gorou's Normal
Source:東京リベンジャーズ
Tags:HIGEDAN Tokyo Revengers Manji 卍 Gang 東京卍會 Manji-kai kai Toman OP Opening jrock j-rock rock japanese anime pop j-pop jpop kyouren o k u DT Best Mod gokugohan12468 kittyadventure gorou wanpachi cycopton o_k_u
BeatmapID:4089739
BeatmapSetID:1959410

[Difficulty]
HPDrainRate:3.2
CircleSize:3
OverallDifficulty:4
ApproachRate:5.5
SliderMultiplier:1.5
SliderTickRate:1

[Events]
//Background and Video events
0,0,"bg.jpg",0,0
Video,-370,"video.mp4"
//Break Periods
//Storyboard Layer 0 (Background)
//Storyboard Layer 1 (Fail)
//Storyboard Layer 2 (Pass)
//Storyboard Layer 3 (Foreground)
//Storyboard Layer 4 (Overlay)
//Storyboard Sound Samples

[TimingPoints]
-929,600,4,2,1,70,1,0
1471,-100,4,2,1,70,0,0
20671,-100,4,2,1,60,0,0
27796,-100,4,2,1,60,0,0
27871,-100,4,2,1,60,0,0
28071,-100,4,2,1,60,0,0
28471,-100,4,2,1,60,0,0
29896,-100,4,2,1,60,0,0
29971,-100,4,2,1,60,0,0
30196,-100,4,2,1,60,0,0
30271,-100,4,2,1,60,0,0
38671,-100,4,2,1,60,0,0
39871,-90.9090909090909,4,2,1,80,0,1
45921,-90.9090909090909,4,2,1,5,0,1
45971,-90.9090909090909,4,2,1,80,0,1
47121,-90.9090909090909,4,2,1,5,0,1
47171,-90.9090909090909,4,2,1,80,0,1
56671,-90.9090909090909,4,2,1,80,0,0
59071,-90.9090909090909,4,2,1,80,0,1
65121,-90.9090909090909,4,2,1,5,0,1
65171,-90.9090909090909,4,2,1,80,0,1
77071,-90.9090909090909,4,2,1,80,0,0
78271,-90.9090909090909,4,2,1,80,0,1
82471,-90.9090909090909,4,2,1,80,0,0
83071,-90.9090909090909,4,2,1,80,0,1
84571,-90.9090909090909,4,2,1,80,0,1
84871,-90.9090909090909,4,2,1,80,0,1
85171,-90.9090909090909,4,2,1,80,0,1
85396,-90.9090909090909,4,2,1,80,0,0
85471,-90.9090909090909,4,2,1,50,0,1
85546,-90.9090909090909,4,2,1,50,0,0
88471,-90.9090909090909,4,2,1,5,0,0

[Colours]
Combo1 : 250,190,0
Combo2 : 255,0,0
Combo3 : 255,128,0

[HitObjects]
73,91,1471,6,0,L|163:102,1,75,6|2,3:2|0:2,0:0:0:0:
239,130,2071,2,0,P|296:115|335:93,1,75,10|2,0:2|0:2,0:0:0:0:
358,104,2521,2,0,L|375:17,1,75
418,12,2971,1,2,3:2:0:0:
498,67,3271,2,0,L|512:140,1,75,10|2,0:2|3:2,0:0:0:0:
471,229,3871,6,0,P|491:280|504:326,2,75,2|2|10,3:2|0:2|0:2,0:0:0:0:
375,250,4771,1,2,0:2:0:0:
375,250,4921,2,0,L|241:224,1,112.5,0|2,0:0|3:2,0:0:0:0:
167,221,5671,1,10,0:2:0:0:
111,301,5971,1,2,3:2:0:0:
21,261,6271,6,0,P|10:217|8:160,1,75,2|2,3:2|0:2,0:0:0:0:
37,148,6721,2,0,L|18:24,1,112.5,0|2,0:0|0:2,0:0:0:0:
113,10,7471,2,0,P|162:27|209:36,2,75,2|2|10,3:2|3:2|0:2,0:0:0:0:
43,78,8371,1,2,3:2:0:0:
86,165,8671,6,0,L|70:257,1,75,2|2,3:2|0:2,0:0:0:0:
42,277,9121,2,0,P|104:303|146:336,1,112.5,0|2,0:0|0:2,0:0:0:0:
227,373,9871,1,2,3:2:0:0:
266,283,10171,1,2,3:2:0:0:
203,207,10471,1,10,0:2:0:0:
311,44,11071,6,0,P|361:25|411:13,1,75,6|2,3:2|0:2,0:0:0:0:
428,33,11521,2,0,L|456:169,1,112.5,0|2,0:0|0:2,0:0:0:0:
482,180,12121,2,0,P|474:237|458:284,1,75
444,296,12571,1,2,3:2:0:0:
356,253,12871,2,0,L|267:269,1,75,10|2,0:2|3:2,0:0:0:0:
218,192,13471,6,0,P|229:141|243:112,1,75,2|2,3:2|0:2,0:0:0:0:
262,78,13921,2,0,L|124:33,1,112.5,0|2,0:0|0:2,0:0:0:0:
114,70,14521,2,0,P|56:84|8:122,1,112.5,0|2,0:0|3:2,0:0:0:0:
84,182,15271,1,10,0:2:0:0:
49,273,15571,1,2,3:2:0:0:
119,339,15871,6,0,L|202:350,1,75,2|2,3:2|0:2,0:0:0:0:
232,319,16321,2,0,P|236:263|225:185,1,112.5,0|2,0:0|3:2,0:0:0:0:
186,119,17071,1,2,3:2:0:0:
213,25,17371,1,2,3:2:0:0:
308,42,17671,2,0,L|397:27,1,75,10|2,0:2|3:2,0:0:0:0:
441,107,18271,6,0,P|474:155|486:190,2,75,2|2|10,3:2|3:2|0:2,0:0:0:0:
345,128,19171,1,2,3:2:0:0:
312,219,19471,2,0,L|332:305,1,75,2|2,3:2|3:2,0:0:0:0:
260,360,20071,2,0,L|174:340,1,75,10|2,0:2|3:2,0:0:0:0:
89,348,20671,6,0,P|58:261|58:177,1,150,6|10,3:2|0:2,0:0:0:0:
97,115,21571,2,0,L|86:59,1,37.5,2|0,0:2|0:0,0:0:0:0:
62,37,21871,2,0,L|229:64,1,150,2|10,3:2|0:2,0:0:0:0:
265,141,22771,1,2,3:2:0:0:
185,197,23071,5,2,3:2:0:0:
233,281,23371,2,0,L|246:334,1,37.5,2|0,0:2|0:0,0:0:0:0:
233,365,23671,2,0,P|320:338|389:343,1,150,10|2,0:2|3:2,0:0:0:0:
509,196,24871,1,10,0:2:0:0:
498,99,25171,1,2,3:2:0:0:
420,39,25471,6,0,P|375:38|330:27,1,75,2|2,3:2|3:2,0:0:0:0:
252,59,26071,1,10,0:2:0:0:
287,149,26371,1,2,3:2:0:0:
200,193,26671,2,0,L|216:276,1,75,2|2,3:2|3:2,0:0:0:0:
189,360,27271,2,0,P|86:348|45:333,1,112.5,10|0,0:2|0:0,0:0:0:0:
29,342,27871,6,0,L|11:257,1,75,2|0,3:2|0:0,0:0:0:0:
88,206,28471,2,0,P|93:116|137:62,1,150,10|2,0:2|3:2,0:0:0:0:
272,199,29671,2,0,L|306:338,1,112.5,10|0,0:2|0:0,0:0:0:0:
278,353,30271,6,0,P|369:361|457:337,1,150,6|10,3:2|0:2,0:0:0:0:
488,274,31171,2,0,L|477:215,1,37.5,2|0,0:2|0:0,0:0:0:0:
454,195,31471,2,0,L|475:102,1,75,2|2,3:2|3:2,0:0:0:0:
486,25,32071,1,10,0:2:0:0:
291,12,32671,6,0,P|239:29|197:37,2,75,2|0|10,3:2|3:0|0:2,0:0:0:0:
358,82,33571,1,2,0:2:0:0:
278,138,33871,2,0,L|251:307,1,150,2|10,3:2|0:2,0:0:0:0:
182,352,34771,1,2,0:2:0:0:
97,302,35071,6,0,P|46:307|3:318,1,75,6|2,3:2|3:2,0:0:0:0:
7,265,35521,2,0,L|32:141,1,112.5,0|2,0:0|3:2,0:0:0:0:
112,103,36271,2,0,P|113:63|104:7,1,75,2|2,3:2|3:2,0:0:0:0:
153,8,36721,2,0,L|244:18,1,75,2|0,0:0|0:0,0:0:0:0:
267,43,37171,1,2,0:2:0:0:
319,125,37471,6,0,P|304:161|297:206,1,75,2|2,3:2|3:2,0:0:0:0:
254,220,37921,2,0,L|269:319,1,75
307,318,38371,1,14,0:2:0:0:
395,277,38671,2,0,P|410:241|417:196,1,75,14|8,0:2|0:2,0:0:0:0:
455,175,39121,1,0,0:0:0:0:
455,175,39271,2,0,L|521:189,2,37.5,14|0|8,0:2|0:0|0:2,0:0:0:0:
385,92,39871,5,6,3:2:0:0:
278,77,40171,1,2,3:2:0:0:
188,17,40471,1,10,0:2:0:0:
119,99,40771,2,0,P|80:143|41:166,1,82.5000025177003,2|2,0:2|3:2,0:0:0:0:
0,244,41371,1,2,3:2:0:0:
99,284,41671,2,0,L|116:378,1,82.5000025177003,10|2,0:2|3:2,0:0:0:0:
215,329,42271,6,0,P|276:358|329:359,1,82.5000025177003,6|2,3:2|3:2,0:0:0:0:
340,379,42721,2,0,L|473:352,1,123.75000377655,2|2,0:0|3:2,0:0:0:0:
465,300,43321,2,0,P|490:257|492:185,1,123.75000377655,2|0,0:0|3:2,0:0:0:0:
455,144,43921,2,0,L|467:40,1,82.5000025177003,2|0,0:0|0:0,0:0:0:0:
429,21,44371,2,0,P|395:27|355:44,1,41.2500012588501,2|0,3:2|0:0,0:0:0:0:
349,65,44671,5,6,3:2:0:0:
275,142,44971,1,0,3:0:0:0:
352,216,45271,2,0,P|348:287|327:347,1,123.75000377655,10|0,0:2|0:0,0:0:0:0:
286,365,45871,1,6,3:2:0:0:
209,291,46171,1,0,3:0:0:0:
135,368,46471,2,0,P|64:364|4:343,1,123.75000377655,10|0,0:2|0:0,0:0:0:0:
10,293,47071,5,6,3:2:0:0:
82,214,47371,1,0,3:0:0:0:
5,138,47671,2,0,L|31:7,1,123.75000377655,10|0,0:2|0:0,0:0:0:0:
82,11,48271,2,0,P|152:65|224:66,1,123.75000377655,6|0,0:2|0:0,0:0:0:0:
234,50,48871,1,14,0:2:0:0:
286,143,49171,1,2,3:2:0:0:
196,202,49471,5,6,3:2:0:0:
191,309,49771,2,0,P|220:348|264:383,1,82.5000025177003,2|8,3:2|0:2,0:0:0:0:
330,305,50371,1,2,0:2:0:0:
430,342,50671,2,0,L|449:241,1,82.5000025177003,2|2,3:2|3:2,0:0:0:0:
487,227,51121,1,0,0:0:0:0:
487,227,51271,2,0,P|464:169|461:141,1,82.5000025177003,10|2,0:2|0:2,0:0:0:0:
494,46,51871,5,2,3:2:0:0:
391,15,52171,1,2,3:2:0:0:
391,15,52321,2,0,L|256:39,1,123.75000377655,0|2,0:0|3:2,0:0:0:0:
175,89,53071,2,0,P|122:69|78:57,1,82.5000025177003,6|2,3:2|3:2,0:0:0:0:
54,94,53521,1,0,0:0:0:0:
54,94,53671,2,0,L|40:183,1,82.5000025177003,10|0,0:2|0:2,0:0:0:0:
7,277,54271,6,0,P|26:339|41:369,1,82.5000025177003,6|2,3:2|3:2,0:0:0:0:
86,362,54721,2,0,L|204:339,1,82.5000025177003,2|0,0:0|0:0,0:0:0:0:
217,326,55171,1,0,0:0:0:0:
311,275,55471,2,0,P|326:236|337:197,1,82.5000025177003,6|2,3:2|3:2,0:0:0:0:
303,154,55921,2,0,L|287:63,1,82.5000025177003,2|0,0:0|0:0,0:0:0:0:
325,33,56371,2,0,P|355:25|388:11,1,41.2500012588501,2|0,3:2|0:0,0:0:0:0:
417,29,56671,6,0,P|482:64|508:158,1,165.000005035401,6|14,3:2|3:2,0:0:0:0:
421,208,57571,1,6,3:2:0:0:
375,304,57871,2,0,L|391:384,2,55.0000016784668,2|10|10,3:2|0:2|0:2,0:0:0:0:
307,281,58471,2,0,L|323:201,2,55.0000016784668,14|10|10,0:2|0:2|0:2,0:0:0:0:
246,320,59071,5,6,3:2:0:0:
142,348,59371,1,2,3:2:0:0:
46,299,59671,1,10,0:2:0:0:
42,191,59971,2,0,P|66:138|75:97,1,82.5000025177003,2|2,3:2|3:2,0:0:0:0:
119,17,60571,1,2,3:2:0:0:
220,52,60871,2,0,L|327:31,1,82.5000025177003,10|2,0:2|3:2,0:0:0:0:
389,97,61471,6,0,P|423:140|443:202,1,82.5000025177003,6|2,3:2|3:2,0:0:0:0:
473,201,61921,2,0,L|348:232,1,123.75000377655,2|2,0:0|3:2,0:0:0:0:
303,253,62521,2,0,P|256:215|184:191,1,123.75000377655,2|2,0:0|3:2,0:0:0:0:
179,142,63121,2,0,L|40:164,1,123.75000377655,2|2,0:0|3:2,0:0:0:0:
12,192,63721,1,0,0:0:0:0:
12,192,63871,5,2,3:2:0:0:
37,296,64171,1,0,3:0:0:0:
141,273,64471,2,0,P|222:287|281:315,1,123.75000377655,14|0,0:2|0:0,0:0:0:0:
287,349,65071,1,6,3:2:0:0:
391,324,65371,1,0,3:0:0:0:
368,220,65671,2,0,P|382:139|410:80,1,123.75000377655,14|0,0:2|0:0,0:0:0:0:
424,54,66271,6,0,L|311:26,1,82.5000025177003,6|2,0:2|3:2,0:0:0:0:
253,92,66871,1,14,0:2:0:0:
171,22,67171,1,2,3:2:0:0:
75,71,67471,2,0,P|32:108|-13:177,1,123.75000377655,6|0,0:2|0:0,0:0:0:0:
23,207,68071,2,0,L|9:306,1,82.5000025177003,14|0,0:2|3:0,0:0:0:0:
102,345,68671,5,6,3:2:0:0:
192,286,68971,1,2,3:2:0:0:
192,286,69121,2,0,P|201:199|211:161,1,123.75000377655,2|2,0:0|0:2,0:0:0:0:
196,57,69871,2,0,L|291:41,1,82.5000025177003,2|0,3:2|3:2,0:0:0:0:
322,15,70321,2,0,P|376:37|430:51,1,82.5000025177003,2|0,0:0|0:0,0:0:0:0:
447,67,70771,1,2,3:2:0:0:
408,167,71071,6,0,L|429:261,1,82.5000025177003,2|2,3:2|3:2,0:0:0:0:
468,281,71521,2,0,P|414:328|341:356,1,123.75000377655,0|2,0:0|3:2,0:0:0:0:
265,313,72271,2,0,L|282:232,1,82.5000025177003,2|2,3:2|3:2,0:0:0:0:
246,200,72721,1,0,0:0:0:0:
246,200,72871,2,0,P|235:133|216:96,1,82.5000025177003,10|0,0:2|0:0,0:0:0:0:
184,22,73471,6,0,L|79:11,1,82.5000025177003,6|2,3:2|3:2,0:0:0:0:
70,57,73921,2,0,P|35:98|25:149,1,82.5000025177003,2|0,0:0|0:0,0:0:0:0:
92,208,74521,1,0,0:0:0:0:
92,208,74671,2,0,L|109:299,1,82.5000025177003,2|2,3:2|3:2,0:0:0:0:
88,339,75121,2,0,P|139:349|194:370,1,82.5000025177003,2|0,0:0|0:0,0:0:0:0:
219,374,75571,2,0,L|282:363,1,41.2500012588501,2|0,3:2|0:0,0:0:0:0:
299,331,75871,5,2,3:2:0:0:
187,147,76471,1,10,0:2:0:0:
208,41,76771,1,10,0:2:0:0:
313,19,77071,2,0,L|426:6,1,82.5000025177003,2|10,3:2|0:2,0:0:0:0:
441,36,77521,1,0,0:0:0:0:
441,36,77671,2,0,P|476:89|489:126,1,82.5000025177003,10|10,0:2|0:2,0:0:0:0:
413,188,78271,6,0,L|334:171,2,55.0000016784668,6|2|0,3:2|3:2|0:2,0:0:0:0:
470,230,78871,2,0,P|440:296|430:338,1,82.5000025177003,8|2,0:0|3:2,0:0:0:0:
341,354,79471,1,2,3:2:0:0:
241,313,79771,1,2,3:2:0:0:
276,211,80071,2,0,P|246:145|236:103,1,82.5000025177003,10|2,0:2|3:2,0:0:0:0:
147,87,80671,5,2,3:2:0:0:
47,128,80971,1,2,3:2:0:0:
28,233,81271,2,0,L|45:334,1,82.5000025177003,10|2,0:2|3:2,0:0:0:0:
140,356,81871,2,0,P|196:337|252:332,1,82.5000025177003,2|2,3:2|3:2,0:0:0:0:
307,273,82471,1,10,0:2:0:0:
390,340,82771,1,2,3:2:0:0:
465,264,83071,6,0,P|489:253|533:243,2,55.0000016784668,6|2|0,3:2|3:2|0:0,0:0:0:0:
402,228,83671,2,0,L|292:205,1,82.5000025177003,10|2,0:2|3:2,0:0:0:0:
237,277,84271,1,10,3:2:0:0:
135,241,84571,2,0,P|109:278|94:326,2,82.5000025177003,10|10|10,0:2|0:2|0:2,0:0:0:0:
179,210,85321,1,10,0:2:0:0:
179,210,85471,1,14,0:2:0:0:
256,192,85621,12,0,88471,0:0:0:0:
