osu file format v14

[General]
AudioFilename: audio.mp3
AudioLeadIn: 0
PreviewTime: 42382
Countdown: 0
SampleSet: Soft
StackLeniency: 0.7
Mode: 0
LetterboxInBreaks: 0
WidescreenStoryboard: 1

[Editor]
DistanceSpacing: 0.4
BeatDivisor: 4
GridSize: 32
TimelineZoom: 1.6

[Metadata]
Title:Bad for me (Short Ver.)
TitleUnicode:バッドフォーミー (Short Ver.)
Artist:Official HIGE DANdism
ArtistUnicode:Official髭男dism
Creator:Bakugo-
Version:yanagi's Insane
Source:グッド・バイ
Tags:HIGEDAN 楢崎誠 小笹大輔 藤原聡 松浦匡希 satoshi fujihara daisuke ozasa makoto narazaki masaki matsuura Theme Song TV Drama Goodbye Stand By You EP Major 1st First Album Traveler オフィシャルヒゲダンディズム jpop j-pop pop japanese version shiwakaze leomineXD leomine freudeman chizu-kun yanaginagi1 freude chizu yanagi
BeatmapID:3652821
BeatmapSetID:1778601

[Difficulty]
HPDrainRate:6
CircleSize:4
OverallDifficulty:8
ApproachRate:9
SliderMultiplier:1.69
SliderTickRate:1

[Events]
//Background and Video events
0,0,"Download - Copy.jpg",0,0
//Break Periods
2,91444,93519
//Storyboard Layer 0 (Background)
//Storyboard Layer 1 (Fail)
//Storyboard Layer 2 (Pass)
//Storyboard Layer 3 (Foreground)
//Storyboard Layer 4 (Overlay)
//Storyboard Sound Samples

[TimingPoints]
706,359.281437125748,4,2,1,60,1,0
25137,-125,4,2,1,50,0,0
26484,-125,4,2,1,5,0,0
26574,-125,4,2,1,50,0,0
27921,-125,4,2,1,5,0,0
28011,-125,4,2,1,50,0,0
28640,-125,4,2,1,5,0,0
28730,-125,4,2,1,50,0,0
36634,-90.9090909090909,4,2,1,60,0,0
42382,-83.3333333333333,4,2,1,70,0,0
88370,-100,4,2,1,70,0,0
92502,-100,4,2,1,5,0,0
92682,-100,4,2,1,60,0,0
114232,359.281437125748,4,2,1,60,1,0
115670,-100,4,2,1,60,0,0
116029,-100,4,2,1,57,0,0
116388,-100,4,2,1,54,0,0
116747,-100,4,2,1,51,0,0
117107,-100,4,2,1,48,0,0
117466,-100,4,2,1,45,0,0
117825,-100,4,2,1,42,0,0
118185,-100,4,2,1,39,0,0
118544,-100,4,2,1,36,0,0
118903,-100,4,2,1,33,0,0
119262,-100,4,2,1,30,0,0
119622,-100,4,2,1,27,0,0
119981,-100,4,2,1,24,0,0
120340,-100,4,2,1,21,0,0
120699,-100,4,2,1,18,0,0
121059,-100,4,2,1,15,0,0
121418,-100,4,2,1,12,0,0
121777,-100,4,2,1,9,0,0
122137,-100,4,2,1,6,0,0
122496,-100,4,2,1,5,0,0
122855,-100,4,2,1,5,0,0

[Colours]
Combo1 : 137,88,88
Combo2 : 49,128,153
Combo3 : 209,114,82
Combo4 : 199,190,188
Combo5 : 118,109,107
Combo6 : 168,2,255
Combo7 : 255,13,13
Combo8 : 13,249,255

[HitObjects]
14,141,2143,6,0,P|50:91|133:111,1,126.75,6|0,1:2|0:0,0:0:0:0:
153,151,2502,2,0,P|147:126|145:91,1,42.25,8|0,0:0|0:0,0:0:0:0:
286,1,2682,2,0,B|239:69|238:120|238:120|259:173,1,169,2|0,1:2|0:0,0:0:0:0:
188,0,3220,6,0,P|146:7|105:19,1,84.5,10|0,0:0|0:0,0:0:0:0:
325,108,3580,2,0,P|365:119|407:127,1,84.5,2|0,0:0|0:0,0:0:0:0:
308,276,3939,6,0,P|323:217|349:170,1,84.5,10|0,0:0|0:0,0:0:0:0:
471,51,4298,2,0,P|486:110|512:157,1,84.5,2|0,0:0|0:0,0:0:0:0:
323,98,4658,2,0,B|298:95|298:95|239:116,1,84.5,10|0,0:0|0:0,0:0:0:0:
106,365,5017,6,0,P|108:299|168:272,1,126.75,2|0,1:2|0:0,0:0:0:0:
214,283,5376,2,0,P|195:292|174:297,1,42.25,10|0,0:0|0:0,0:0:0:0:
108,150,5556,2,0,P|186:183|299:217,1,169,2|0,1:2|0:0,0:0:0:0:
84,222,6095,2,0,P|32:246|-6:256,1,84.5,8|0,0:0|0:0,0:0:0:0:
86,37,6454,5,2,0:0:0:0:
148,83,6634,1,2,0:0:0:0:
223,63,6813,1,10,0:0:0:0:
279,117,6993,2,0,L|259:207,1,84.5,2|0,0:0|0:0,0:0:0:0:
427,362,7352,5,2,0:0:0:0:
512,302,7532,1,10,0:0:0:0:
488,200,7711,1,2,0:0:0:0:
281,287,7891,6,0,P|211:284|177:223,1,126.75,6|0,1:2|0:0,0:0:0:0:
149,170,8250,2,0,P|169:134|172:111,1,42.25,8|0,0:0|0:0,0:0:0:0:
98,242,8430,2,0,P|85:173|64:98,1,126.75,2|0,1:2|0:0,0:0:0:0:
183,0,8789,1,2,0:0:0:0:
221,80,8969,1,10,0:0:0:0:
368,124,9149,1,0,0:0:0:0:
393,34,9328,6,0,P|351:40|301:60,1,84.5,2|0,0:0|0:0,0:0:0:0:
89,203,9688,2,0,P|47:197|-3:177,1,84.5,10|0,0:0|0:0,0:0:0:0:
64,293,10047,6,0,P|106:287|156:267,1,84.5,2|0,0:0|0:0,0:0:0:0:
368,124,10407,2,0,P|410:130|460:150,1,84.5,10|0,0:0|0:0,0:0:0:0:
492,221,10765,1,2,1:2:0:0:
271,53,11125,5,10,0:0:0:0:
224,114,11304,2,0,P|239:193|255:310,1,169,2|0,1:2|0:0,0:0:0:0:
132,363,11843,2,0,P|150:303|158:268,1,84.5,8|0,0:0|0:0,0:0:0:0:
0,160,12203,1,2,0:0:0:0:
78,290,12382,1,2,0:0:0:0:
204,110,12562,2,0,B|190:101|190:101|125:116,1,84.5,10|2,0:0|0:0,0:0:0:0:
342,51,12921,5,2,0:0:0:0:
235,9,13100,1,2,0:0:0:0:
194,116,13280,1,10,0:0:0:0:
300,157,13460,1,2,0:0:0:0:
95,37,13640,6,0,P|43:78|81:154,1,126.75,6|0,1:2|0:0,0:0:0:0:
111,161,13999,2,0,P|87:158|54:163,1,42.25,8|0,0:0|0:0,0:0:0:0:
27,287,14179,2,0,P|64:267|203:230,1,169,2|0,1:2|0:0,0:0:0:0:
309,78,14717,6,0,B|280:113|280:113|291:171,1,84.5,10|0,0:0|0:0,0:0:0:0:
388,184,15077,2,0,B|417:149|417:149|406:91,1,84.5,2|0,0:0|0:0,0:0:0:0:
376,340,15436,6,0,B|347:305|347:305|358:247,1,84.5,10|0,0:0|0:0,0:0:0:0:
455,234,15796,2,0,B|484:269|484:269|473:327,1,84.5,2|0,0:0|0:0,0:0:0:0:
280,384,16155,2,0,P|238:374|197:364,1,84.5,10|0,0:0|0:0,0:0:0:0:
110,379,16514,6,0,P|138:307|156:244,1,126.75,2|0,1:2|0:0,0:0:0:0:
207,264,16873,2,0,P|186:257|168:246,1,42.25,10|0,0:0|0:0,0:0:0:0:
126,157,17053,2,0,P|120:87|219:54,1,169,2|0,1:2|0:0,0:0:0:0:
331,7,17592,2,0,P|307:57|295:97,1,84.5,8|0,0:0|0:0,0:0:0:0:
407,213,17951,1,2,0:0:0:0:
511,184,18131,1,2,0:0:0:0:
358,136,18310,1,10,0:0:0:0:
299,284,18490,1,2,0:0:0:0:
141,270,18670,2,0,L|223:249,1,84.5,2|2,0:0|0:0,0:0:0:0:
235,368,19029,5,10,0:0:0:0:
287,201,19208,1,2,0:0:0:0:
139,100,19388,2,0,P|90:149|98:203,1,126.75,6|0,1:2|0:0,0:0:0:0:
143,247,19747,2,0,P|111:237|83:238,1,42.25,8|0,0:0|0:0,0:0:0:0:
16,175,19927,2,0,P|120:158|193:139,1,169,2|0,1:2|0:0,0:0:0:0:
303,28,20466,6,0,P|350:42|395:50,1,84.5,10|0,0:0|0:0,0:0:0:0:
481,118,20825,2,0,P|439:126|399:138,1,84.5,2|0,0:0|0:0,0:0:0:0:
301,231,21185,1,10,0:0:0:0:
442,266,21364,1,2,0:0:0:0:
270,326,21544,5,2,0:0:0:0:
362,305,21723,1,2,0:0:0:0:
181,194,21903,1,10,0:0:0:0:
216,384,22083,1,2,0:0:0:0:
222,376,22262,1,2,1:2:0:0:
38,296,22622,5,10,0:0:0:0:
44,285,22801,2,0,P|103:273|320:206,1,253.5,2|10,1:2|0:0,0:0:0:0:
466,328,23520,1,0,1:0:0:0:
477,245,23700,1,0,1:0:0:0:
335,301,23879,1,0,0:0:0:0:
393,351,24059,1,8,0:0:0:0:
342,291,24238,1,0,0:0:0:0:
483,230,24418,6,0,P|420:219|360:199,1,126.75,2|0,0:0|0:0,0:0:0:0:
347,206,24777,2,0,P|387:193|424:174,1,84.5,10|0,0:0|0:0,0:0:0:0:
279,363,25137,6,0,B|233:390|187:362|195:334|142:301|86:341,1,202.8,6|0,0:0|0:0,0:0:0:0:
24,384,25855,1,2,0:0:0:0:
91,316,26035,1,2,0:0:0:0:
0,228,26214,6,0,P|7:187|19:156,1,67.6,2|0,0:0|0:0,0:0:0:0:
86,240,26574,2,0,P|69:186|41:27,1,202.8,2|0,0:0|0:0,0:0:0:0:
229,138,27292,1,2,0:0:0:0:
236,67,27472,1,2,0:0:0:0:
168,48,27652,6,0,P|135:69|100:81,1,67.6,2|0,0:0|0:0,0:0:0:0:
132,253,28011,2,0,B|151:219|148:186|148:186|185:234|230:237|292:210,1,202.8,2|0,0:0|0:0,0:0:0:0:
332,158,28729,2,0,P|346:207|362:244,1,67.6,2|0,0:0|0:0,0:0:0:0:
437,278,29089,2,0,P|451:229|467:192,1,67.6,2|0,0:0|0:0,0:0:0:0:
332,371,29448,6,0,P|284:330|349:221,1,202.8,2|0,0:0|3:0,0:0:0:0:
404,279,30077,1,0,3:0:0:0:
387,293,30167,2,0,P|362:284|332:280,1,33.8,2|0,3:2|3:0,0:0:0:0:
279,307,30346,2,0,P|254:316|224:320,1,33.8,0|0,3:0|3:0,0:0:0:0:
171,147,30526,6,0,P|204:155|287:167,1,101.4,2|0,3:2|0:0,0:0:0:0:
333,126,30885,2,0,B|342:103|342:103|319:17,1,101.4,6|0,0:0|0:0,0:0:0:0:
315,13,31244,1,2,0:0:0:0:
446,91,31604,1,2,0:0:0:0:
397,235,31963,1,2,0:0:0:0:
157,67,32322,6,0,B|95:190|129:245|179:228|177:177,1,202.8,2|0,0:0|0:0,0:0:0:0:
46,19,33041,2,0,P|61:72|68:104,1,67.6,2|0,0:0|0:0,0:0:0:0:
0,210,33400,2,0,P|8:177|17:144,1,67.6,2|0,0:0|0:0,0:0:0:0:
169,53,33759,6,0,P|211:70|386:118,1,202.8,2|0,0:0|0:0,0:0:0:0:
454,20,34478,2,0,P|396:31|362:45,1,67.6,2|0,0:0|0:0,0:0:0:0:
286,224,34837,6,0,L|303:308,1,67.6,2|0,0:0|0:0,0:0:0:0:
248,361,35107,1,0,0:0:0:0:
231,345,35197,2,0,L|286:119,1,202.8,2|0,0:0|0:0,0:0:0:0:
152,42,35915,6,0,P|123:46|84:85,1,67.6,2|0,0:0|0:0,0:0:0:0:
153,229,36274,2,0,P|179:180|153:122,1,101.4,2|0,0:0|0:0,0:0:0:0:
146,124,36634,6,0,L|56:149,1,92.950002836609,6|0,1:2|0:0,0:0:0:0:
57,286,36993,1,2,1:2:0:0:
62,266,37083,1,0,0:0:0:0:
66,244,37173,1,2,0:0:0:0:
149,355,37352,1,2,1:2:0:0:
144,335,37442,1,0,0:0:0:0:
140,313,37532,1,2,0:0:0:0:
184,223,37711,6,0,P|247:246|294:250,1,92.950002836609,2|2,1:2|0:0,0:0:0:0:
374,78,38071,2,0,P|291:77|263:171,1,185.900005673218,6|2,1:2|1:2,0:0:0:0:
338,340,38610,1,2,0:0:0:0:
413,210,38789,5,2,1:2:0:0:
401,283,38969,1,0,0:0:0:0:
480,356,39149,5,2,1:2:0:0:
376,105,39328,1,0,0:0:0:0:
497,161,39508,6,0,P|466:214|420:203,1,92.950002836609,6|0,1:2|0:0,0:0:0:0:
380,302,39867,2,0,P|368:257|352:213,1,92.950002836609,6|0,1:2|0:0,0:0:0:0:
215,67,40226,2,0,P|203:111|187:155,1,92.950002836609,6|2,1:2|0:0,0:0:0:0:
77,243,40586,2,0,P|144:268|152:343,1,139.425004254913,6|0,1:2|0:0,0:0:0:0:
146,356,40945,1,12,0:2:0:0:
9,136,41304,5,2,1:2:0:0:
45,95,41394,1,2,0:0:0:0:
97,92,41484,1,2,0:0:0:0:
142,118,41574,1,2,0:0:0:0:
162,167,41664,2,0,P|152:193|147:231,1,46.4750014183045,2|0,0:0|0:0,0:0:0:0:
248,93,41843,6,0,P|216:12|205:-32,1,92.950002836609,4|8,0:0|0:0,0:0:0:0:
333,95,42203,6,0,P|326:115|298:157,1,46.4750014183045
361,197,42382,2,0,P|426:190|415:96,1,152.099995358276,2|0,0:0|0:0,0:0:0:0:
422,235,42741,2,0,P|428:260|438:293,1,50.6999984527588,12|0,0:1|0:0,0:0:0:0:
479,350,42921,6,0,B|460:361|460:361|445:360|445:360|422:371,1,50.6999984527588,2|2,0:0|0:0,0:0:0:0:
307,293,43101,2,0,B|288:289|288:289|239:316|178:323|178:323|146:354,1,152.099995358276,2|0,1:2|0:0,0:0:0:0:
164,354,43460,1,8,0:0:0:0:
210,272,43640,6,0,P|196:247|190:224,1,50.6999984527588,2|2,0:0|0:0,0:0:0:0:
94,148,43819,2,0,P|23:167|0:236,1,152.099995358276,2|0,1:2|0:0,0:0:0:0:
26,263,44179,2,0,P|48:249|71:241,1,50.6999984527588,10|0,0:0|0:0,0:0:0:0:
176,143,44358,2,0,P|102:124|29:101,1,152.099995358276,2|0,0:0|0:0,0:0:0:0:
192,129,44717,1,2,1:2:0:0:
140,42,45077,6,0,P|191:32|243:17,1,101.399996905518,6|0,1:2|0:0,0:0:0:0:
454,85,45436,1,2,1:2:0:0:
373,110,45616,1,10,0:0:0:0:
313,23,45795,1,2,0:0:0:0:
394,33,45975,1,2,1:2:0:0:
311,213,46155,1,2,1:2:0:0:
486,285,46334,1,10,0:0:0:0:
465,212,46514,1,2,0:0:0:0:
286,374,46694,6,0,P|233:340|270:242,1,152.099995358276,2|0,1:2|0:0,0:0:0:0:
304,214,47053,2,0,P|261:226|231:227,1,50.6999984527588,10|0,0:0|0:0,0:0:0:0:
191,159,47232,2,0,B|201:154|201:154|214:163|214:163|223:157|223:157|241:166|241:166|251:161|251:161|268:170|268:170|278:165|278:165|293:174|293:174|303:169|303:169|320:179|320:179|329:174|329:174|346:183|346:183|354:180|354:180|370:189,1,202.799993811035,2|2,0:0|1:2,0:0:0:0:
434,132,47771,1,10,0:0:0:0:
248,16,47951,1,6,0:0:0:0:
229,90,48131,6,0,P|161:110|106:118,1,101.399996905518,2|0,1:2|1:2,0:0:0:0:
33,7,48490,2,0,P|107:23|158:39,1,101.399996905518,10|0,0:0|0:0,0:0:0:0:
246,197,48849,1,2,1:2:0:0:
227,280,49029,1,2,1:2:0:0:
128,123,49208,1,10,0:0:0:0:
258,13,49388,1,2,0:0:0:0:
253,206,49568,6,0,B|222:184|222:184|201:65,1,152.099995358276,6|0,1:2|0:0,0:0:0:0:
258,13,49927,2,0,P|320:34|373:43,1,101.399996905518,10|0,0:0|0:0,0:0:0:0:
464,16,50286,1,2,1:2:0:0:
420,75,50466,1,2,1:2:0:0:
466,199,50646,1,10,0:0:0:0:
512,139,50825,5,2,1:2:0:0:
329,207,51005,2,0,P|301:272|357:219,1,202.799993811035,6|0,1:2|0:0,0:0:0:0:
200,384,51544,6,0,P|172:319|228:372,1,202.799993811035,6|0,1:2|0:0,0:0:0:0:
200,216,52083,6,0,P|96:101|230:148,1,405.599987622071,6|8,1:2|0:0,0:0:0:0:
319,367,52981,1,0,1:0:0:0:
424,325,53161,2,0,P|385:314|365:305,1,50.6999984527588,8|0,0:0|0:0,0:0:0:0:
281,205,53340,2,0,P|344:190|407:166,1,101.399996905518,2|0,1:2|0:0,0:0:0:0:
512,102,53700,1,6,1:2:0:0:
314,7,53879,6,0,P|239:28|247:107,1,152.099995358276,2|0,0:0|0:0,0:0:0:0:
284,149,54238,2,0,P|258:129|221:120,1,50.6999984527588,12|0,0:1|0:0,0:0:0:0:
116,218,54418,1,2,0:0:0:0:
139,21,54598,2,0,B|137:43|137:43|160:105|167:145|167:145|197:190,1,152.099995358276,2|0,1:2|0:0,0:0:0:0:
192,177,54957,1,8,0:0:0:0:
74,104,55137,6,0,P|68:138|60:161,1,50.6999984527588,2|2,0:0|0:0,0:0:0:0:
0,241,55316,2,0,P|66:239|101:333,1,152.099995358276,2|0,1:2|0:0,0:0:0:0:
82,380,55676,2,0,P|94:353|112:331,1,50.6999984527588,10|0,0:0|0:0,0:0:0:0:
235,282,55855,2,0,P|290:300|424:335,1,152.099995358276,2|0,0:0|0:0,0:0:0:0:
214,304,56214,1,2,1:2:0:0:
266,107,56574,6,0,P|279:174|291:224,1,101.399996905518,6|0,1:2|0:0,0:0:0:0:
375,326,56933,1,2,1:2:0:0:
452,258,57113,6,0,B|367:242|367:242|341:257,1,101.399996905518,10|0,0:0|0:0,0:0:0:0:
197,384,57472,2,0,P|135:347|150:249,1,152.099995358276,2|0,1:2|0:0,0:0:0:0:
148,255,57831,1,10,0:0:0:0:
41,304,58011,1,2,0:0:0:0:
4,131,58191,6,0,P|91:161|187:177,1,152.099995358276,2|0,1:2|0:0,0:0:0:0:
175,164,58550,2,0,L|153:114,1,50.6999984527588,10|0,0:0|0:0,0:0:0:0:
308,18,58729,2,0,P|275:103|241:234,1,202.799993811035,2|2,0:0|1:2,0:0:0:0:
293,297,59268,1,10,0:0:0:0:
351,248,59448,6,0,B|323:253|323:253|303:280,1,50.6999984527588,6|0,0:0|0:0,0:0:0:0:
441,296,59628,2,0,P|492:234|450:153,1,152.099995358276,2|0,1:2|0:0,0:0:0:0:
431,143,59987,2,0,L|323:174,1,101.399996905518,10|0,0:0|0:0,0:0:0:0:
182,279,60346,1,2,1:2:0:0:
221,177,60526,1,2,1:2:0:0:
78,83,60705,1,10,0:0:0:0:
117,185,60885,1,2,0:0:0:0:
13,269,61065,6,0,B|-11:233|-11:233|10:91,1,152.099995358276,6|0,1:2|0:0,0:0:0:0:
74,87,61424,2,0,P|143:105|196:114,1,101.399996905518,10|0,0:0|0:0,0:0:0:0:
326,14,61783,1,2,1:2:0:0:
204,38,61963,1,2,1:2:0:0:
231,169,62143,1,10,0:0:0:0:
353,145,62323,1,2,1:2:0:0:
146,141,62502,6,0,P|182:237|211:340,1,202.799993811035,6|0,1:2|0:0,0:0:0:0:
322,12,63041,6,0,P|301:97|259:223,1,202.799993811035,6|0,1:2|0:0,0:0:0:0:
468,237,63580,6,0,P|351:212|51:181,1,405.599987622071,6|10,1:2|0:0,0:0:0:0:
45,173,64388,1,2,0:0:0:0:
30,158,64478,1,10,0:0:0:0:
27,138,64568,1,10,0:0:0:0:
37,120,64658,1,10,0:0:0:0:
111,22,64837,2,0,B|102:35|102:35|120:145,1,101.399996905518,6|10,1:2|0:0,0:0:0:0:
195,325,65197,5,6,1:2:0:0:
342,234,65376,2,0,P|396:232|442:321,1,152.099995358276,2|0,0:0|0:0,0:0:0:0:
431,377,65735,2,0,P|445:338|465:313,1,50.6999984527588,12|0,0:1|0:0,0:0:0:0:
441,157,65915,6,0,B|420:159|420:159|410:168|410:168|383:175,1,50.6999984527588,2|2,0:0|0:0,0:0:0:0:
344,26,66095,2,0,P|417:4|485:107,1,202.799993811035,2|8,1:2|0:0,0:0:0:0:
368,245,66634,1,2,0:0:0:0:
247,120,66813,6,0,P|271:66|215:-1,1,152.099995358276,2|0,1:2|0:0,0:0:0:0:
154,34,67173,2,0,P|201:28|227:10,1,50.6999984527588,10|0,0:0|0:0,0:0:0:0:
313,175,67352,2,0,P|244:154|164:141,1,152.099995358276,2|0,0:0|0:0,0:0:0:0:
147,147,67711,1,2,1:2:0:0:
33,259,67891,1,10,0:0:0:0:
130,364,68071,6,0,B|120:300|106:240|106:240|109:195,1,152.099995358276,6|0,1:2|0:0,0:0:0:0:
122,201,68430,1,2,1:2:0:0:
31,176,68610,1,10,0:0:0:0:
186,254,68789,1,2,0:0:0:0:
270,231,68969,1,2,1:2:0:0:
354,263,69149,1,2,1:2:0:0:
447,266,69328,1,10,0:0:0:0:
451,258,69508,1,2,0:0:0:0:
374,48,69688,6,0,P|322:113|346:176,1,152.099995358276,2|0,1:2|0:0,0:0:0:0:
434,171,70047,2,0,P|397:186|377:204,1,50.6999984527588,10|0,0:0|0:0,0:0:0:0:
252,314,70226,2,0,B|251:302|251:302|245:295|245:295|242:274|242:274|236:269|236:269|236:244|236:244|230:237|230:237|231:220|231:220|225:216|225:216|225:191|225:191|216:185|216:185|213:158,1,152.099995358276,2|0,0:0|0:0,0:0:0:0:
272,328,70586,1,2,1:2:0:0:
117,115,70945,6,0,P|152:122|178:132,1,50.6999984527588,6|2,0:0|0:0,0:0:0:0:
70,215,71125,6,0,P|11:162|32:85,1,152.099995358276,2|0,1:2|0:0,0:0:0:0:
37,84,71484,2,0,L|162:101,1,101.399996905518,10|0,0:0|0:0,0:0:0:0:
252,4,71843,1,2,1:2:0:0:
219,78,72023,1,2,1:2:0:0:
377,186,72203,1,10,0:0:0:0:
357,64,72382,1,2,0:0:0:0:
346,298,72562,6,0,B|433:293|453:251|453:251|450:211,1,152.099995358276,6|0,1:2|0:0,0:0:0:0:
461,204,72921,2,0,L|343:173,1,101.399996905518,10|0,0:0|0:0,0:0:0:0:
198,261,73280,1,2,1:2:0:0:
285,246,73460,1,2,1:2:0:0:
132,312,73640,1,10,0:0:0:0:
45,297,73820,1,2,1:2:0:0:
165,49,73999,6,0,L|190:290,1,202.799993811035,6|0,1:2|0:0,0:0:0:0:
271,383,74538,6,0,L|289:177,1,202.799993811035,6|0,1:2|0:0,0:0:0:0:
470,78,75077,6,0,L|50:124,1,405.599987622071,6|8,1:2|0:0,0:0:0:0:
135,75,75975,1,2,1:2:0:0:
203,222,76155,5,10,0:0:0:0:
139,266,76334,2,0,P|71:253|30:247,1,101.399996905518,2|0,1:2|0:0,0:0:0:0:
151,283,76694,6,0,P|154:315|164:348,1,50.6999984527588,6|0,1:2|0:0,0:0:0:0:
344,249,76873,2,0,P|308:302|225:296,1,152.099995358276,2|0,0:0|0:0,0:0:0:0:
309,332,77232,2,0,P|351:340|369:340,1,50.6999984527588,12|0,0:1|0:0,0:0:0:0:
480,224,77412,6,0,B|460:219|460:219|450:223|450:223|428:218,1,50.6999984527588,2|2,0:0|0:0,0:0:0:0:
312,110,77592,2,0,P|318:50|427:57,1,152.099995358276,2|0,1:2|0:0,0:0:0:0:
449,80,77951,1,8,0:0:0:0:
266,185,78131,1,2,0:0:0:0:
204,17,78310,6,0,P|229:98|243:149,1,101.399996905518,2|0,1:2|1:0,0:0:0:0:
166,282,78670,1,10,0:0:0:0:
27,172,78849,2,0,P|66:105|173:101,1,152.099995358276,2|0,0:0|0:0,0:0:0:0:
150,107,79208,2,0,P|84:100|52:77,1,101.399996905518,2|8,1:2|0:0,0:0:0:0:
104,211,79568,6,0,P|82:268|71:326,1,101.399996905518,6|0,1:2|0:0,0:0:0:0:
93,199,79927,1,0,1:2:0:0:
191,358,80107,1,10,0:0:0:0:
166,282,80286,1,2,0:0:0:0:
235,167,80466,6,0,P|304:192|421:226,1,152.099995358276,2|0,1:2|0:0,0:0:0:0:
400,203,80825,2,0,L|381:147,1,50.6999984527588,10|0,0:0|0:0,0:0:0:0:
374,12,81005,1,2,0:0:0:0:
485,165,81185,6,0,P|416:219|427:300,1,152.099995358276,2|0,1:2|0:0,0:0:0:0:
472,319,81544,2,0,P|440:300|413:294,1,50.6999984527588,10|0,0:0|0:0,0:0:0:0:
287,267,81723,2,0,P|214:298|114:320,1,152.099995358276,2|0,0:0|0:0,0:0:0:0:
128,300,82083,1,2,1:2:0:0:
487,64,82442,6,0,P|449:54|406:36,1,50.6999984527588,2|0,0:0|0:0,0:0:0:0:
303,174,82622,2,0,B|313:104|313:104|310:87|310:87|319:19,1,152.099995358276,6|0,1:2|0:0,0:0:0:0:
285,0,82981,2,0,P|216:21|211:93,1,152.099995358276,10|0,0:0|0:0,0:0:0:0:
222,106,83340,1,2,1:2:0:0:
207,207,83520,1,2,1:2:0:0:
36,109,83700,1,10,0:0:0:0:
61,251,83879,1,2,0:0:0:0:
7,315,84059,6,0,B|72:327|100:328|100:328|125:343,1,101.399996905518,6|0,1:2|1:0,0:0:0:0:
220,384,84418,2,0,B|285:372|313:371|313:371|338:356,1,101.399996905518,10|0,0:0|0:0,0:0:0:0:
457,196,84777,1,2,1:2:0:0:
326,237,84957,1,2,1:2:0:0:
420,362,85137,1,10,0:0:0:0:
402,287,85316,1,2,1:2:0:0:
501,139,85496,6,0,P|397:75|412:3,1,202.799993811035,6|0,1:2|0:0,0:0:0:0:
320,126,86035,6,0,P|245:123|219:246,1,202.799993811035,6|0,1:2|0:0,0:0:0:0:
85,376,86574,6,0,P|133:311|-10:191,1,304.199990716553,6|0,1:2|1:0,0:0:0:0:
57,245,87292,1,8,0:0:0:0:
102,174,87472,1,0,1:0:0:0:
92,147,87562,1,8,0:0:0:0:
87,124,87652,1,8,0:0:0:0:
87,124,87831,5,6,1:2:0:0:
128,34,88370,6,0,B|167:6|215:31|206:58|250:77|305:46,1,169,6|0,1:2|0:0,0:0:0:0:
351,17,88909,1,2,0:0:0:0:
422,127,89089,6,0,P|407:189|384:300,1,169,2|0,0:0|0:0,0:0:0:0:
431,351,89628,1,2,0:0:0:0:
307,210,89807,6,0,P|221:237|236:333,1,169,6|2,1:2|0:0,0:0:0:0:
159,381,90346,2,0,P|154:240|28:177,1,295.75,2|0,0:0|0:0,0:0:0:0:
14,187,91065,1,2,0:0:0:0:
16,204,91155,1,2,0:0:0:0:
19,218,91244,5,2,0:0:0:0:
126,44,94119,6,0,P|183:70|176:127,1,126.75,6|0,1:2|0:0,0:0:0:0:
110,164,94478,2,0,P|148:154|165:154,1,42.25,8|0,0:0|0:0,0:0:0:0:
245,73,94658,2,0,P|313:90|426:113,1,169,2|0,1:2|0:0,0:0:0:0:
330,39,95197,6,0,P|279:44|245:55,1,84.5,10|0,0:0|0:0,0:0:0:0:
295,251,95556,2,0,P|346:246|380:235,1,84.5,2|0,0:0|0:0,0:0:0:0:
215,123,95915,6,0,P|220:174|231:208,1,84.5,10|0,0:0|0:0,0:0:0:0:
407,166,96274,2,0,P|402:115|391:81,1,84.5,2|0,0:0|0:0,0:0:0:0:
168,56,96634,2,0,B|153:53|153:53|75:81,1,84.5,10|0,0:0|0:0,0:0:0:0:
108,234,96993,6,0,P|160:193|141:119,1,126.75,2|0,1:2|0:0,0:0:0:0:
139,128,97352,2,0,L|83:139,1,42.25,10|0,0:0|0:0,0:0:0:0:
20,260,97532,2,0,P|105:281|195:314,1,169,2|0,1:2|0:0,0:0:0:0:
113,224,98071,2,0,P|67:239|16:251,1,84.5,8|2,0:0|0:0,0:0:0:0:
174,371,98430,5,2,0:0:0:0:
150,297,98610,1,2,0:0:0:0:
203,241,98789,1,10,0:0:0:0:
320,339,98969,1,2,0:0:0:0:
215,253,99328,5,2,0:0:0:0:
242,129,99507,1,10,0:0:0:0:
361,85,99688,1,2,0:0:0:0:
223,135,99867,6,0,P|178:70|229:17,1,126.75,6|0,1:2|0:0,0:0:0:0:
246,30,100226,2,0,P|212:23|187:9,1,42.25,8|0,0:0|0:0,0:0:0:0:
45,172,100406,2,0,P|84:158|127:151,1,84.5,2|0,1:2|0:0,0:0:0:0:
213,243,100765,5,2,0:0:0:0:
306,259,100945,1,10,0:0:0:0:
331,348,101125,1,0,0:0:0:0:
231,343,101304,6,0,P|260:291|319:164,2,169,2|10|2,0:0|0:0|0:0,0:0:0:0:
154,370,102203,1,0,0:0:0:0:
95,245,102382,2,0,P|120:193|133:146,1,84.5,10|0,0:0|0:0,0:0:0:0:
36,12,102741,6,0,P|15:81|81:118,1,126.75,2|0,1:2|0:0,0:0:0:0:
63,116,103101,2,0,P|86:100|110:93,1,42.25,10|0,0:0|0:0,0:0:0:0:
174,19,103280,2,0,P|254:37|351:50,1,169,2|0,1:2|0:0,0:0:0:0:
422,0,103819,2,0,B|414:15|414:15|425:89,1,84.5,8|2,0:0|0:0,0:0:0:0:
512,139,104179,1,2,0:0:0:0:
438,154,104358,1,2,0:0:0:0:
381,205,104538,1,10,0:0:0:0:
307,198,104717,1,2,0:0:0:0:
235,243,104897,5,2,0:0:0:0:
261,366,105077,1,2,0:0:0:0:
243,239,105256,1,10,0:0:0:0:
168,208,105436,1,2,0:0:0:0:
33,309,105616,6,0,P|100:355|152:323,1,126.75,6|0,1:2|0:0,0:0:0:0:
153,325,105975,2,0,P|141:294|140:265,1,42.25,8|0,0:0|0:0,0:0:0:0:
55,209,106155,2,0,P|83:143|111:49,1,169,2|0,1:2|0:0,0:0:0:0:
247,132,106694,6,0,P|189:153|153:157,1,84.5,10|0,0:0|0:0,0:0:0:0:
237,13,107053,2,0,P|278:21|317:37,1,84.5,2|0,0:0|0:0,0:0:0:0:
415,217,107412,6,0,P|435:145|454:111,1,84.5,10|0,0:0|0:0,0:0:0:0:
310,50,107771,2,0,P|325:89|334:130,1,84.5,2|0,0:0|0:0,0:0:0:0:
242,251,108131,2,0,B|261:244|261:244|349:267,1,84.5,10|0,0:0|0:0,0:0:0:0:
495,375,108490,6,0,P|510:318|448:274,1,126.75,2|0,1:2|0:0,0:0:0:0:
394,287,108849,2,0,P|426:284|451:271,1,42.25,10|0,0:0|0:0,0:0:0:0:
504,180,109029,2,0,P|423:165|330:137,1,169,2|0,1:2|0:0,0:0:0:0:
427,44,109568,2,0,P|437:97|447:135,1,84.5,8|0,0:0|0:0,0:0:0:0:
338,133,109927,5,2,0:0:0:0:
262,146,110107,1,2,0:0:0:0:
203,196,110286,1,10,0:0:0:0:
127,183,110466,1,2,0:0:0:0:
61,53,110646,6,0,P|136:70|219:83,1,126.75,2|2,0:0|0:0,0:0:0:0:
202,14,111005,2,0,P|196:36|194:73,1,42.25,10|0,0:0|0:0,0:0:0:0:
263,102,111185,2,0,P|257:124|255:161,1,42.25,2|0,0:0|0:0,0:0:0:0:
343,268,111364,6,0,P|439:238|441:178,1,169,6|8,1:2|0:0,0:0:0:0:
327,249,111903,2,0,P|238:280|161:297,1,169,2|2,1:2|0:0,0:0:0:0:
162,294,112442,2,0,P|177:234|183:185,1,84.5,10|2,0:0|0:0,0:0:0:0:
52,292,112801,2,0,P|70:350|92:400,1,84.5,2|0,0:0|0:0,0:0:0:0:
171,375,113161,1,10,0:0:0:0:
38,284,113340,1,2,0:0:0:0:
138,150,113520,5,2,0:0:0:0:
31,49,113879,5,10,0:0:0:0:
110,72,114059,1,2,0:0:0:0:
128,151,114232,1,2,1:2:0:0:
27,63,114591,6,0,P|126:52|459:-4,1,422.5,10|6,0:0|1:2,0:0:0:0:
256,192,115669,12,0,122854,0:0:0:0:
