osu file format v14

[General]
AudioFilename: audio.mp3
AudioLeadIn: 0
PreviewTime: 42382
Countdown: 0
SampleSet: Soft
StackLeniency: 0.7
Mode: 0
LetterboxInBreaks: 0
WidescreenStoryboard: 0

[Editor]
Bookmarks: 2143,25137,36634,42382,65376,88370,94119,115496,122861
DistanceSpacing: 0.4
BeatDivisor: 4
GridSize: 16
TimelineZoom: 2.899999

[Metadata]
Title:Bad for me (Short Ver.)
TitleUnicode:バッドフォーミー (Short Ver.)
Artist:Official HIGE DANdism
ArtistUnicode:Official髭男dism
Creator:Bakugo-
Version:Leomine's Normal
Source:グッド・バイ
Tags:HIGEDAN 楢崎誠 小笹大輔 藤原聡 松浦匡希 satoshi fujihara daisuke ozasa makoto narazaki masaki matsuura Theme Song TV Drama Goodbye Stand By You EP Major 1st First Album Traveler オフィシャルヒゲダンディズム jpop j-pop pop japanese version shiwakaze leomineXD leomine freudeman chizu-kun yanaginagi1 freude chizu yanagi
BeatmapID:3647953
BeatmapSetID:1778601

[Difficulty]
HPDrainRate:3.5
CircleSize:3.2
OverallDifficulty:4
ApproachRate:5.5
SliderMultiplier:1.3
SliderTickRate:1

[Events]
//Background and Video events
0,0,"Download - Copy.jpg",0,0
//Break Periods
2,25337,29760
//Storyboard Layer 0 (Background)
//Storyboard Layer 1 (Fail)
//Storyboard Layer 2 (Pass)
//Storyboard Layer 3 (Foreground)
//Storyboard Layer 4 (Overlay)
//Storyboard Sound Samples

[TimingPoints]
706,359.281437125748,4,2,1,60,1,0
2143,-125,4,2,1,60,0,0
25137,-125,4,2,1,50,0,0
26484,-125,4,2,1,5,0,0
26574,-125,4,2,1,50,0,0
27921,-125,4,2,1,5,0,0
28011,-125,4,2,1,50,0,0
28640,-125,4,2,1,5,0,0
28730,-125,4,2,1,50,0,0
36634,-125,4,2,1,60,0,0
42382,-105.263157894737,4,2,1,70,0,0
88370,-117.647058823529,4,2,1,70,0,0
92502,-117.647058823529,4,2,1,5,0,0
92682,-117.647058823529,4,2,1,60,0,0
94119,-125,4,2,1,60,0,0
114232,359.281437125748,4,2,1,60,1,0
114232,-125,4,2,1,60,0,0
115670,-100,4,2,1,60,0,0
116029,-100,4,2,1,57,0,0
116388,-100,4,2,1,54,0,0
116747,-100,4,2,1,51,0,0
117107,-100,4,2,1,48,0,0
117466,-100,4,2,1,45,0,0
117825,-100,4,2,1,42,0,0
118185,-100,4,2,1,39,0,0
118544,-100,4,2,1,36,0,0
118903,-100,4,2,1,33,0,0
119262,-100,4,2,1,30,0,0
119622,-100,4,2,1,27,0,0
119981,-100,4,2,1,24,0,0
120340,-100,4,2,1,21,0,0
120699,-100,4,2,1,18,0,0
121059,-100,4,2,1,15,0,0
121418,-100,4,2,1,12,0,0
121777,-100,4,2,1,9,0,0
122137,-100,4,2,1,6,0,0
122496,-100,4,2,1,5,0,0
122855,-125,4,2,1,5,0,0

[Colours]
Combo1 : 137,88,88
Combo2 : 49,128,153
Combo3 : 209,114,82
Combo4 : 199,190,188
Combo5 : 118,109,107
Combo6 : 168,2,255
Combo7 : 255,13,13
Combo8 : 13,249,255

[HitObjects]
314,313,2143,6,0,P|352:346|402:344,1,104,6|8,1:2|0:0,0:0:0:0:
449,301,2682,2,0,P|431:253|418:202,1,104,2|0,1:2|0:0,0:0:0:0:
447,147,3220,1,10,0:0:0:0:
358,58,3580,2,0,L|258:88,1,104,2|10,0:0|0:0,0:0:0:0:
214,132,4119,1,0,0:0:0:0:
214,132,4298,2,0,P|173:102|122:102,1,104,2|10,0:0|0:0,0:0:0:0:
14,166,5017,6,0,B|29:215|29:215|28:222|28:222|42:265,1,104,2|10,1:2|0:0,0:0:0:0:
91,304,5556,2,0,P|141:309|182:279,1,104,2|0,1:2|0:0,0:0:0:0:
205,221,6095,1,8,0:0:0:0:
319,269,6454,2,0,P|313:294|309:320,2,52,2|2|10,0:0|0:0|0:0,0:0:0:0:
372,236,6993,2,0,P|364:184|353:133,1,104,2|2,0:0|0:0,0:0:0:0:
309,89,7532,1,10,0:0:0:0:
196,143,7891,6,0,B|159:135|159:135|143:116|143:116|98:107,1,104,6|8,1:2|0:0,0:0:0:0:
40,97,8430,2,0,P|61:143|54:194,1,104,2|2,1:2|0:0,0:0:0:0:
10,238,8969,1,10,0:0:0:0:
81,339,9328,2,0,P|131:327|182:318,1,104,2|10,0:0|0:0,0:0:0:0:
243,302,9867,1,0,0:0:0:0:
243,302,10047,2,0,P|282:333|333:331,1,104,2|10,0:0|0:0,0:0:0:0:
421,243,10765,6,0,L|390:143,1,104,2|10,1:2|0:0,0:0:0:0:
331,122,11304,2,0,P|294:87|300:37,1,104,2|0,1:2|0:0,0:0:0:0:
351,1,11843,1,8,0:0:0:0:
462,58,12203,2,0,P|487:51|512:45,2,52,2|2|10,0:0|0:0|0:0,0:0:0:0:
418,101,12741,1,2,0:0:0:0:
418,101,12921,2,0,P|410:151|440:192,1,104,2|10,0:0|0:0,0:0:0:0:
476,311,13640,6,0,P|426:296|375:284,1,104,6|8,1:2|0:0,0:0:0:0:
331,328,14179,2,0,P|281:342|230:354,1,104,2|0,1:2|0:0,0:0:0:0:
171,336,14717,1,10,0:0:0:0:
236,229,15077,2,0,B|248:178|248:178|222:134,1,104,2|10,0:0|0:0,0:0:0:0:
177,89,15616,1,0,0:0:0:0:
177,89,15795,2,0,L|77:118,1,104,2|10,0:0|0:0,0:0:0:0:
0,217,16514,6,0,P|-11:266|15:309,1,104,2|10,1:2|0:0,0:0:0:0:
60,353,17053,2,0,L|159:323,1,104,2|0,1:2|0:0,0:0:0:0:
204,279,17592,1,8,0:0:0:0:
323,315,17951,2,0,P|315:339|310:365,2,52,2|2|10,0:0|0:0|0:0,0:0:0:0:
367,270,18490,1,2,0:0:0:0:
367,270,18670,2,0,L|337:170,1,104,2|10,0:0|0:0,0:0:0:0:
352,46,19388,6,0,P|309:74|259:69,1,104,6|8,1:2|0:0,0:0:0:0:
214,25,19927,2,0,P|163:17|120:43,1,104,2|0,1:2|0:0,0:0:0:0:
75,88,20466,1,10,0:0:0:0:
163,176,20825,2,0,P|148:225|134:276,1,104,2|10,0:0|0:0,0:0:0:0:
83,311,21364,1,2,0:0:0:0:
83,311,21544,2,0,P|59:300|33:295,2,52,2|2|10,0:0|0:0|0:0,0:0:0:0:
188,377,22262,6,0,P|237:362|288:348,1,104,2|10,1:2|0:0,0:0:0:0:
349,359,22801,2,0,B|400:364|400:364|443:334,1,104,2|0,1:2|0:0,0:0:0:0:
464,275,23340,1,10,0:0:0:0:
375,186,23700,2,0,P|349:192|324:199,2,52,0|0|8,1:0|0:0|0:0,0:0:0:0:
425,150,24238,1,0,0:0:0:0:
425,150,24418,2,0,P|439:101|423:52,1,104,2|10,0:0|0:0,0:0:0:0:
304,13,25137,5,6,0:0:0:0:
78,256,30885,6,0,P|87:307|94:358,2,104,6|2|2,0:0|0:0|0:0,0:0:0:0:
0,158,31963,1,2,0:0:0:0:
78,61,32322,2,0,B|131:45|168:95|168:95|204:144|258:129,1,208,2|2,0:0|0:0,0:0:0:0:
362,60,33400,1,2,0:0:0:0:
444,154,33759,6,0,B|480:145|501:108|501:108|478:172|469:238,1,208,2|2,0:0|0:0,0:0:0:0:
440,358,34837,2,0,L|389:345,1,52,2|0,0:0|0:0,0:0:0:0:
345,301,35197,2,0,B|282:320|282:320|258:310|247:283|220:274|220:274|157:294,1,208,2|2,0:0|0:0,0:0:0:0:
59,368,36274,1,2,0:0:0:0:
256,192,36634,12,12,40945,0:2:0:0:
64,80,42382,6,0,B|113:68|113:68|141:77|141:77|189:66,1,123.499996702194,2|12,0:0|0:1,0:0:0:0:
252,95,42921,1,2,0:0:0:0:
252,95,43101,2,0,P|262:65|276:38,2,61.7499983510972,2|0|8,1:2|1:0|0:0,0:0:0:0:
147,199,43819,2,0,P|133:257|169:305,1,123.499996702194,2|10,1:2|0:0,0:0:0:0:
232,344,44358,1,2,0:0:0:0:
232,344,44538,2,0,B|288:331|288:331|295:325|295:325|352:313,1,123.499996702194,2|8,1:2|0:0,0:0:0:0:
406,264,45077,6,0,P|419:205|383:157,1,123.499996702194,6|2,1:2|1:2,0:0:0:0:
314,131,45616,1,10,0:0:0:0:
177,187,45975,2,0,P|186:216|193:246,2,61.7499983510972,2|2|10,1:2|1:2|0:0,0:0:0:0:
115,145,46514,1,2,0:0:0:0:
115,145,46694,2,0,B|54:136|54:136|10:178,1,123.499996702194,2|10,1:2|0:0,0:0:0:0:
0,252,47232,1,2,0:0:0:0:
0,252,47412,2,0,P|9:281|16:311,1,61.7499983510972,2|2,1:2|1:2,0:0:0:0:
150,376,47951,1,6,0:0:0:0:
150,376,48131,6,0,B|225:359|183:326|254:309,1,123.499996702194,2|10,1:2|0:0,0:0:0:0:
398,323,48849,2,0,P|389:352|380:382,2,61.7499983510972,2|2|10,1:2|1:2|0:0,0:0:0:0:
461,283,49388,1,2,0:0:0:0:
461,283,49568,2,0,P|444:223|426:164,1,123.499996702194,6|10,1:2|0:0,0:0:0:0:
321,59,50286,2,0,P|330:30|339:0,2,61.7499983510972,2|2|10,1:2|1:2|0:0,0:0:0:0:
262,104,50825,1,2,1:2:0:0:
262,104,51005,6,0,B|166:120|199:17|104:32,1,185.249995053291,6|6,1:2|1:2,0:0:0:0:
0,228,52083,2,0,P|-9:287|25:336,1,123.499996702194,6|0,1:2|0:0,0:0:0:0:
95,363,52622,1,0,1:0:0:0:
95,363,52801,2,0,P|124:355|155:348,1,61.7499983510972,8|0,0:0|1:0,0:0:0:0:
207,295,53161,1,8,0:0:0:0:
207,295,53340,1,2,1:2:0:0:
349,337,53700,1,6,1:2:0:0:
349,337,53879,6,0,P|362:276|380:217,1,123.499996702194,2|12,0:0|0:1,0:0:0:0:
433,165,54418,1,2,0:0:0:0:
433,165,54598,2,0,P|459:180|489:184,2,61.7499983510972,2|0|8,1:2|1:0|0:0,0:0:0:0:
328,60,55316,2,0,B|272:73|272:73|267:79|267:79|210:92,1,123.499996702194,2|10,1:2|0:0,0:0:0:0:
145,57,55855,1,2,0:0:0:0:
145,57,56035,2,0,P|85:48|39:86,1,123.499996702194,2|8,1:2|0:0,0:0:0:0:
8,154,56574,6,0,L|41:273,1,123.499996702194,6|2,1:2|1:2,0:0:0:0:
93,325,57113,1,10,0:0:0:0:
205,228,57472,2,0,P|197:198|188:168,2,61.7499983510972,2|2|10,1:2|1:2|0:0,0:0:0:0:
262,274,58011,1,2,0:0:0:0:
262,274,58191,2,0,P|307:234|367:240,1,123.499996702194,2|10,1:2|0:0,0:0:0:0:
429,280,58729,1,2,0:0:0:0:
429,280,58909,2,0,P|458:272|488:263,1,61.7499983510972,2|2,1:2|1:2,0:0:0:0:
440,122,59448,1,6,0:0:0:0:
440,122,59628,6,0,L|321:155,1,123.499996702194,2|10,1:2|0:0,0:0:0:0:
181,105,60346,2,0,P|188:75|197:45,2,61.7499983510972,2|2|10,1:2|1:2|0:0,0:0:0:0:
123,151,60885,1,2,0:0:0:0:
123,151,61065,2,0,P|87:199|99:257,1,123.499996702194,6|10,1:2|0:0,0:0:0:0:
231,325,61783,2,0,P|221:354|214:384,2,61.7499983510972,2|2|10,1:2|1:2|0:0,0:0:0:0:
293,284,62322,1,2,1:2:0:0:
293,284,62502,6,0,P|271:193|245:105,1,185.249995053291,6|6,1:2|1:2,0:0:0:0:
34,33,63580,2,0,B|-5:63|8:119|51:128|51:128|97:138|108:199|70:232,1,246.999993404389,6|10,1:2|0:0,0:0:0:0:
19,365,64658,2,0,P|49:370|79:378,1,61.7499983510972,10|6,0:0|1:2,0:0:0:0:
144,343,65017,2,0,P|174:337|204:329,1,61.7499983510972,10|6,0:0|1:2,0:0:0:0:
277,342,65376,6,0,P|317:297|310:238,1,123.499996702194,2|12,0:0|0:1,0:0:0:0:
257,185,65915,1,2,0:0:0:0:
257,185,66095,2,0,P|226:191|197:200,2,61.7499983510972,2|0|8,1:2|1:0|0:0,0:0:0:0:
361,80,66813,2,0,P|421:91|480:108,1,123.499996702194,2|10,1:2|0:0,0:0:0:0:
512,176,67352,1,2,0:0:0:0:
512,176,67532,2,0,P|475:224|483:283,1,123.499996702194,2|10,1:2|0:0,0:0:0:0:
483,357,68071,6,0,B|437:347|437:347|415:324|415:324|369:315,1,123.499996702194,6|2,1:2|1:2,0:0:0:0:
311,271,68610,1,10,0:0:0:0:
171,321,68969,2,0,P|180:350|184:380,2,61.7499983510972,2|2|10,1:2|1:2|0:0,0:0:0:0:
106,283,69508,1,2,0:0:0:0:
106,283,69688,2,0,P|73:232|87:174,1,123.499996702194,2|10,1:2|0:0,0:0:0:0:
139,121,70226,1,2,0:0:0:0:
139,121,70406,2,0,L|198:137,1,61.7499983510972,2|2,1:2|1:2,0:0:0:0:
325,214,70945,1,6,0:0:0:0:
325,214,71125,6,0,P|384:223|432:187,1,123.499996702194,2|10,1:2|0:0,0:0:0:0:
357,59,71843,2,0,P|362:28|370:-1,2,61.7499983510972,2|2|10,1:2|1:2|0:0,0:0:0:0:
291,94,72382,1,2,0:0:0:0:
291,94,72562,2,0,B|227:83|257:38|192:27,1,123.499996702194,6|10,1:2|0:0,0:0:0:0:
69,109,73280,2,0,P|39:101|8:95,2,61.7499983510972,2|2|10,1:2|1:2|0:0,0:0:0:0:
118,164,73819,1,2,1:2:0:0:
118,164,73999,6,0,B|132:221|132:221|105:239|78:258|78:258|93:320,1,185.249995053291,6|6,1:2|1:2,0:0:0:0:
308,373,75077,2,0,P|368:375|411:334,1,123.499996702194,6|0,1:2|0:0,0:0:0:0:
463,281,75616,1,0,1:0:0:0:
463,281,75795,2,0,P|453:251|445:221,1,61.7499983510972,8|2,0:0|1:2,0:0:0:0:
380,184,76155,1,10,0:0:0:0:
380,184,76334,1,2,1:2:0:0:
427,43,76694,1,6,1:2:0:0:
427,43,76873,6,0,P|366:28|306:16,1,123.499996702194,2|12,0:0|0:1,0:0:0:0:
237,43,77412,1,2,0:0:0:0:
237,43,77592,2,0,P|210:27|179:23,2,61.7499983510972,2|0|8,1:2|1:0|0:0,0:0:0:0:
303,175,78310,2,0,P|290:235|276:295,1,123.499996702194,2|10,1:2|0:0,0:0:0:0:
223,358,78849,1,2,0:0:0:0:
223,358,79029,2,0,P|164:363|118:324,1,123.499996702194,2|8,1:2|0:0,0:0:0:0:
56,271,79568,6,0,B|68:224|68:224|58:198|58:198|71:151,1,123.499996702194,6|0,1:2|1:2,0:0:0:0:
18,100,80107,1,10,0:0:0:0:
162,69,80466,2,0,L|148:8,2,61.7499983510972,2|2|10,1:2|1:2|0:0,0:0:0:0:
220,114,81005,1,2,0:0:0:0:
220,114,81185,2,0,B|280:127|280:127|329:91,1,123.499996702194,2|10,1:2|0:0,0:0:0:0:
382,38,81723,1,2,0:0:0:0:
382,38,81903,2,0,L|442:50,1,61.7499983510972,2|2,1:2|1:2,0:0:0:0:
422,197,82442,1,2,0:0:0:0:
422,197,82622,6,0,L|301:172,1,123.499996702194,6|10,1:2|0:0,0:0:0:0:
172,97,83340,2,0,P|191:72|198:42,2,61.7499983510972,2|2|10,1:2|1:2|0:0,0:0:0:0:
105,127,83879,1,2,0:0:0:0:
105,127,84059,2,0,P|59:165|57:225,1,123.499996702194,6|10,1:2|0:0,0:0:0:0:
173,317,84777,2,0,L|160:380,2,61.7499983510972,2|2|10,1:2|1:2|0:0,0:0:0:0:
225,264,85316,1,2,1:2:0:0:
225,264,85496,6,0,B|312:246|291:341|393:324,1,185.249995053291,6|6,1:2|1:2,0:0:0:0:
512,138,86574,2,0,P|477:29|362:33,1,246.999993404389,6|8,1:2|0:0,0:0:0:0:
257,138,87652,1,8,0:0:0:0:
257,138,87831,2,0,P|197:120|136:110,1,123.499996702194,6|0,1:2|0:0,0:0:0:0:
83,71,88370,5,6,1:2:0:0:
256,192,88550,12,2,93220,0:0:0:0:
470,230,94119,6,0,P|420:213|369:204,1,104,6|8,1:2|0:0,0:0:0:0:
320,243,94658,2,0,P|269:246|231:213,1,104,2|0,1:2|0:0,0:0:0:0:
195,162,95197,1,10,0:0:0:0:
276,67,95556,2,0,P|327:76|376:92,1,104,2|10,0:0|0:0,0:0:0:0:
435,71,96095,1,0,0:0:0:0:
435,71,96274,2,0,P|472:105|478:155,1,104,2|10,0:0|0:0,0:0:0:0:
477,280,96993,6,0,L|377:251,1,104,2|10,1:2|0:0,0:0:0:0:
332,207,97532,2,0,P|282:198|242:229,1,104,2|0,1:2|0:0,0:0:0:0:
218,288,98071,1,8,0:0:0:0:
101,331,98430,2,0,L|111:388,2,52,2|2|10,0:0|0:0|0:0,0:0:0:0:
56,286,98969,2,0,P|63:234|73:183,1,104,2|2,0:0|0:0,0:0:0:0:
29,139,99508,1,10,0:0:0:0:
117,50,99867,6,0,B|182:64|147:83|208:96,1,104,6|8,1:2|0:0,0:0:0:0:
259,130,100406,2,0,P|309:136|348:105,1,104,2|2,1:2|0:0,0:0:0:0:
376,49,100945,1,10,0:0:0:0:
488,102,101304,2,0,B|478:153|478:153|474:158|474:158|464:209,1,104,2|10,0:0|0:0,0:0:0:0:
426,250,101843,1,0,0:0:0:0:
426,250,102023,2,0,P|384:220|333:225,1,104,2|10,0:0|0:0,0:0:0:0:
228,292,102741,6,0,P|218:240|206:190,1,104,2|10,1:2|0:0,0:0:0:0:
152,158,103280,2,0,P|161:106|173:56,1,104,2|0,1:2|0:0,0:0:0:0:
217,12,103819,1,8,0:0:0:0:
319,83,104179,2,0,L|369:72,2,52,2|2|10,0:0|0:0|0:0,0:0:0:0:
275,126,104717,1,2,0:0:0:0:
275,126,104897,2,0,P|264:175|294:215,1,104,2|10,0:0|0:0,0:0:0:0:
419,215,105616,6,0,L|395:316,1,104,6|8,1:2|0:0,0:0:0:0:
356,365,106155,2,0,P|307:380|262:357,1,104,2|0,1:2|0:0,0:0:0:0:
218,313,106694,1,10,0:0:0:0:
294,215,107053,2,0,L|270:113,1,104,2|10,0:0|0:0,0:0:0:0:
222,73,107592,1,0,0:0:0:0:
222,73,107771,2,0,B|170:65|170:65|129:95,1,104,2|10,0:0|0:0,0:0:0:0:
32,175,108490,6,0,P|65:212|61:263,1,104,2|10,1:2|0:0,0:0:0:0:
32,318,109029,2,0,B|77:333|77:333|94:329|94:329|131:340,1,104,2|0,1:2|0:0,0:0:0:0:
185,372,109568,1,8,0:0:0:0:
273,283,109927,2,0,P|265:258|255:234,2,52,2|2|10,0:0|0:0|0:0,0:0:0:0:
322,321,110466,1,2,0:0:0:0:
322,321,110646,2,0,P|372:324|407:288,1,104,2|10,0:0|0:0,0:0:0:0:
450,171,111364,6,0,P|399:156|348:147,1,104,6|8,1:2|0:0,0:0:0:0:
294,178,111903,2,0,B|232:162|268:143|208:126,1,104,2|2,1:2|0:0,0:0:0:0:
162,81,112442,1,10,0:0:0:0:
55,145,112801,2,0,B|65:189|65:189|61:204|61:204|71:246,1,104,2|10,0:0|0:0,0:0:0:0:
115,290,113340,1,2,0:0:0:0:
115,290,113520,2,0,B|158:261|158:261|209:264,1,104,2|10,0:0|0:0,0:0:0:0:
315,331,114232,6,0,P|364:316|416:307,1,104,2|10,1:2|0:0,0:0:0:0:
473,331,114770,2,0,P|508:294|504:244,1,104,2|0,1:2|0:0,0:0:0:0:
460,200,115309,1,8,0:0:0:0:
460,200,115489,1,6,1:2:0:0:
256,192,115669,12,0,122854,0:0:0:0:
