osu file format v14

[General]
AudioFilename: audio.mp3
AudioLeadIn: 0
PreviewTime: 42382
Countdown: 0
SampleSet: Soft
StackLeniency: 0.4
Mode: 0
LetterboxInBreaks: 0
WidescreenStoryboard: 1

[Editor]
Bookmarks: 2143,25137,30885,36634,42382,65376,88370,94119,115496
DistanceSpacing: 1.5
BeatDivisor: 4
GridSize: 16
TimelineZoom: 1.6

[Metadata]
Title:Bad for me (Short Ver.)
TitleUnicode:バッドフォーミー (Short Ver.)
Artist:Official HIGE DANdism
ArtistUnicode:Official髭男dism
Creator:Bakugo-
Version:Freude's Hard
Source:グッド・バイ
Tags:HIGEDAN 楢崎誠 小笹大輔 藤原聡 松浦匡希 satoshi fujihara daisuke ozasa makoto narazaki masaki matsuura Theme Song TV Drama Goodbye Stand By You EP Major 1st First Album Traveler オフィシャルヒゲダンディズム jpop j-pop pop japanese version shiwakaze leomineXD leomine freudeman chizu-kun yanaginagi1 freude chizu yanagi
BeatmapID:3651015
BeatmapSetID:1778601

[Difficulty]
HPDrainRate:4
CircleSize:3.7
OverallDifficulty:6.5
ApproachRate:7.5
SliderMultiplier:1.4
SliderTickRate:1

[Events]
//Background and Video events
0,0,"Download - Copy.jpg",0,0
//Break Periods
2,25336,30060
//Storyboard Layer 0 (Background)
//Storyboard Layer 1 (Fail)
//Storyboard Layer 2 (Pass)
//Storyboard Layer 3 (Foreground)
//Storyboard Layer 4 (Overlay)
//Storyboard Sound Samples

[TimingPoints]
706,359.281437125748,4,2,1,60,1,0
2143,-100,4,2,1,60,0,0
2682,-125,4,2,1,60,0,0
5017,-105.263157894737,4,2,1,60,0,0
5556,-125,4,2,1,60,0,0
7891,-105.263157894737,4,2,1,60,0,0
8430,-125,4,2,1,60,0,0
10765,-105.263157894737,4,2,1,60,0,0
11304,-125,4,2,1,60,0,0
13640,-100,4,2,1,60,0,0
14179,-125,4,2,1,60,0,0
16514,-105.263157894737,4,2,1,60,0,0
17053,-125,4,2,1,60,0,0
19388,-105.263157894737,4,2,1,60,0,0
19927,-125,4,2,1,60,0,0
22262,-105.263157894737,4,2,1,60,0,0
22801,-125,4,2,1,60,0,0
25137,-125,4,2,1,50,0,0
26484,-125,4,2,1,5,0,0
26574,-125,4,2,1,50,0,0
27921,-125,4,2,1,5,0,0
28011,-125,4,2,1,50,0,0
28640,-125,4,2,1,5,0,0
28730,-125,4,2,1,50,0,0
36634,-105.263157894737,4,2,1,60,0,0
39508,-100,4,2,1,60,0,0
41304,-105.263157894737,4,2,1,60,0,0
42382,-95.2380952380952,4,2,1,70,0,1
51005,-117.647058823529,4,2,1,70,0,0
51544,-105.263157894737,4,2,1,70,0,0
52083,-95.2380952380952,4,2,1,70,0,0
53879,-95.2380952380952,4,2,1,70,0,1
62502,-117.647058823529,4,2,1,70,0,0
63041,-105.263157894737,4,2,1,70,0,0
63580,-95.2380952380952,4,2,1,70,0,0
65376,-90.9090909090909,4,2,1,70,0,1
73999,-111.111111111111,4,2,1,70,0,0
74538,-100,4,2,1,70,0,0
75077,-90.9090909090909,4,2,1,70,0,0
76873,-90.9090909090909,4,2,1,70,0,1
85496,-111.111111111111,4,2,1,70,0,0
86035,-100,4,2,1,70,0,0
86574,-90.9090909090909,4,2,1,70,0,0
87831,-100,4,2,1,70,0,0
88370,-117.647058823529,4,2,1,70,0,0
89807,-133.333333333333,4,2,1,70,0,0
92502,-133.333333333333,4,2,1,5,0,0
92682,-133.333333333333,4,2,1,60,0,0
94119,-100,4,2,1,60,0,0
94658,-125,4,2,1,60,0,0
96993,-105.263157894737,4,2,1,60,0,0
97532,-125,4,2,1,60,0,0
99867,-105.263157894737,4,2,1,60,0,0
100406,-125,4,2,1,60,0,0
102741,-105.263157894737,4,2,1,60,0,0
103280,-125,4,2,1,60,0,0
105616,-100,4,2,1,60,0,0
106155,-125,4,2,1,60,0,0
108490,-105.263157894737,4,2,1,60,0,0
109029,-125,4,2,1,60,0,0
111364,-105.263157894737,4,2,1,60,0,0
111903,-125,4,2,1,60,0,0
114232,359.281437125748,4,2,1,60,1,0
114232,-105.263157894737,4,2,1,60,0,0
114770,-125,4,2,1,60,0,0
115496,-125,4,2,1,60,0,0
115670,-100,4,2,1,60,0,0
116029,-100,4,2,1,57,0,0
116388,-100,4,2,1,54,0,0
116747,-100,4,2,1,51,0,0
117107,-100,4,2,1,48,0,0
117466,-100,4,2,1,45,0,0
117825,-100,4,2,1,42,0,0
118185,-100,4,2,1,39,0,0
118544,-100,4,2,1,36,0,0
118903,-100,4,2,1,33,0,0
119262,-100,4,2,1,30,0,0
119622,-100,4,2,1,27,0,0
119981,-100,4,2,1,24,0,0
120340,-100,4,2,1,21,0,0
120699,-100,4,2,1,18,0,0
121059,-100,4,2,1,15,0,0
121418,-100,4,2,1,12,0,0
121777,-100,4,2,1,9,0,0
122137,-100,4,2,1,6,0,0
122496,-100,4,2,1,5,0,0

[Colours]
Combo1 : 137,88,88
Combo2 : 49,128,153
Combo3 : 209,114,82
Combo4 : 199,190,188
Combo5 : 118,109,107
Combo6 : 168,2,255
Combo7 : 255,13,13
Combo8 : 13,249,255

[HitObjects]
373,60,2143,6,0,L|359:135,1,70,6|0,1:2|0:0,0:0:0:0:
402,230,2502,1,8,0:0:0:0:
402,230,2682,2,0,L|279:249,1,112,2|0,1:2|0:0,0:0:0:0:
204,224,3220,2,0,P|247:267|250:331,2,112,10|2|10,0:0|0:0|0:0,0:0:0:0:
84,90,4298,2,0,L|194:72,1,112,2|10,0:0|0:0,0:0:0:0:
263,15,4837,1,0,0:0:0:0:
348,80,5017,6,0,L|361:153,1,66.4999982242585,2|0,1:2|0:0,0:0:0:0:
306,239,5376,1,10,0:0:0:0:
306,239,5556,2,0,P|361:236|403:279,1,112,2|0,1:2|0:0,0:0:0:0:
436,355,6095,1,8,0:0:0:0:
500,188,6454,6,0,L|513:250,2,56,2|2|10,0:0|0:0|0:0,0:0:0:0:
473,102,6993,2,0,P|414:101|357:97,1,112,2|2,0:0|0:0,0:0:0:0:
289,43,7532,2,0,P|275:71|274:112,1,56,10|2,0:0|0:0,0:0:0:0:
290,200,7891,6,0,L|221:212,1,66.4999982242585,6|0,1:2|0:0,0:0:0:0:
139,156,8250,1,8,0:0:0:0:
139,156,8430,2,0,L|117:275,1,112,2|2,1:2|0:0,0:0:0:0:
73,343,8969,2,0,P|98:356|140:357,1,56,10|0,0:0|0:0,0:0:0:0:
199,308,9328,2,0,P|260:307|305:348,2,112,2|10|2,0:0|0:0|0:0,0:0:0:0:
118,266,10226,1,0,0:0:0:0:
118,266,10406,2,0,L|108:208,1,56,10|0,0:0|0:0,0:0:0:0:
51,120,10765,6,0,L|123:105,1,66.4999982242585,2|0,1:2|0:0,0:0:0:0:
167,21,11125,1,10,0:0:0:0:
167,21,11304,2,0,B|227:10|214:61|282:47,1,112,2|0,1:2|0:0,0:0:0:0:
353,13,11843,1,8,0:0:0:0:
434,172,12203,6,0,P|458:156|499:149,2,56,2|2|10,0:0|0:0|0:0,0:0:0:0:
401,257,12741,1,2,0:0:0:0:
401,257,12921,2,0,L|343:246,1,56,2|2,0:0|0:0,0:0:0:0:
318,161,13280,2,0,B|288:166|288:166|260:172,1,56,10|2,0:0|0:0,0:0:0:0:
168,233,13640,6,0,L|155:164,1,70,6|0,1:2|0:0,0:0:0:0:
200,71,13999,1,8,0:0:0:0:
200,71,14179,2,0,P|160:111|92:111,1,112,2|0,1:2|0:0,0:0:0:0:
25,151,14717,2,0,P|17:90|6:34,2,112,10|2|10,0:0|0:0|0:0,0:0:0:0:
4,329,15795,2,0,P|48:293|112:298,1,112,2|10,0:0|0:0,0:0:0:0:
167,353,16334,1,0,0:0:0:0:
241,277,16514,6,0,L|252:201,1,66.4999982242585,2|0,1:2|0:0,0:0:0:0:
194,134,16873,1,10,0:0:0:0:
194,134,17053,2,0,L|312:113,1,112,2|0,1:2|0:0,0:0:0:0:
371,174,17592,1,8,0:0:0:0:
499,63,17951,6,0,L|509:1,2,56,2|2|10,0:0|0:0|0:0,0:0:0:0:
475,146,18490,1,2,0:0:0:0:
475,146,18669,2,0,B|415:135|428:186|360:172,1,112,2|10,0:0|0:0,0:0:0:0:
301,116,19208,1,2,0:0:0:0:
226,191,19388,6,0,L|215:271,1,66.4999982242585,6|0,1:2|0:0,0:0:0:0:
175,349,19747,1,8,0:0:0:0:
175,349,19927,2,0,P|229:341|271:375,1,112,2|0,1:2|0:0,0:0:0:0:
360,371,20466,2,0,L|366:315,1,56,10|0,0:0|0:0,0:0:0:0:
325,235,20825,2,0,L|439:214,2,112,2|10|2,0:0|0:0|0:0,0:0:0:0:
277,165,21723,1,2,0:0:0:0:
277,165,21903,2,0,P|247:151|217:153,1,56,10|2,0:0|0:0,0:0:0:0:
131,203,22262,6,0,L|120:137,1,66.4999982242585,2|0,1:2|0:0,0:0:0:0:
51,71,22622,1,10,0:0:0:0:
51,71,22801,2,0,P|97:37|160:53,1,112,2|0,1:2|0:0,0:0:0:0:
231,11,23340,1,10,0:0:0:0:
301,175,23700,6,0,L|314:98,1,56,0|0,1:0|0:0,0:0:0:0:
386,53,24059,2,0,L|395:108,1,56,8|0,0:0|0:0,0:0:0:0:
470,174,24418,2,0,L|490:52,2,112,2|10|6,0:0|0:0|0:0,0:0:0:0:
284,284,30885,5,6,0:0:0:0:
177,249,31244,1,2,0:0:0:0:
177,137,31603,1,2,0:0:0:0:
284,102,31962,1,2,0:0:0:0:
349,193,32321,1,2,0:0:0:0:
349,193,33041,5,2,0:0:0:0:
284,102,33400,1,2,0:0:0:0:
177,137,33759,1,2,0:0:0:0:
264,343,34478,1,2,0:0:0:0:
386,155,35197,2,0,B|290:80|175:120|175:120|235:160|247:212,1,336,2|2,0:0|0:0,0:0:0:0:
129,367,36634,6,0,P|175:321|251:335,1,132.999996448517,6|2,1:2|1:2,0:0:0:0:
320,384,37173,1,2,0:0:0:0:
320,384,37262,1,2,0:0:0:0:
320,384,37352,2,0,L|334:302,1,66.4999982242585,2|2,1:2|0:0,0:0:0:0:
423,304,37711,2,0,L|409:222,1,66.4999982242585,2|2,1:2|0:0,0:0:0:0:
463,152,38071,6,0,L|318:142,1,132.999996448517,6|2,1:2|1:2,0:0:0:0:
256,95,38610,1,2,0:0:0:0:
256,95,38789,2,0,P|249:132|245:166,1,66.4999982242585,2|0,1:2|0:0,0:0:0:0:
151,162,39149,2,0,P|156:194|161:227,1,66.4999982242585,2|0,1:2|0:0,0:0:0:0:
148,325,39508,6,0,P|182:324|213:309,1,70,6|0,1:2|0:0,0:0:0:0:
288,361,39867,2,0,P|305:330|307:296,1,70,6|0,1:2|0:0,0:0:0:0:
391,260,40226,2,0,P|373:230|344:210,1,70,6|2,1:2|0:0,0:0:0:0:
352,119,40586,2,0,P|317:119|286:134,1,70,6|2,1:2|0:0,0:0:0:0:
245,216,40945,1,12,0:2:0:0:
245,216,41304,6,0,L|202:211,3,33.2499991121292,2|2|2|2,1:2|0:0|0:0|0:0,0:0:0:0:
171,239,41664,1,2,0:0:0:0:
171,239,41843,2,0,L|157:173,1,66.4999982242585,4|8,0:0|0:0,0:0:0:0:
96,102,42203,1,6,0:0:0:0:
177,28,42382,6,0,P|225:84|314:73,1,146.999995513916,2|12,0:0|0:1,0:0:0:0:
392,31,42921,1,2,0:0:0:0:
392,31,43101,2,0,P|331:68|319:138,1,146.999995513916,2|8,1:2|0:0,0:0:0:0:
379,235,43640,1,2,0:0:0:0:
379,235,43729,1,2,0:0:0:0:
379,235,43819,2,0,P|343:255|311:256,1,73.4999977569581,2|0,1:2|1:0,0:0:0:0:
218,194,44179,6,0,L|207:277,1,73.4999977569581,10|2,0:0|0:0,0:0:0:0:
138,188,44538,1,2,1:2:0:0:
138,188,44717,2,0,L|127:271,1,73.4999977569581,2|8,1:2|0:0,0:0:0:0:
36,323,45077,6,0,B|118:311|87:376|172:365,1,146.999995513916,6|2,1:2|1:2,0:0:0:0:
270,382,45616,2,0,P|276:342|283:306,1,73.4999977569581,10|2,0:0|0:0,0:0:0:0:
349,231,45975,2,0,P|378:255|414:261,2,73.4999977569581,2|2|10,1:2|1:2|0:0,0:0:0:0:
305,145,46514,1,2,0:0:0:0:
238,213,46694,2,0,P|209:235|173:240,1,73.4999977569581,2|0,1:2|1:0,0:0:0:0:
102,165,47053,6,0,L|86:82,1,73.4999977569581,10|2,0:0|0:0,0:0:0:0:
180,146,47412,1,2,1:2:0:0:
180,146,47591,2,0,L|164:63,1,73.4999977569581,2|10,1:2|0:0,0:0:0:0:
230,2,47951,1,6,0:0:0:0:
317,69,48131,6,0,P|397:57|425:2,2,146.999995513916,2|10|2,1:2|0:0|1:2,0:0:0:0:
229,123,49029,1,2,1:2:0:0:
283,200,49208,2,0,P|244:209|217:229,1,73.4999977569581,10|2,0:0|0:0,0:0:0:0:
147,315,49568,6,0,P|130:233|112:168,1,146.999995513916,6|10,1:2|0:0,0:0:0:0:
51,96,50107,1,0,0:0:0:0:
51,96,50286,2,0,P|84:74|125:73,1,73.4999977569581,2|2,1:2|1:2,0:0:0:0:
194,7,50646,2,0,P|216:40|217:81,1,73.4999977569581,10|2,0:0|1:2,0:0:0:0:
263,170,51005,6,0,P|289:156|320:156,1,59.5000011348725,6|0,1:2|0:0,0:0:0:0:
365,337,51544,2,0,P|331:353|289:350,1,66.4999982242585,6|0,1:2|0:0,0:0:0:0:
263,170,52083,2,0,P|341:174|283:257,1,220.499993270874,6|0,1:2|1:0,0:0:0:0:
196,242,52801,1,8,0:0:0:0:
196,242,52981,1,0,1:0:0:0:
174,335,53161,1,8,0:0:0:0:
73,312,53340,5,2,1:2:0:0:
73,312,53700,1,6,1:2:0:0:
35,208,53879,6,0,P|91:162|169:177,1,146.999995513916,2|12,0:0|0:1,0:0:0:0:
252,228,54418,1,2,0:0:0:0:
252,228,54598,2,0,P|193:185|187:106,1,146.999995513916,2|8,1:2|0:0,0:0:0:0:
227,26,55137,1,2,0:0:0:0:
227,26,55226,1,2,0:0:0:0:
227,26,55316,2,0,P|256:46|300:48,1,73.4999977569581,2|0,1:2|1:0,0:0:0:0:
393,23,55676,6,0,L|382:106,1,73.4999977569581,10|2,0:0|0:0,0:0:0:0:
472,38,56035,1,2,1:2:0:0:
472,38,56214,2,0,L|461:121,1,73.4999977569581,2|8,1:2|0:0,0:0:0:0:
509,203,56574,6,0,B|427:191|458:256|373:245,1,146.999995513916,6|2,1:2|1:2,0:0:0:0:
288,300,57113,2,0,P|282:260|275:224,1,73.4999977569581,10|0,0:0|0:0,0:0:0:0:
320,131,57472,2,0,P|348:153|384:158,2,73.4999977569581,2|2|10,1:2|1:2|0:0,0:0:0:0:
253,63,58011,1,2,0:0:0:0:
209,149,58191,2,0,P|180:173|144:179,1,73.4999977569581,2|0,1:2|1:0,0:0:0:0:
52,238,58550,6,0,L|132:261,1,73.4999977569581,10|2,0:0|0:0,0:0:0:0:
34,316,58909,1,2,1:2:0:0:
34,316,59088,2,0,L|114:339,1,73.4999977569581,2|10,1:2|0:0,0:0:0:0:
197,363,59448,1,6,0:0:0:0:
277,287,59628,6,0,P|312:345|399:355,2,146.999995513916,2|10|2,1:2|0:0|1:2,0:0:0:0:
313,190,60526,1,2,1:2:0:0:
366,268,60705,2,0,P|400:249|434:247,1,73.4999977569581,10|2,0:0|0:0,0:0:0:0:
504,327,61065,6,0,P|486:249|482:178,1,146.999995513916,6|10,1:2|0:0,0:0:0:0:
512,86,61604,1,0,0:0:0:0:
512,86,61783,2,0,L|426:76,1,73.4999977569581,2|2,1:2|1:2,0:0:0:0:
348,26,62143,2,0,L|338:112,1,73.4999977569581,10|2,0:0|1:2,0:0:0:0:
279,188,62502,6,0,P|252:174|221:174,1,59.5000011348725,6|0,1:2|0:0,0:0:0:0:
177,355,63041,2,0,P|210:371|252:368,1,66.4999982242585,6|0,1:2|0:0,0:0:0:0:
279,188,63580,2,0,P|201:192|259:275,1,220.499993270874,6|2,1:2|1:2,0:0:0:0:
348,253,64298,2,0,L|357:301,3,36.749998878479,10|2|10|10,0:0|0:0|0:0|0:0,0:0:0:0:
367,340,64658,1,10,0:0:0:0:
367,340,64837,2,0,P|402:343|456:349,1,73.4999977569581,6|10,1:2|2:0,0:0:0:0:
511,281,65197,1,6,1:2:0:0:
484,169,65376,6,0,B|400:152|424:224|339:208,1,154.000004699707,2|12,0:0|0:1,0:0:0:0:
282,123,65915,1,2,0:0:0:0:
349,217,66095,2,0,B|430:232|406:160|490:177,1,154.000004699707,2|8,1:2|0:0,0:0:0:0:
501,77,66634,1,2,0:0:0:0:
505,70,66723,1,2,0:0:0:0:
508,63,66813,2,0,P|474:45|423:48,1,77.0000023498536,2|0,1:2|1:0,0:0:0:0:
335,3,67173,6,0,L|325:84,1,77.0000023498536,10|2,0:0|0:0,0:0:0:0:
242,25,67532,1,2,1:2:0:0:
242,25,67711,2,0,L|232:106,1,77.0000023498536,2|10,1:2|0:0,0:0:0:0:
272,210,68071,6,0,P|227:151|154:158,1,154.000004699707,6|2,1:2|1:2,0:0:0:0:
46,150,68610,2,0,P|76:181|85:213,1,77.0000023498536,10|2,0:0|0:0,0:0:0:0:
73,316,68969,2,0,P|35:307|7:282,2,77.0000023498536,2|2|10,1:2|1:2|0:0,0:0:0:0:
169,276,69508,1,2,0:0:0:0:
84,212,69688,2,0,P|95:175|122:149,1,77.0000023498536,2|0,1:2|1:0,0:0:0:0:
212,88,70047,6,0,L|227:168,1,77.0000023498536,10|2,0:0|0:0,0:0:0:0:
306,103,70406,1,2,1:2:0:0:
306,103,70585,2,0,L|321:183,1,77.0000023498536,2|10,1:2|0:0,0:0:0:0:
272,280,70945,1,6,0:0:0:0:
270,287,71035,1,2,0:0:0:0:
268,294,71125,6,0,P|342:279|427:265,2,154.000004699707,2|10|2,1:2|0:0|1:2,0:0:0:0:
197,375,72023,1,2,1:2:0:0:
123,307,72202,2,0,L|140:223,1,77.0000023498536,10|2,0:0|0:0,0:0:0:0:
115,181,72472,1,0,0:0:0:0:
113,174,72562,6,0,P|176:126|258:156,1,154.000004699707,6|10,1:2|0:0,0:0:0:0:
337,204,73101,1,0,0:0:0:0:
337,204,73280,2,0,P|355:160|352:121,1,77.0000023498536,2|2,1:2|1:2,0:0:0:0:
407,45,73640,2,0,P|363:27|324:30,1,77.0000023498536,10|2,0:0|1:2,0:0:0:0:
257,120,73999,6,0,P|242:145|242:182,1,62.9999980773926,6|0,1:2|0:0,0:0:0:0:
424,222,74538,2,0,P|440:189|437:148,1,70,6|0,1:2|0:0,0:0:0:0:
257,120,75077,2,0,P|260:204|344:140,1,231.000007049561,6|0,1:2|1:0,0:0:0:0:
335,46,75795,1,8,0:0:0:0:
335,46,75975,1,2,1:2:0:0:
430,15,76155,1,10,0:0:0:0:
469,106,76334,5,2,1:2:0:0:
469,106,76694,1,6,1:2:0:0:
393,192,76873,6,0,P|471:196|505:258,1,154.000004699707,2|12,0:0|0:1,0:0:0:0:
471,359,77412,1,2,0:0:0:0:
499,265,77592,2,0,P|460:201|387:200,1,154.000004699707,2|8,1:2|0:0,0:0:0:0:
305,270,78131,1,2,0:0:0:0:
300,276,78220,1,2,0:0:0:0:
295,282,78310,2,0,P|286:240|278:205,1,77.0000023498536,2|0,1:2|1:0,0:0:0:0:
290,98,78670,6,0,L|210:115,1,77.0000023498536,10|2,0:0|0:0,0:0:0:0:
239,18,79029,1,2,1:2:0:0:
239,18,79208,2,0,L|159:35,1,77.0000023498536,2|8,1:2|0:0,0:0:0:0:
43,21,79568,6,0,P|79:84|96:172,1,154.000004699707,6|0,1:2|1:2,0:0:0:0:
79,277,80107,2,0,P|115:254|149:253,1,77.0000023498536,10|2,0:0|0:0,0:0:0:0:
247,288,80466,2,0,P|229:323|199:344,2,77.0000023498536,2|2|10,1:2|1:2|0:0,0:0:0:0:
229,185,81005,1,2,0:0:0:0:
148,253,81185,2,0,P|114:233|95:201,1,77.0000023498536,2|0,1:2|1:0,0:0:0:0:
70,88,81544,6,0,L|149:105,1,77.0000023498536,10|2,0:0|0:0,0:0:0:0:
121,8,81903,1,2,1:2:0:0:
121,8,82082,2,0,L|200:25,1,77.0000023498536,2|10,1:2|0:0,0:0:0:0:
274,110,82442,1,2,0:0:0:0:
276,117,82532,1,0,0:0:0:0:
279,123,82622,6,0,B|363:106|339:178|424:162,2,154.000004699707,6|10|2,1:2|0:0|1:2,0:0:0:0:
208,41,83520,1,2,1:2:0:0:
133,107,83699,2,0,P|128:150|124:189,1,77.0000023498536,10|2,0:0|0:0,0:0:0:0:
92,232,83969,1,0,0:0:0:0:
89,239,84059,6,0,P|164:253|192:324,1,154.000004699707,6|10,1:2|0:0,0:0:0:0:
285,383,84598,1,0,0:0:0:0:
285,383,84777,2,0,L|299:302,1,77.0000023498536,2|2,1:2|1:2,0:0:0:0:
406,296,85137,2,0,L|392:215,1,77.0000023498536,10|2,0:0|1:2,0:0:0:0:
334,124,85496,6,0,P|309:109|272:109,1,62.9999980773926,6|0,1:2|0:0,0:0:0:0:
232,291,86035,2,0,P|265:307|306:304,1,70,6|0,1:2|0:0,0:0:0:0:
334,124,86574,2,0,P|250:127|314:211,1,231.000007049561,6|0,1:2|1:0,0:0:0:0:
405,199,87292,2,0,L|414:244,3,38.5000011749268,8|8|0|8,0:0|0:0|1:0|0:0,0:0:0:0:
425,286,87652,1,8,0:0:0:0:
425,286,87831,2,0,P|356:294|319:352,1,140,6|0,1:2|0:0,0:0:0:0:
229,381,88370,6,0,B|192:146|192:146|179:241|117:317,1,416.500007944107,6|2,1:2|0:0,0:0:0:0:
48,367,89807,2,0,B|54:293|15:215|15:215|138:306|256:215|256:215|176:83|25:138,1,682.50002603531,6|0,1:2|0:0,0:0:0:0:
30,136,94119,6,0,L|48:53,1,70,6|0,1:2|0:0,0:0:0:0:
131,17,94478,1,8,0:0:0:0:
131,17,94658,2,0,P|169:52|241:53,1,112,2|0,1:2|0:0,0:0:0:0:
294,115,95196,2,0,L|313:2,2,112,10|2|10,0:0|0:0|0:0,0:0:0:0:
417,245,96274,2,0,B|357:234|370:285|302:271,1,112,2|10,0:0|0:0,0:0:0:0:
238,323,96813,1,0,0:0:0:0:
162,248,96993,6,0,L|149:322,1,66.4999982242585,2|0,1:2|0:0,0:0:0:0:
69,382,97352,1,10,0:0:0:0:
69,382,97532,2,0,P|60:316|48:258,1,112,2|0,1:2|0:0,0:0:0:0:
8,192,98071,1,8,0:0:0:0:
148,80,98430,6,0,L|136:23,2,56,2|2|10,0:0|0:0|0:0,0:0:0:0:
166,167,98969,2,0,P|227:165|272:214,1,112,2|2,0:0|0:0,0:0:0:0:
276,285,99508,2,0,P|309:279|328:264,1,56,10|2,0:0|0:0,0:0:0:0:
413,203,99867,6,0,L|426:268,1,66.4999982242585,6|0,1:2|0:0,0:0:0:0:
501,351,100226,1,8,0:0:0:0:
501,351,100406,2,0,B|441:340|454:391|386:377,1,112,2|2,1:2|0:0,0:0:0:0:
307,366,100945,2,0,L|295:311,1,56,10|0,0:0|0:0,0:0:0:0:
238,241,101304,2,0,P|204:285|137:289,2,112,2|10|2,0:0|0:0|0:0,0:0:0:0:
221,157,102202,1,0,0:0:0:0:
221,157,102382,2,0,L|281:144,1,56,10|0,0:0|0:0,0:0:0:0:
362,206,102741,6,0,L|375:128,1,66.4999982242585,2|0,1:2|0:0,0:0:0:0:
444,69,103101,1,10,0:0:0:0:
444,69,103280,2,0,P|398:35|331:47,1,112,2|0,1:2|0:0,0:0:0:0:
282,103,103819,1,8,0:0:0:0:
108,55,104179,6,0,L|98:0,2,56,2|2|10,0:0|0:0|0:0,0:0:0:0:
148,140,104717,1,2,0:0:0:0:
148,140,104897,2,0,P|120:155|84:160,1,56,2|2,0:0|0:0,0:0:0:0:
24,222,105256,2,0,P|51:228|75:242,1,56,10|2,0:0|0:0,0:0:0:0:
101,344,105616,6,0,L|184:325,1,70,6|0,1:2|0:0,0:0:0:0:
266,380,105975,1,8,0:0:0:0:
266,380,106155,2,0,P|274:323|287:259,1,112,2|0,1:2|0:0,0:0:0:0:
311,184,106694,2,0,P|256:180|212:214,2,112,10|2|10,0:0|0:0|0:0,0:0:0:0:
466,273,107771,2,0,P|458:216|445:152,1,112,2|10,0:0|0:0,0:0:0:0:
483,80,108310,1,0,0:0:0:0:
395,18,108490,6,0,L|309:31,1,66.4999982242585,2|0,1:2|0:0,0:0:0:0:
291,122,108849,1,10,0:0:0:0:
291,122,109029,2,0,B|231:111|244:162|176:148,1,112,2|0,1:2|0:0,0:0:0:0:
123,86,109568,1,8,0:0:0:0:
17,230,109927,6,0,P|10:196|4:175,2,56,2|2|10,0:0|0:0|0:0,0:0:0:0:
7,322,110466,1,2,0:0:0:0:
7,322,110646,2,0,L|126:306,1,112,2|10,0:0|0:0,0:0:0:0:
184,366,111184,1,2,0:0:0:0:
270,303,111364,6,0,L|282:221,1,66.4999982242585,6|0,1:2|0:0,0:0:0:0:
352,168,111723,1,8,0:0:0:0:
352,168,111903,2,0,P|305:129|249:137,1,112,2|2,1:2|0:0,0:0:0:0:
185,187,112442,2,0,P|171:157|169:125,1,56,10|2,0:0|0:0,0:0:0:0:
201,44,112801,2,0,L|71:63,1,112,2|10,0:0|0:0,0:0:0:0:
14,105,113340,1,2,0:0:0:0:
14,105,113520,2,0,P|24:136|34:172,1,56,2|0,0:0|0:0,0:0:0:0:
28,248,113879,2,0,P|54:238|81:231,1,56,10|2,0:0|0:0,0:0:0:0:
176,182,114232,6,0,L|166:273,1,66.4999982242585,2|0,1:2|0:0,0:0:0:0:
209,341,114591,1,10,0:0:0:0:
209,341,114770,2,0,B|266:353|253:302|313:313,1,112,2|0,1:2|0:0,0:0:0:0:
392,352,115309,1,8,0:0:0:0:
437,268,115489,1,6,1:2:0:0:
256,192,115669,12,0,122854,0:0:0:0:
