osu file format v14

[General]
AudioFilename: audio.mp3
AudioLeadIn: 0
PreviewTime: 42382
Countdown: 0
SampleSet: Soft
StackLeniency: 0.7
Mode: 0
LetterboxInBreaks: 0
WidescreenStoryboard: 0

[Editor]
DistanceSpacing: 0.4
BeatDivisor: 4
GridSize: 32
TimelineZoom: 1.6

[Metadata]
Title:Bad for me (Short Ver.)
TitleUnicode:バッドフォーミー (Short Ver.)
Artist:Official HIGE DANdism
ArtistUnicode:Official髭男dism
Creator:Bakugo-
Version:Fantasy
Source:グッド・バイ
Tags:HIGEDAN 楢崎誠 小笹大輔 藤原聡 松浦匡希 satoshi fujihara daisuke ozasa makoto narazaki masaki matsuura Theme Song TV Drama Goodbye Stand By You EP Major 1st First Album Traveler オフィシャルヒゲダンディズム jpop j-pop pop japanese version shiwakaze leomineXD leomine freudeman chizu-kun yanaginagi1 freude chizu yanagi
BeatmapID:3642620
BeatmapSetID:1778601

[Difficulty]
HPDrainRate:5
CircleSize:4.3
OverallDifficulty:8
ApproachRate:9
SliderMultiplier:1.69
SliderTickRate:1

[Events]
//Background and Video events
0,0,"Download - Copy.jpg",0,0
//Break Periods
//Storyboard Layer 0 (Background)
//Storyboard Layer 1 (Fail)
//Storyboard Layer 2 (Pass)
//Storyboard Layer 3 (Foreground)
//Storyboard Layer 4 (Overlay)
//Storyboard Sound Samples

[TimingPoints]
706,359.281437125748,4,2,1,60,1,0
706,-100,4,2,1,60,0,0
3490,-100,4,2,1,5,0,0
3580,-100,4,2,1,60,0,0
3849,-100,4,2,1,5,0,0
3939,-100,4,2,1,60,0,0
4208,-100,4,2,1,5,0,0
4298,-100,4,2,1,60,0,0
4568,-100,4,2,1,5,0,0
4658,-100,4,2,1,60,0,0
4927,-100,4,2,1,5,0,0
5017,-100,4,2,1,60,0,0
8700,-100,4,2,1,5,0,0
8790,-100,4,2,1,60,0,0
9598,-100,4,2,1,5,0,0
9688,-100,4,2,1,60,0,0
9957,-100,4,2,1,5,0,0
10047,-100,4,2,1,60,0,0
14448,-100,4,2,1,5,0,0
14538,-100,4,2,1,60,0,0
25137,-133.333333333333,4,2,1,50,0,0
26484,-133.333333333333,4,2,1,5,0,0
26574,-133.333333333333,4,2,1,50,0,0
27921,-133.333333333333,4,2,1,5,0,0
28011,-133.333333333333,4,2,1,50,0,0
28640,-133.333333333333,4,2,1,5,0,0
28730,-133.333333333333,4,2,1,50,0,0
30795,-133.333333333333,4,2,1,5,0,0
30885,-133.333333333333,4,2,1,50,0,0
32322,-76.9230769230769,4,2,1,50,0,0
33041,-133.333333333333,4,2,1,50,0,0
33400,-333.333333333333,4,2,1,50,0,0
33759,-133.333333333333,4,2,1,50,0,0
35825,-133.333333333333,4,2,1,5,0,0
35915,-133.333333333333,4,2,1,50,0,0
36634,-83.3333333333333,4,2,1,60,0,0
38340,-83.3333333333333,4,2,1,5,0,0
38430,-83.3333333333333,4,2,1,60,0,0
39777,-83.3333333333333,4,2,1,5,0,0
39867,-83.3333333333333,4,2,1,60,0,0
42382,-50,4,2,1,70,0,0
42652,-50,4,2,1,5,0,0
42741,-50,4,2,1,70,0,0
43370,-50,4,2,1,5,0,0
43459,-50,4,2,1,70,0,0
43550,-50,4,2,1,5,0,0
43639,-50,4,2,1,70,0,0
44089,-50,4,2,1,5,0,0
44178,-50,4,2,1,70,0,0
45346,-50,4,2,1,5,0,0
45435,-50,4,2,1,70,0,0
45705,-50,4,2,1,5,0,0
45794,-50,4,2,1,70,0,0
45885,-50,4,2,1,5,0,0
45974,-50,4,2,1,70,0,0
46065,-50,4,2,1,5,0,0
46154,-50,4,2,1,70,0,0
46244,-50,4,2,1,5,0,0
46333,-50,4,2,1,70,0,0
46424,-50,4,2,1,5,0,0
46513,-50,4,2,1,70,0,0
46604,-50,4,2,1,5,0,0
46693,-50,4,2,1,70,0,0
46963,-50,4,2,1,5,0,0
47052,-50,4,2,1,70,0,0
47322,-50,4,2,1,5,0,0
47411,-50,4,2,1,70,0,0
47502,-50,4,2,1,5,0,0
47591,-50,4,2,1,70,0,0
47682,-50,4,2,1,5,0,0
47771,-50,4,2,1,70,0,0
48041,-50,4,2,1,5,0,0
48130,-50,4,2,1,70,0,0
48400,-50,4,2,1,5,0,0
48489,-50,4,2,1,70,0,0
48759,-50,4,2,1,5,0,0
48848,-50,4,2,1,70,0,0
49837,-50,4,2,1,5,0,0
49926,-50,4,2,1,70,0,0
50197,-50,4,2,1,5,0,0
50286,-50,4,2,1,70,0,0
51005,-100,4,2,1,70,0,0
51454,-100,4,2,1,5,0,0
51544,-66.6666666666667,4,2,1,70,0,0
51993,-66.6666666666667,4,2,1,5,0,0
52083,-50,4,2,1,70,0,0
53071,-50,4,2,1,5,0,0
53340,-66.6666666666667,4,2,1,70,0,0
53610,-66.6666666666667,4,2,1,5,0,0
53700,-100,4,2,1,70,0,0
53789,-100,4,2,1,5,0,0
53879,-50,4,2,1,70,0,0
54149,-50,4,2,1,5,0,0
54238,-50,4,2,1,70,0,0
54328,-50,4,2,1,5,0,0
54417,-50,4,2,1,70,0,0
54867,-50,4,2,1,5,0,0
54956,-50,4,2,1,70,0,0
55047,-50,4,2,1,5,0,0
55136,-50,4,2,1,70,0,0
55586,-50,4,2,1,5,0,0
55675,-50,4,2,1,70,0,0
55765,-50,4,2,1,5,0,0
55854,-50,4,2,1,70,0,0
57562,-50,4,2,1,5,0,0
57651,-50,4,2,1,70,0,0
58460,-50,4,2,1,5,0,0
58549,-50,4,2,1,70,0,0
58640,-50,4,2,1,5,0,0
58729,-50,4,2,1,70,0,0
58999,-50,4,2,1,5,0,0
59088,-50,4,2,1,70,0,0
59179,-50,4,2,1,5,0,0
59268,-50,4,2,1,70,0,0
59358,-50,4,2,1,5,0,0
59447,-50,4,2,1,70,0,0
59897,-50,4,2,1,5,0,0
59986,-50,4,2,1,70,0,0
60256,-50,4,2,1,5,0,0
60345,-50,4,2,1,70,0,0
61334,-50,4,2,1,5,0,0
61423,-50,4,2,1,70,0,0
61694,-50,4,2,1,5,0,0
61783,-50,4,2,1,70,0,0
62502,-100,4,2,1,70,0,0
62951,-100,4,2,1,5,0,0
63041,-66.6666666666667,4,2,1,70,0,0
63490,-66.6666666666667,4,2,1,5,0,0
63580,-50,4,2,1,70,0,0
64029,-50,4,2,1,5,0,0
64119,-50,4,2,1,70,0,0
65376,-40,4,2,1,70,0,0
65646,-40,4,2,1,5,0,0
65735,-40,4,2,1,70,0,0
66364,-40,4,2,1,5,0,0
66453,-40,4,2,1,70,0,0
66544,-40,4,2,1,5,0,0
66633,-40,4,2,1,70,0,0
67262,-40,4,2,1,5,0,0
67351,-40,4,2,1,70,0,0
67622,-40,4,2,1,5,0,0
67711,-40,4,2,1,70,0,0
67801,-40,4,2,1,5,0,0
67890,-40,4,2,1,70,0,0
67981,-40,4,2,1,5,0,0
68070,-40,4,2,1,70,0,0
68340,-40,4,2,1,5,0,0
68429,-40,4,2,1,70,0,0
69059,-40,4,2,1,5,0,0
69148,-40,4,2,1,70,0,0
69238,-40,4,2,1,5,0,0
69327,-40,4,2,1,70,0,0
69418,-40,4,2,1,5,0,0
69507,-40,4,2,1,70,0,0
69598,-40,4,2,1,5,0,0
69687,-40,4,2,1,70,0,0
69957,-40,4,2,1,5,0,0
70046,-40,4,2,1,70,0,0
70137,-40,4,2,1,5,0,0
70226,-40,4,2,1,70,0,0
70496,-40,4,2,1,5,0,0
70585,-40,4,2,1,70,0,0
70676,-40,4,2,1,5,0,0
70765,-40,4,2,1,70,0,0
71394,-40,4,2,1,5,0,0
71483,-40,4,2,1,70,0,0
71753,-40,4,2,1,5,0,0
71842,-40,4,2,1,70,0,0
72831,-40,4,2,1,5,0,0
72920,-40,4,2,1,70,0,0
73191,-40,4,2,1,5,0,0
73280,-40,4,2,1,70,0,0
73999,-100,4,2,1,70,0,0
74448,-100,4,2,1,5,0,0
74538,-66.6666666666667,4,2,1,70,0,0
74987,-66.6666666666667,4,2,1,5,0,0
75077,-50,4,2,1,70,0,0
76065,-50,4,2,1,5,0,0
76334,-66.6666666666667,4,2,1,70,0,0
76604,-66.6666666666667,4,2,1,5,0,0
76694,-100,4,2,1,70,0,0
76783,-100,4,2,1,5,0,0
76873,-44.4444444444445,4,2,1,70,0,0
77143,-44.4444444444445,4,2,1,5,0,0
77232,-44.4444444444445,4,2,1,70,0,0
77322,-44.4444444444445,4,2,1,5,0,0
77411,-44.4444444444445,4,2,1,70,0,0
77861,-44.4444444444445,4,2,1,5,0,0
77950,-44.4444444444445,4,2,1,70,0,0
78041,-44.4444444444445,4,2,1,5,0,0
78130,-44.4444444444445,4,2,1,70,0,0
78580,-44.4444444444445,4,2,1,5,0,0
78669,-44.4444444444445,4,2,1,70,0,0
78759,-44.4444444444445,4,2,1,5,0,0
78848,-44.4444444444445,4,2,1,70,0,0
79119,-44.4444444444445,4,2,1,5,0,0
79208,-44.4444444444445,4,2,1,70,0,0
79298,-44.4444444444445,4,2,1,5,0,0
79387,-44.4444444444445,4,2,1,70,0,0
79478,-44.4444444444445,4,2,1,5,0,0
79567,-44.4444444444445,4,2,1,70,0,0
80197,-44.4444444444445,4,2,1,5,0,0
80286,-44.4444444444445,4,2,1,70,0,0
80556,-44.4444444444445,4,2,1,5,0,0
80645,-44.4444444444445,4,2,1,70,0,0
80735,-44.4444444444445,4,2,1,5,0,0
80824,-44.4444444444445,4,2,1,70,0,0
80915,-44.4444444444445,4,2,1,5,0,0
81004,-44.4444444444445,4,2,1,70,0,0
81095,-44.4444444444445,4,2,1,5,0,0
81184,-44.4444444444445,4,2,1,70,0,0
81634,-44.4444444444445,4,2,1,5,0,0
81723,-44.4444444444445,4,2,1,70,0,0
81993,-44.4444444444445,4,2,1,5,0,0
82082,-44.4444444444445,4,2,1,70,0,0
82173,-44.4444444444445,4,2,1,5,0,0
82262,-44.4444444444445,4,2,1,70,0,0
82352,-44.4444444444445,4,2,1,5,0,0
82441,-44.4444444444445,4,2,1,70,0,0
82532,-44.4444444444445,4,2,1,5,0,0
82621,-44.4444444444445,4,2,1,70,0,0
82891,-44.4444444444445,4,2,1,5,0,0
82980,-44.4444444444445,4,2,1,70,0,0
83250,-44.4444444444445,4,2,1,5,0,0
83339,-44.4444444444445,4,2,1,70,0,0
84328,-44.4444444444445,4,2,1,5,0,0
84417,-44.4444444444445,4,2,1,70,0,0
84688,-44.4444444444445,4,2,1,5,0,0
84777,-44.4444444444445,4,2,1,70,0,0
85496,-100,4,2,1,70,0,0
85945,-100,4,2,1,5,0,0
86035,-66.6666666666667,4,2,1,70,0,0
86484,-66.6666666666667,4,2,1,5,0,0
86574,-50,4,2,1,70,0,0
87203,-50,4,2,1,5,0,0
87292,-50,4,2,1,70,0,0
87831,-66.6666666666667,4,2,1,70,0,0
88191,-100,4,2,1,70,0,0
88280,-100,4,2,1,5,0,0
88370,-200,4,2,1,70,0,0
92502,-200,4,2,1,5,0,0
92682,-133.333333333333,4,2,1,60,0,0
94119,-100,4,2,1,60,0,0
99238,-100,4,2,1,5,0,0
99328,-100,4,2,1,60,0,0
100676,-100,4,2,1,5,0,0
100766,-100,4,2,1,60,0,0
101574,-100,4,2,1,5,0,0
101664,-100,4,2,1,60,0,0
101933,-100,4,2,1,5,0,0
102023,-133.333333333333,4,2,1,60,0,0
102292,-133.333333333333,4,2,1,5,0,0
102382,-133.333333333333,4,2,1,60,0,0
102652,-133.333333333333,4,2,1,5,0,0
102741,-100,4,2,1,60,0,0
106604,-100,4,2,1,5,0,0
106694,-100,4,2,1,60,0,0
106963,-100,4,2,1,5,0,0
107053,-100,4,2,1,60,0,0
107322,-100,4,2,1,5,0,0
107412,-100,4,2,1,60,0,0
107682,-100,4,2,1,5,0,0
107772,-100,4,2,1,60,0,0
108041,-100,4,2,1,5,0,0
108131,-100,4,2,1,60,0,0
108400,-100,4,2,1,5,0,0
108490,-100,4,2,1,60,0,0
113071,-100,4,2,1,5,0,0
113161,-100,4,2,1,60,0,0
114232,359.281437125748,4,2,1,60,1,0
115670,-100,4,2,1,60,0,0
116029,-100,4,2,1,57,0,0
116388,-100,4,2,1,54,0,0
116747,-100,4,2,1,51,0,0
117107,-100,4,2,1,48,0,0
117466,-100,4,2,1,45,0,0
117825,-100,4,2,1,42,0,0
118185,-100,4,2,1,39,0,0
118544,-100,4,2,1,36,0,0
118903,-100,4,2,1,33,0,0
119262,-100,4,2,1,30,0,0
119622,-100,4,2,1,27,0,0
119981,-100,4,2,1,24,0,0
120340,-100,4,2,1,21,0,0
120699,-100,4,2,1,18,0,0
121059,-100,4,2,1,15,0,0
121418,-100,4,2,1,12,0,0
121777,-100,4,2,1,9,0,0
122137,-100,4,2,1,6,0,0
122496,-100,4,2,1,5,0,0
122855,-100,4,2,1,5,0,0

[Colours]
Combo1 : 137,88,88
Combo2 : 49,128,153
Combo3 : 209,114,82
Combo4 : 199,190,188
Combo5 : 118,109,107
Combo6 : 168,2,255
Combo7 : 255,13,13
Combo8 : 13,249,255

[HitObjects]
142,132,706,5,2,0:0:0:0:
249,47,885,2,0,B|291:71|291:71|261:157,1,126.75,2|0,0:0|0:0,0:0:0:0:
256,169,1244,1,2,0:0:0:0:
351,156,1424,1,2,0:0:0:0:
395,57,1604,1,0,0:0:0:0:
449,142,1783,2,0,B|494:144|494:144|516:102,1,84.5,2|2,0:0|0:0,0:0:0:0:
400,253,2053,1,2,0:0:0:0:
401,268,2143,6,0,B|361:253|315:282|346:302|301:337|229:304,1,169,6|8,1:2|0:0,0:0:0:0:
51,223,2682,2,0,B|162:212|162:212|133:224|121:253,1,169,2|0,1:2|0:0,0:0:0:0:
199,77,3220,6,0,B|262:98|262:98|323:56,1,126.75,10|0,0:0|0:0,0:0:0:0:
334,34,3580,2,0,B|397:13|397:13|458:55,1,126.75,2|0,0:0|0:0,0:0:0:0:
458,72,3939,6,0,L|436:205,1,126.75,10|0,0:0|0:0,0:0:0:0:
403,200,4298,2,0,L|425:333,1,126.75,2|0,0:0|0:0,0:0:0:0:
450,356,4658,6,0,B|388:351|388:351|372:337|372:337|313:329,1,126.75,10|0,0:0|0:0,0:0:0:0:
297,306,5017,6,0,B|211:292|211:292|140:363,1,169,2|10,1:2|0:0,0:0:0:0:
0,249,5556,2,0,B|86:263|86:263|143:205,1,169,2|0,1:2|0:0,0:0:0:0:
59,47,6095,2,0,B|30:83|30:83|49:130,1,84.5,8|0,0:0|0:0,0:0:0:0:
207,102,6454,5,2,0:0:0:0:
261,37,6634,1,2,0:0:0:0:
120,98,6813,1,10,0:0:0:0:
253,173,6993,2,0,L|366:156,1,84.5,2|0,0:0|0:0,0:0:0:0:
415,301,7352,1,2,0:0:0:0:
327,240,7532,1,10,0:0:0:0:
496,233,7711,1,2,0:0:0:0:
306,341,7891,6,0,L|133:311,1,169,6|8,1:2|0:0,0:0:0:0:
0,223,8430,2,0,L|138:199,1,126.75,2|0,1:2|0:0,0:0:0:0:
151,197,8789,1,2,0:0:0:0:
4,154,8969,1,10,0:0:0:0:
59,358,9149,1,0,0:0:0:0:
241,245,9328,6,0,P|291:214|371:217,1,126.75,2|0,0:0|0:0,0:0:0:0:
388,233,9688,2,0,P|446:232|496:171,1,126.75,10|0,0:0|0:0,0:0:0:0:
385,139,10047,6,0,P|401:121|386:143,1,84.5,2|0,0:0|0:0,0:0:0:0:
322,319,10406,2,0,P|301:295|330:306,1,84.5,10|0,0:0|0:0,0:0:0:0:
203,350,10765,6,0,B|152:344|134:294|168:294|143:237|89:236,1,169,2|10,1:2|0:0,0:0:0:0:
38,139,11304,2,0,B|151:112|151:112|118:111|90:88,1,169,2|0,1:2|0:0,0:0:0:0:
173,32,11843,2,0,P|218:15|263:15,1,84.5,8|0,0:0|0:0,0:0:0:0:
330,83,12203,5,2,0:0:0:0:
467,179,12382,1,2,0:0:0:0:
235,218,12562,1,10,0:0:0:0:
339,177,12741,1,2,0:0:0:0:
233,320,12921,5,2,0:0:0:0:
151,144,13101,1,2,0:0:0:0:
164,127,13191,1,2,0:0:0:0:
158,106,13280,1,10,0:0:0:0:
64,233,13460,1,2,0:0:0:0:
271,71,13640,6,0,P|209:22|98:8,1,169,6|8,1:2|0:0,0:0:0:0:
339,177,14179,2,0,P|402:165|453:126,1,126.75,2|0,1:2|0:0,0:0:0:0:
461,106,14538,1,0,0:0:0:0:
256,157,14717,6,0,P|239:198|252:243,1,84.5,10|0,0:0|0:0,0:0:0:0:
215,348,15077,2,0,P|259:342|291:308,1,84.5,2|0,0:0|0:0,0:0:0:0:
410,298,15436,2,0,P|382:262|337:251,1,84.5,10|0,0:0|0:0,0:0:0:0:
347,144,15795,2,0,P|389:140|420:112,1,84.5,2|0,0:0|0:0,0:0:0:0:
296,41,16155,2,0,P|264:13|223:8,1,84.5,10|0,0:0|0:0,0:0:0:0:
173,97,16514,6,0,B|55:68|55:68|80:82|88:104,1,169,2|10,1:2|0:0,0:0:0:0:
255,167,17053,2,0,B|206:188|210:233|210:233|206:188|157:177,1,169,2|0,1:2|0:0,0:0:0:0:
61,291,17592,2,0,P|116:275|144:251,1,84.5,8|0,0:0|0:0,0:0:0:0:
32,208,17951,5,2,0:0:0:0:
182,329,18131,1,2,0:0:0:0:
350,291,18310,1,10,0:0:0:0:
212,230,18490,1,2,0:0:0:0:
310,364,18670,5,2,0:0:0:0:
385,190,18849,1,2,0:0:0:0:
393,170,18939,1,2,0:0:0:0:
383,150,19029,1,10,0:0:0:0:
289,215,19208,1,2,0:0:0:0:
458,263,19388,6,0,B|484:197|484:197|477:170|477:170|507:100,1,169,6|8,1:2|0:0,0:0:0:0:
371,26,19927,2,0,B|328:7|283:36|306:56|265:83|206:57,1,169,2|0,1:2|0:0,0:0:0:0:
30,49,20466,6,0,P|66:22|124:10,1,84.5,10|0,0:0|0:0,0:0:0:0:
199,147,20825,2,0,P|158:134|125:108,1,84.5,2|0,0:0|0:0,0:0:0:0:
24,152,21185,6,0,L|2:262,1,84.5,10|2,0:0|0:0,0:0:0:0:
159,291,21544,1,2,0:0:0:0:
91,224,21723,1,2,0:0:0:0:
72,357,21903,1,10,0:0:0:0:
251,298,22083,1,2,0:0:0:0:
91,224,22262,6,0,B|141:191|141:191|261:204,1,169,2|10,1:2|0:0,0:0:0:0:
347,318,22801,2,0,B|333:261|333:261|346:231|346:231|328:149,1,169,2|0,1:2|0:0,0:0:0:0:
396,93,23340,2,0,B|428:122|428:122|415:170,1,84.5,10|0,0:0|1:0,0:0:0:0:
300,60,23700,2,0,B|309:17|309:17|357:5,1,84.5,0|0,1:0|0:0,0:0:0:0:
329,155,24059,2,0,B|287:168|287:168|252:132,1,84.5,8|0,0:0|0:0,0:0:0:0:
182,76,24418,6,0,L|80:79,1,84.5,2|0,0:0|0:0,0:0:0:0:
0,192,24777,2,0,L|84:194,1,84.5,10|0,0:0|0:0,0:0:0:0:
163,257,25137,6,0,B|210:286|210:332|210:332|210:286|271:251,1,190.125007252693,6|0,0:0|0:0,0:0:0:0:
399,256,25855,5,2,0:0:0:0:
303,322,26035,1,2,0:0:0:0:
136,318,26214,2,0,P|86:284|37:269,1,95.0625036263467,2|0,0:0|0:0,0:0:0:0:
6,334,26574,2,0,B|46:260|46:260|15:142,1,190.125007252693,2|0,0:0|0:0,0:0:0:0:
74,52,27292,5,2,0:0:0:0:
175,88,27472,1,2,0:0:0:0:
320,9,27652,2,0,L|422:3,1,95.0625036263467,2|0,0:0|0:0,0:0:0:0:
504,25,28011,6,0,B|476:109|476:109|485:150|485:150|451:257,1,221.812508461476,2|0,0:0|0:0,0:0:0:0:
447,260,28729,5,2,0:0:0:0:
344,291,28909,1,0,0:0:0:0:
221,215,29089,2,0,P|249:183|282:170,1,63.3750024175645,2|0,0:0|0:0,0:0:0:0:
198,307,29448,2,0,P|125:270|146:150,1,190.125007252693,2|0,0:0|3:0,0:0:0:0:
168,98,30077,1,0,3:0:0:0:
177,78,30167,2,0,P|151:71|127:71,1,31.6875012087822,2|0,3:2|3:0,0:0:0:0:
89,12,30346,2,0,P|66:27|51:45,1,31.6875012087822,0|0,3:0|3:0,0:0:0:0:
22,113,30526,6,0,P|44:110|14:127,1,95.0625036263467,2|0,3:2|0:0,0:0:0:0:
42,132,30885,6,0,P|76:147|94:172,1,63.3750024175645,6|0,0:0|0:0,0:0:0:0:
141,269,31244,2,0,P|175:254|193:229,1,63.3750024175645,2|0,0:0|0:0,0:0:0:0:
299,143,31604,6,0,L|222:131,1,63.3750024175645,2|0,0:0|0:0,0:0:0:0:
384,222,31963,2,0,L|446:212,1,63.3750024175645,2|0,0:0|0:0,0:0:0:0:
208,292,32322,6,0,B|106:302|163:363|99:395|20:386|-39:342|2:246|58:251|93:291,1,329.549984914399,2|0,0:0|0:0,0:0:0:0:
78,107,33041,6,0,L|65:178,1,63.3750024175645,2|0,0:0|0:0,0:0:0:0:
291,287,33400,2,0,L|284:251,1,25.3499992263794,2|0,0:0|0:0,0:0:0:0:
286,99,33759,6,0,B|226:67|161:118|203:153|130:212|45:159,1,253.500009670258,2|2,0:0|0:0,0:0:0:0:
291,286,34837,2,0,L|360:271,1,63.3750024175645,2|0,0:0|0:0,0:0:0:0:
434,348,35197,2,0,B|381:277|381:277|433:142,1,221.812508461476,2|0,0:0|0:0,0:0:0:0:
445,125,35915,2,0,P|408:102|370:100,1,63.3750024175645,2|0,0:0|0:0,0:0:0:0:
301,23,36274,2,0,P|264:46|226:48,1,63.3750024175645,2|0,0:0|0:0,0:0:0:0:
76,96,36634,6,0,B|111:93|131:54|131:54|80:188,1,202.799993811035,6|2,1:2|1:2,0:0:0:0:
131,278,37173,1,2,0:0:0:0:
131,278,37262,1,2,0:0:0:0:
131,278,37352,2,0,L|202:262,1,50.6999984527588,2|0,1:2|0:0,0:0:0:0:
249,206,37532,2,0,L|298:217,1,50.6999984527588,2|0,0:0|0:0,0:0:0:0:
334,323,37711,1,2,1:2:0:0:
149,183,37891,1,2,0:0:0:0:
413,183,38071,6,0,B|402:131|402:131|416:104|416:104|399:35,1,152.099995358276,6|0,1:2|0:0,0:0:0:0:
389,10,38430,1,2,1:2:0:0:
493,77,38610,1,2,0:0:0:0:
352,239,38789,1,2,1:2:0:0:
282,52,38969,1,0,0:0:0:0:
149,183,39149,1,2,1:2:0:0:
302,148,39328,1,0,0:0:0:0:
22,42,39508,6,0,B|74:71|74:71|23:188,1,152.099995358276,6|0,1:2|0:0,0:0:0:0:
28,180,39867,1,6,1:2:0:0:
186,108,40047,1,0,0:0:0:0:
314,253,40226,1,6,1:2:0:0:
479,129,40406,5,2,0:0:0:0:
174,242,40586,1,6,1:2:0:0:
465,355,40765,1,2,0:0:0:0:
282,52,40945,1,12,0:2:0:0:
235,169,41304,5,2,1:2:0:0:
247,185,41394,1,2,0:0:0:0:
259,201,41484,2,0,P|282:185|313:177,1,50.6999984527588,2|2,0:0|0:0,0:0:0:0:
355,280,41664,2,0,P|329:268|307:245,1,50.6999984527588,2|0,0:0|0:0,0:0:0:0:
174,242,41843,2,0,P|151:250|176:235,1,101.399996905518,4|8,0:0|0:0,0:0:0:0:
99,102,42203,6,0,L|27:91,1,50.6999984527588,6|2,0:0|0:0,0:0:0:0:
64,22,42382,2,0,B|156:38|156:38|186:93|186:93|303:113,1,253.5,2|0,0:0|0:0,0:0:0:0:
450,119,42741,2,0,B|462:75|462:75|427:28,1,84.5,12|0,0:1|0:0,0:0:0:0:
317,203,42921,5,2,0:0:0:0:
323,218,43011,1,2,0:0:0:0:
327,232,43101,2,0,B|246:203|190:246|238:277|162:319|88:261,1,253.5,2|0,1:2|0:0,0:0:0:0:
272,309,43460,2,0,P|289:302|269:314,1,84.5,8|0,0:0|0:0,0:0:0:0:
129,190,43640,5,2,0:0:0:0:
133,165,43729,1,2,0:0:0:0:
119,145,43819,2,0,B|85:112|33:106|33:106|191:65,1,253.5,2|0,1:2|0:0,0:0:0:0:
292,17,44179,2,0,B|323:45|323:45|309:99,1,84.5,10|0,0:0|0:0,0:0:0:0:
439,247,44358,1,2,0:0:0:0:
432,230,44448,1,2,1:2:0:0:
425,209,44538,2,0,B|433:168|433:168|487:153,1,84.5,2|0,1:2|2:0,0:0:0:0:
512,17,44717,2,0,B|472:29|472:29|432:-9,1,84.5,2|0,1:2|2:0,0:0:0:0:
408,85,44897,1,8,0:0:0:0:
420,354,45077,6,0,B|329:333|329:333|299:287|299:287|175:263,1,253.5,6|0,1:2|0:0,0:0:0:0:
36,320,45436,1,2,1:2:0:0:
53,336,45526,1,2,0:0:0:0:
73,348,45616,2,0,P|95:325|113:270,1,84.5,10|0,0:0|0:0,0:0:0:0:
10,129,45795,2,0,P|18:159|57:202,1,84.5,2|0,0:0|0:0,0:0:0:0:
195,115,45975,6,0,P|153:115|95:137,1,84.5,2|0,1:2|0:0,0:0:0:0:
274,187,46155,2,0,P|316:186|356:174,1,84.5,2|0,1:2|0:0,0:0:0:0:
282,77,46334,6,0,P|306:65|281:83,1,84.5,10|0,0:0|0:0,0:0:0:0:
174,192,46514,2,0,P|156:221|190:217,1,84.5,2|0,0:0|0:0,0:0:0:0:
271,290,46694,6,0,B|348:315|415:274|355:237|416:184|498:206,1,253.5,2|0,1:2|0:0,0:0:0:0:
485,311,47053,2,0,B|393:271|393:271|371:230|371:230|254:178,1,253.5,10|0,0:0|0:0,0:0:0:0:
282,77,47412,2,0,B|327:75|327:75|360:44,1,84.5,2|0,1:2|0:0,0:0:0:0:
195,115,47592,2,0,B|170:77|170:77|127:63,1,84.5,2|0,1:2|0:0,0:0:0:0:
266,182,47771,1,10,0:0:0:0:
270,198,47861,1,2,0:0:0:0:
274,214,47951,2,0,L|246:308,1,84.5,6|0,0:0|0:0,0:0:0:0:
51,271,48131,6,0,B|116:284|129:355|129:355|116:284|185:240,1,253.5,2|0,1:2|0:0,0:0:0:0:
445,154,48490,2,0,B|380:167|367:238|367:238|380:167|311:123,1,253.5,10|0,0:0|0:0,0:0:0:0:
66,132,48849,5,2,1:2:0:0:
244,333,49029,1,2,1:2:0:0:
263,316,49119,1,2,0:0:0:0:
249,294,49208,1,10,0:0:0:0:
129,354,49388,1,2,0:0:0:0:
464,310,49568,6,0,B|446:207|446:207|461:170|461:170|434:57,1,253.5,6|0,1:2|0:0,0:0:0:0:
343,48,49927,2,0,B|368:154|368:154|353:191|353:191|371:294,1,253.5,10|0,0:0|0:0,0:0:0:0:
409,372,50286,5,2,1:2:0:0:
211,265,50466,1,2,1:2:0:0:
225,244,50556,1,2,0:0:0:0:
210,223,50646,1,10,0:0:0:0:
129,354,50825,1,2,1:2:0:0:
423,201,51005,6,0,P|488:204|421:206,1,211.25,6|0,1:2|0:0,0:0:0:0:
224,42,51544,6,0,P|190:24|233:55,1,316.875012087822,6|0,1:2|0:0,0:0:0:0:
175,333,52083,6,0,P|224:354|143:306,1,929.5,6|8,1:2|0:0,0:0:0:0:
189,157,53340,6,0,P|205:142|186:166,1,190.125007252693,2|0,1:2|0:0,0:0:0:0:
317,238,53700,6,0,P|303:244|320:243,1,42.25,6|0,1:2|0:0,0:0:0:0:
303,332,53879,6,0,B|376:339|425:269|371:252|419:191|499:216,1,253.5,2|0,0:0|0:0,0:0:0:0:
410,54,54238,2,0,B|391:97|391:97|338:124,1,84.5,12|0,0:1|0:0,0:0:0:0:
135,65,54418,5,2,0:0:0:0:
104,63,54508,1,2,0:0:0:0:
88,42,54598,2,0,P|175:18|333:52,1,253.5,2|0,1:2|0:0,0:0:0:0:
189,157,54957,2,0,P|166:138|191:149,1,84.5,8|0,0:0|0:0,0:0:0:0:
15,235,55137,5,2,0:0:0:0:
2,256,55226,1,2,0:0:0:0:
8,280,55316,2,0,B|186:254|186:254|156:266|126:311,1,253.5,2|0,1:2|0:0,0:0:0:0:
303,332,55676,2,0,P|258:334|210:321,1,84.5,10|0,0:0|0:0,0:0:0:0:
357,262,55855,1,2,0:0:0:0:
371,269,55945,2,0,P|395:306|407:355,1,84.5,0|2,0:0|1:2,0:0:0:0:
272,213,56125,1,0,0:0:0:0:
283,196,56214,1,2,1:2:0:0:
473,286,56394,1,8,0:0:0:0:
131,302,56574,6,0,B|166:62|166:62|135:112|71:117,1,338,6|2,1:2|1:2,0:0:0:0:
57,24,57023,1,2,0:0:0:0:
69,36,57113,1,10,0:0:0:0:
227,138,57292,1,0,0:0:0:0:
20,175,57472,6,0,B|-5:138|-5:138|11:94,1,84.5,2|0,1:2|0:0,0:0:0:0:
89,114,57652,1,2,1:2:0:0:
234,256,57831,1,10,0:0:0:0:
18,301,58011,1,2,0:0:0:0:
227,138,58191,6,0,L|507:89,1,253.5,2|0,1:2|0:0,0:0:0:0:
363,28,58550,2,0,B|317:30|317:30|285:3,1,84.5,10|0,0:0|0:0,0:0:0:0:
137,33,58729,1,2,0:0:0:0:
157,48,58819,1,2,0:0:0:0:
164,72,58909,2,0,P|145:98|140:154,1,84.5,2|0,1:2|0:0,0:0:0:0:
31,263,59089,2,0,P|63:266|114:242,1,84.5,2|0,1:2|0:0,0:0:0:0:
264,280,59268,2,0,P|250:250|204:218,1,84.5,10|0,0:0|0:0,0:0:0:0:
164,331,59448,1,6,0:0:0:0:
312,179,59628,6,0,B|382:200|392:266|392:266|382:200|446:154,1,253.5,2|0,1:2|0:0,0:0:0:0:
294,94,59987,2,0,B|224:115|214:181|214:181|224:115|163:71,1,253.5,10|0,0:0|0:0,0:0:0:0:
237,24,60346,5,2,1:2:0:0:
116,196,60526,1,2,1:2:0:0:
130,174,60616,1,2,0:0:0:0:
130,148,60705,1,10,0:0:0:0:
0,212,60885,1,2,0:0:0:0:
134,303,61065,6,0,B|237:285|237:285|259:259|259:259|394:235,1,253.5,6|0,1:2|0:0,0:0:0:0:
177,370,61424,2,0,B|280:352|280:352|302:326|302:326|416:306,1,253.5,10|0,0:0|0:0,0:0:0:0:
487,355,61783,5,2,1:2:0:0:
392,167,61963,1,2,1:2:0:0:
417,171,62053,1,2,0:0:0:0:
430,193,62143,1,10,0:0:0:0:
310,350,62322,1,2,1:2:0:0:
203,32,62502,6,0,B|60:17|60:17|97:30|117:58,1,211.25,6|0,1:2|0:0,0:0:0:0:
26,209,63041,6,0,B|58:116|58:116|109:218|109:218|153:97,1,316.875012087822,6|0,1:2|0:0,0:0:0:0:
343,127,63580,6,0,P|278:137|367:139,1,422.5,6|0,1:2|0:0,0:0:0:0:
451,64,64119,5,2,1:2:0:0:
459,49,64208,1,2,0:0:0:0:
466,34,64298,2,0,L|365:9,1,84.5,10|2,0:0|0:0,0:0:0:0:
255,161,64478,5,10,0:0:0:0:
262,176,64568,1,10,0:0:0:0:
263,201,64658,1,10,0:0:0:0:
251,232,64747,1,2,0:0:0:0:
218,259,64837,1,6,1:2:0:0:
169,274,64927,1,2,0:0:0:0:
113,252,65017,1,10,0:0:0:0:
85,190,65107,1,2,0:0:0:0:
112,119,65197,1,6,1:2:0:0:
200,92,65286,1,0,0:0:0:0:
255,161,65376,6,0,B|470:127|470:127|406:149|389:194,1,316.875,2|0,0:0|0:0,0:0:0:0:
470,315,65735,2,0,P|485:271|473:200,1,105.625,12|0,0:1|0:0,0:0:0:0:
335,289,65915,5,2,0:0:0:0:
308,307,66005,1,2,0:0:0:0:
276,301,66095,2,0,B|191:332|108:264|178:218|109:138|-2:163,1,316.875,2|0,1:2|0:0,0:0:0:0:
31,278,66454,2,0,P|39:264|33:290,1,105.625,8|0,0:0|0:0,0:0:0:0:
179,116,66634,5,2,0:0:0:0:
200,92,66723,1,2,0:0:0:0:
174,73,66813,2,0,B|150:47|84:42|84:42|312:18,1,316.875,2|0,1:2|0:0,0:0:0:0:
431,108,67173,6,0,B|450:59|450:59|414:21,1,105.625,10|0,0:0|0:0,0:0:0:0:
416,204,67352,1,2,0:0:0:0:
422,216,67442,1,2,0:0:0:0:
426,229,67532,2,0,B|458:269|458:269|509:257,1,105.625,2|0,1:2|0:0,0:0:0:0:
346,150,67711,2,0,B|294:139|294:139|263:181,1,105.625,2|0,1:2|0:0,0:0:0:0:
325,275,67891,2,0,P|340:277|315:281,1,105.625,10|0,0:0|0:0,0:0:0:0:
242,360,68071,6,0,B|147:329|147:329|116:218|116:218|8:179,1,316.875,6|0,1:2|0:0,0:0:0:0:
6,333,68430,1,2,1:2:0:0:
25,325,68520,1,2,0:0:0:0:
45,319,68610,2,0,B|114:303|114:303|132:258|132:258|236:242,1,211.25,10|2,0:0|0:0,0:0:0:0:
329,245,68879,1,0,0:0:0:0:
341,233,68969,6,0,B|369:189|369:189|336:131,1,105.625,2|0,1:2|0:0,0:0:0:0:
509,254,69149,2,0,B|456:251|456:251|423:309,1,105.625,2|0,1:2|0:0,0:0:0:0:
435,97,69328,2,0,B|459:143|459:143|525:143,1,105.625,10|0,0:0|0:0,0:0:0:0:
267,89,69508,2,0,B|242:42|242:42|189:42,1,105.625,2|0,0:0|0:0,0:0:0:0:
20,183,69688,6,0,B|226:157|226:157|176:175|142:237,1,316.875,2|0,1:2|0:0,0:0:0:0:
234,344,70047,2,0,P|247:291|238:229,1,105.625,10|0,0:0|0:0,0:0:0:0:
11,333,70226,1,2,0:0:0:0:
29,342,70316,1,2,0:0:0:0:
50,342,70406,2,0,P|98:321|164:310,1,105.625,2|0,1:2|0:0,0:0:0:0:
262,242,70586,2,0,P|310:263|376:274,1,105.625,2|0,1:2|0:0,0:0:0:0:
448,343,70765,1,10,0:0:0:0:
411,136,70945,5,6,0:0:0:0:
422,118,71035,1,2,0:0:0:0:
441,108,71125,2,0,B|328:77|328:77|301:33|301:33|150:-1,1,316.875,2|0,1:2|0:0,0:0:0:0:
181,112,71484,2,0,B|294:81|294:81|321:37|321:37|472:3,1,316.875,10|0,0:0|0:0,0:0:0:0:
512,70,71843,5,2,1:2:0:0:
274,174,72023,1,2,1:2:0:0:
292,163,72113,1,2,0:0:0:0:
312,165,72203,1,10,0:0:0:0:
416,248,72382,1,2,0:0:0:0:
240,336,72562,6,0,B|142:365|78:294|154:253|80:177|-3:195,1,316.875,6|0,1:2|0:0,0:0:0:0:
0,341,72921,2,0,B|102:371|166:300|90:259|164:183|269:204,1,316.875,10|0,0:0|0:0,0:0:0:0:
310,268,73280,5,2,1:2:0:0:
112,130,73460,1,2,1:2:0:0:
127,105,73550,1,2,0:0:0:0:
108,82,73640,1,10,0:0:0:0:
0,195,73819,1,2,1:2:0:0:
423,201,73999,6,0,P|488:204|421:206,1,211.25,6|0,1:2|0:0,0:0:0:0:
224,42,74538,6,0,P|190:24|233:55,1,316.875012087822,6|0,1:2|0:0,0:0:0:0:
175,333,75077,6,0,P|224:354|143:306,1,929.5,6|4,1:2|0:0,0:0:0:0:
177,200,76334,6,0,P|193:185|174:209,1,190.125007252693,2|0,1:2|0:0,0:0:0:0:
317,146,76694,6,0,P|303:152|320:151,1,42.25,6|0,1:2|0:0,0:0:0:0:
509,136,76873,6,0,B|398:113|398:113|374:71|374:71|227:37,1,285.18751087904,2|0,0:0|0:0,0:0:0:0:
118,135,77232,2,0,B|152:102|152:102|147:52,1,95.0625036263467,12|0,0:1|0:0,0:0:0:0:
26,239,77412,5,2,0:0:0:0:
31,276,77502,1,2,0:0:0:0:
64,298,77592,2,0,B|105:275|146:317|146:317|187:356|232:323|232:323|278:279|335:313,1,285.18751087904,2|0,1:2|0:0,0:0:0:0:
446,329,77951,2,0,P|452:317|446:335,1,95.0625036263467,8|0,0:0|0:0,0:0:0:0:
391,231,78131,5,2,0:0:0:0:
377,205,78220,1,2,0:0:0:0:
384,175,78310,2,0,B|389:116|459:95|459:95|400:24|278:47,1,285.18751087904,2|0,1:2|0:0,0:0:0:0:
145,52,78670,2,0,P|186:15|249:-5,1,95.0625036263467,10|0,0:0|0:0,0:0:0:0:
158,137,78849,1,2,0:0:0:0:
145,151,78939,1,2,0:0:0:0:
125,151,79029,2,0,P|72:133|23:89,1,95.0625036263467,2|0,1:2|0:0,0:0:0:0:
236,118,79208,2,0,P|247:172|233:236,1,95.0625036263467,2|0,1:2|0:0,0:0:0:0:
149,268,79388,2,0,P|169:253|149:273,1,95.0625036263467,8|0,0:0|0:0,0:0:0:0:
126,364,79568,6,0,B|230:400|311:320|243:262|358:187|455:241,1,380.250014505387,6|0,1:2|1:2,0:0:0:0:
232,108,80107,2,0,P|266:103|236:118,1,95.0625036263467,10|0,0:0|0:0,0:0:0:0:
344,37,80286,1,2,0:0:0:0:
378,21,80376,1,2,0:0:0:0:
411,38,80466,2,0,P|432:72|422:127,1,95.0625036263467,2|0,1:2|0:0,0:0:0:0:
267,234,80646,2,0,P|285:198|338:179,1,95.0625036263467,2|0,1:2|0:0,0:0:0:0:
512,266,80825,2,0,P|472:267|429:231,1,95.0625036263467,10|0,0:0|0:0,0:0:0:0:
397,322,81005,2,0,B|351:307|351:307|295:335,1,95.0625036263467,2|0,0:0|0:0,0:0:0:0:
180,353,81185,6,0,B|5:304|5:304|62:302|105:263,1,285.18751087904,2|0,1:2|0:0,0:0:0:0:
35,135,81544,2,0,P|12:173|21:225,1,95.0625036263467,10|0,0:0|0:0,0:0:0:0:
151,108,81723,1,2,0:0:0:0:
156,89,81813,1,2,0:0:0:0:
148,71,81903,2,0,P|126:32|77:13,1,95.0625036263467,2|0,1:2|0:0,0:0:0:0:
142,198,82083,2,0,P|186:198|226:165,1,95.0625036263467,2|0,1:2|0:0,0:0:0:0:
298,39,82262,6,0,P|274:53|302:41,1,95.0625036263467,10|0,0:0|0:0,0:0:0:0:
417,140,82442,2,0,P|441:126|413:138,1,95.0625036263467,2|0,0:0|0:0,0:0:0:0:
238,255,82622,6,0,B|310:245|328:162|328:162|310:245|396:297,1,285.18751087904,6|0,1:2|0:0,0:0:0:0:
298,39,82981,2,0,B|225:48|207:131|207:131|225:48|139:-3,1,285.18751087904,10|0,0:0|0:0,0:0:0:0:
35,72,83340,5,2,1:2:0:0:
123,188,83520,1,2,1:2:0:0:
135,173,83610,1,2,0:0:0:0:
132,154,83700,1,10,0:0:0:0:
7,192,83879,1,2,0:0:0:0:
82,348,84059,6,0,B|192:312|192:312|204:266|204:266|342:225,1,285.18751087904,6|0,1:2|0:0,0:0:0:0:
510,209,84418,2,0,B|400:245|400:245|388:291|388:291|250:332,1,285.18751087904,10|0,0:0|0:0,0:0:0:0:
466,313,84777,5,2,1:2:0:0:
397,106,84957,1,2,1:2:0:0:
408,120,85047,1,2,0:0:0:0:
406,138,85137,1,10,0:0:0:0:
320,231,85316,1,2,1:2:0:0:
242,45,85496,6,0,B|89:25|89:25|120:41|121:72,1,211.25,6|0,1:2|0:0,0:0:0:0:
85,215,86035,6,0,B|166:210|188:117|188:117|166:210|242:269,1,316.875012087822,6|0,1:2|0:0,0:0:0:0:
482,250,86574,6,0,B|380:262|293:203|293:203|401:184|489:123|489:123|392:121|292:54,1,591.5,6|0,1:2|0:0,0:0:0:0:
197,22,87292,5,8,0:0:0:0:
202,38,87382,1,8,0:0:0:0:
207,53,87472,2,0,B|229:87|229:87|203:135,1,84.5,0|8,1:0|0:0,0:0:0:0:
85,215,87652,2,0,B|63:181|63:181|83:142,1,84.5,8|0,0:0|0:0,0:0:0:0:
45,313,87831,6,0,B|270:268|270:268|220:288|207:340,1,316.875012087822,6|0,1:2|0:0,0:0:0:0:
293,347,88370,5,6,1:2:0:0:
461,250,88909,5,2,0:0:0:0:
465,266,89089,1,2,0:0:0:0:
383,151,89628,5,2,0:0:0:0:
379,163,89807,2,0,L|364:213,1,42.25,6|0,1:2|0:0,0:0:0:0:
462,85,90167,5,2,0:0:0:0:
466,70,90346,2,0,B|356:33|181:128|181:128|316:106|392:157,1,507,2|0,0:0|0:0,0:0:0:0:
468,147,92682,5,2,0:0:0:0:
380,297,92861,2,0,L|391:229,1,63.3750024175645,2|0,0:0|0:0,0:0:0:0:
474,313,93220,1,2,0:0:0:0:
369,375,93400,1,2,0:0:0:0:
284,283,93580,1,0,0:0:0:0:
155,368,93759,2,0,L|237:359,1,63.3750024175645,2|2,0:0|0:0,0:0:0:0:
114,286,94029,1,2,0:0:0:0:
98,277,94119,6,0,B|56:241|56:241|109:125,1,169,6|8,1:2|0:0,0:0:0:0:
197,39,94658,2,0,B|239:75|239:75|186:191,1,169,2|0,1:2|0:0,0:0:0:0:
320,110,95197,6,0,P|361:82|411:74,1,84.5,10|0,0:0|0:0,0:0:0:0:
487,203,95556,2,0,P|446:192|412:167,1,84.5,2|0,0:0|0:0,0:0:0:0:
310,104,95915,2,0,P|356:73|411:65,1,84.5,10|0,0:0|0:0,0:0:0:0:
496,208,96274,2,0,P|451:195|413:168,1,84.5,2|0,0:0|0:0,0:0:0:0:
311,196,96634,2,0,P|322:241|317:287,1,84.5,10|0,0:0|0:0,0:0:0:0:
390,342,96993,6,0,B|421:297|406:262|406:262|421:297|489:307,1,169,2|10,1:2|0:0,0:0:0:0:
219,81,97532,2,0,B|250:126|235:161|235:161|250:126|318:116,1,169,2|0,1:2|0:0,0:0:0:0:
145,136,98071,2,0,L|44:118,1,84.5,8|2,0:0|0:0,0:0:0:0:
17,227,98340,1,2,0:0:0:0:
36,240,98430,5,2,0:0:0:0:
105,344,98610,1,2,0:0:0:0:
279,242,98789,1,10,0:0:0:0:
164,261,98969,2,0,L|141:113,1,126.75,2|0,0:0|0:0,0:0:0:0:
141,109,99328,5,2,0:0:0:0:
235,62,99508,1,10,0:0:0:0:
76,177,99688,1,2,0:0:0:0:
303,131,99867,6,0,P|376:108|429:180,1,169,6|8,1:2|0:0,0:0:0:0:
308,331,100406,2,0,L|355:188,1,126.75,2|0,1:2|0:0,0:0:0:0:
355,192,100765,1,2,0:0:0:0:
429,286,100945,2,0,B|473:278|473:278|492:318,1,84.5,10|0,0:0|0:0,0:0:0:0:
193,318,101304,2,0,B|129:325|129:325|110:262,1,126.75,2|0,0:0|0:0,0:0:0:0:
107,233,101664,2,0,B|89:172|89:172|25:180,1,126.75,10|0,0:0|0:0,0:0:0:0:
6,187,102023,6,0,B|33:142|33:142|8:83,1,95.0625036263467,2|0,0:0|0:0,0:0:0:0:
13,63,102382,2,0,B|58:51|58:51|98:80,1,95.0625036263467,10|0,0:0|0:0,0:0:0:0:
137,87,102741,6,0,L|331:60,1,169,2|10,1:2|0:0,0:0:0:0:
389,11,103280,2,0,B|437:53|437:53|388:160,1,169,2|0,1:2|0:0,0:0:0:0:
276,241,103819,2,0,L|377:227,1,84.5,8|2,0:0|0:0,0:0:0:0:
473,250,104090,1,2,0:0:0:0:
482,270,104179,5,2,0:0:0:0:
387,348,104358,1,2,0:0:0:0:
148,284,104538,1,10,0:0:0:0:
276,241,104717,1,2,0:0:0:0:
225,354,104897,5,2,0:0:0:0:
98,214,105077,1,2,0:0:0:0:
354,91,105256,1,10,0:0:0:0:
276,241,105436,1,2,0:0:0:0:
180,39,105616,6,0,L|-13:-8,1,169,6|8,1:2|0:0,0:0:0:0:
148,141,106155,2,0,L|370:86,1,211.25,2|0,1:2|0:0,0:0:0:0:
378,80,106694,6,0,B|426:117|426:117|399:202,1,126.75,10|0,0:0|0:0,0:0:0:0:
388,209,107053,2,0,B|367:272|367:272|415:309,1,126.75,2|0,0:0|0:0,0:0:0:0:
439,333,107412,6,0,L|286:311,1,126.75,10|0,0:0|0:0,0:0:0:0:
293,288,107771,2,0,L|140:310,1,126.75,2|0,0:0|0:0,0:0:0:0:
119,344,108131,6,0,B|132:286|132:286|84:231,1,126.75,10|0,0:0|0:0,0:0:0:0:
60,227,108490,2,0,B|40:147|40:147|124:67,1,169,2|10,1:2|0:0,0:0:0:0:
310,183,109029,2,0,L|101:168,1,169,2|0,1:2|0:0,0:0:0:0:
261,96,109568,1,8,0:0:0:0:
361,260,109747,1,0,0:0:0:0:
143,273,109927,5,2,0:0:0:0:
252,220,110107,1,2,0:0:0:0:
146,373,110286,1,10,0:0:0:0:
17,298,110466,1,2,0:0:0:0:
240,324,110646,6,0,L|342:354,1,84.5,2|2,0:0|0:0,0:0:0:0:
408,323,110915,1,2,0:0:0:0:
429,336,111005,2,0,L|510:312,1,84.5,10|2,0:0|0:0,0:0:0:0:
475,117,111364,6,0,B|412:146|412:146|303:105,1,169,6|8,1:2|0:0,0:0:0:0:
154,32,111903,2,0,B|227:4|227:4|277:27,1,126.75,2|0,1:2|0:0,0:0:0:0:
288,36,112262,5,2,0:0:0:0:
165,126,112442,1,10,0:0:0:0:
310,233,112622,1,2,0:0:0:0:
126,364,112801,2,0,L|160:232,1,126.75,2|0,0:0|0:0,0:0:0:0:
166,218,113161,5,10,0:0:0:0:
232,331,113340,1,2,0:0:0:0:
21,269,113520,2,0,L|9:158,1,84.5,2|0,0:0|0:0,0:0:0:0:
109,55,113879,1,10,0:0:0:0:
165,126,114059,1,2,0:0:0:0:
389,62,114232,6,0,L|209:36,1,169,2|10,1:2|0:0,0:0:0:0:
345,171,114770,2,0,L|512:146,1,169,2|0,1:2|0:0,0:0:0:0:
260,149,115309,1,8,0:0:0:0:
316,252,115489,1,6,1:2:0:0:
256,192,115579,12,0,122854,0:0:0:0:
