osu file format v14

[General]
AudioFilename: audio.mp3
AudioLeadIn: 0
PreviewTime: 42382
Countdown: 0
SampleSet: Soft
StackLeniency: 0.5
Mode: 0
LetterboxInBreaks: 0
WidescreenStoryboard: 1

[Editor]
DistanceSpacing: 0.4
BeatDivisor: 4
GridSize: 32
TimelineZoom: 2.1

[Metadata]
Title:Bad for me (Short Ver.)
TitleUnicode:バッドフォーミー (Short Ver.)
Artist:Official HIGE DANdism
ArtistUnicode:Official髭男dism
Creator:Bakugo-
Version:Chizu's Another
Source:グッド・バイ
Tags:HIGEDAN 楢崎誠 小笹大輔 藤原聡 松浦匡希 satoshi fujihara daisuke ozasa makoto narazaki masaki matsuura Theme Song TV Drama Goodbye Stand By You EP Major 1st First Album Traveler オフィシャルヒゲダンディズム jpop j-pop pop japanese version shiwakaze leomineXD leomine freudeman chizu-kun yanaginagi1 freude chizu yanagi
BeatmapID:3654033
BeatmapSetID:1778601

[Difficulty]
HPDrainRate:5
CircleSize:4
OverallDifficulty:7
ApproachRate:8.8
SliderMultiplier:1.59
SliderTickRate:1

[Events]
//Background and Video events
0,0,"Download - Copy.jpg",0,0
//Break Periods
2,88570,93444
//Storyboard Layer 0 (Background)
//Storyboard Layer 1 (Fail)
//Storyboard Layer 2 (Pass)
//Storyboard Layer 3 (Foreground)
//Storyboard Layer 4 (Overlay)
//Storyboard Sound Samples

[TimingPoints]
706,359.281437125748,4,2,1,60,1,0
2143,-125,4,2,1,60,0,0
4927,-125,4,2,1,5,0,0
5017,-125,4,2,1,60,0,0
25137,-166.666666666667,4,2,1,50,0,0
30885,-142.857142857143,4,2,1,50,0,0
36634,-100,4,2,1,60,0,0
38340,-100,4,2,1,5,0,0
38430,-100,4,2,1,60,0,0
39777,-100,4,2,1,5,0,0
39867,-100,4,2,1,60,0,0
41843,-66.6666666666667,4,2,1,60,0,0
42203,-58.8235294117647,4,2,1,60,0,0
42382,-58.8235294117647,4,2,1,70,0,0
51005,-83.3333333333333,4,2,1,70,0,0
51544,-71.4285714285714,4,2,1,70,0,0
52083,-100,4,2,1,70,0,0
53340,-71.4285714285714,4,2,1,70,0,0
53700,-58.8235294117647,4,2,1,70,0,0
62502,-83.3333333333333,4,2,1,70,0,0
63041,-71.4285714285714,4,2,1,70,0,0
63580,-100,4,2,1,70,0,0
64837,-71.4285714285714,4,2,1,70,0,0
65197,-58.8235294117647,4,2,1,70,0,0
73999,-76.9230769230769,4,2,1,70,0,0
74538,-66.6666666666667,4,2,1,70,0,0
75077,-100,4,2,1,70,0,0
76334,-66.6666666666667,4,2,1,70,0,0
76694,-58.8235294117647,4,2,1,70,0,0
85496,-76.9230769230769,4,2,1,70,0,0
86035,-66.6666666666667,4,2,1,70,0,0
86574,-100,4,2,1,70,0,0
87831,-83.3333333333333,4,2,1,70,0,0
94119,-125,4,2,1,60,0,0
114232,359.281437125748,4,2,1,60,1,0
114232,-125,4,2,1,60,0,0

[Colours]
Combo1 : 137,88,88
Combo2 : 49,128,153
Combo3 : 209,114,82
Combo4 : 199,190,188
Combo5 : 118,109,107
Combo6 : 168,2,255
Combo7 : 255,13,13
Combo8 : 13,249,255

[HitObjects]
102,127,2143,6,0,P|51:91|43:28,1,127.2,6|8,1:2|2:0,2:0:0:0:
184,110,2682,2,0,P|178:171|127:210,1,127.2,2|0,1:2|2:0,2:0:0:0:
102,127,3220,1,10,2:0:0:0:
301,71,3580,6,0,P|306:35|318:-10,1,63.6,2|0,2:0|2:0,2:0:0:0:
281,163,3939,2,0,P|276:199|264:244,1,63.6,10|0,2:0|2:0,2:0:0:0:
365,134,4298,2,0,P|401:139|446:151,1,63.6,2|0,2:0|2:0,2:0:0:0:
500,214,4658,2,0,P|512:255|466:302,1,95.4,10|0,2:0|2:0,2:0:0:0:
482,312,5017,6,0,P|418:325|336:343,1,127.2,2|10,1:2|2:0,2:0:0:0:
211,375,5556,2,0,P|267:353|271:293,1,127.2,2|0,1:2|2:0,2:0:0:0:
221,220,6095,2,0,P|187:216|142:209,1,63.6,8|0,2:0|2:0,2:0:0:0:
42,316,6454,6,0,P|48:354|53:393,1,63.6,2|2,2:0|2:0,2:0:0:0:
32,234,6813,1,10,2:0:0:0:
32,234,6993,2,0,L|162:210,1,127.2,2|2,2:0|2:0,2:0:0:0:
62,146,7532,2,0,P|56:108|51:69,1,63.6,10|2,2:0|2:0,2:0:0:0:
195,5,7891,6,0,B|225:36|225:36|200:116,1,127.2,6|8,1:2|2:0,2:0:0:0:
296,189,8430,2,0,L|420:161,1,127.2,2|2,1:2|2:0,2:0:0:0:
485,88,8969,1,10,2:0:0:0:
313,26,9328,6,0,P|291:50|279:79,1,63.6,2|0,2:0|2:0,2:0:0:0:
205,87,9688,2,0,P|206:118|218:147,1,63.6,10|0,2:0|2:0,2:0:0:0:
367,212,10047,2,0,P|365:168|287:165,1,127.2,2|10,2:0|2:0,2:0:0:0:
247,226,10586,1,0,2:0:0:0:
358,328,10765,6,0,P|420:316|483:307,1,127.2,2|10,1:2|2:0,2:0:0:0:
264,369,11304,2,0,B|230:359|230:359|204:305|204:305|170:297,1,127.2,2|0,1:2|2:0,2:0:0:0:
96,352,11843,2,0,L|33:362,1,63.6,8|0,2:0|2:0,2:0:0:0:
75,222,12203,6,0,P|106:222|137:229,1,63.6,2|2,2:0|2:0,2:0:0:0:
217,171,12562,2,0,P|248:170|279:163,1,63.6,10|2,2:0|2:0,2:0:0:0:
359,222,12921,1,2,2:0:0:0:
359,222,13101,1,2,2:0:0:0:
398,91,13280,1,10,2:0:0:0:
504,176,13460,1,2,2:0:0:0:
504,176,13550,1,0,2:0:0:0:
504,175,13640,6,0,P|491:238|484:301,1,127.2,6|8,1:2|2:0,2:0:0:0:
360,343,14179,2,0,P|328:289|346:230,1,127.2,2|0,1:2|2:0,2:0:0:0:
293,138,14717,2,0,L|381:145,1,63.6,10|0,2:0|2:0,2:0:0:0:
356,143,14987,1,0,2:0:0:0:
356,143,15077,6,0,P|385:108|374:18,2,127.2,2|10|2,2:0|2:0|2:0,2:0:0:0:
290,86,15975,1,0,2:0:0:0:
220,134,16155,2,0,P|174:138|111:145,1,95.4,10|0,2:0|2:0,2:0:0:0:
104,122,16514,6,0,P|64:115|58:33,1,127.2,2|10,1:2|2:0,2:0:0:0:
194,0,17053,2,0,B|210:21|210:21|196:129,1,127.2,2|0,1:2|2:0,2:0:0:0:
160,216,17592,2,0,L|72:239,1,63.6,8|0,2:0|2:0,2:0:0:0:
14,313,17951,6,0,P|49:322|70:356,1,63.6,2|2,2:0|2:0,2:0:0:0:
163,384,18310,2,0,P|153:349|172:314,1,63.6,10|2,2:0|2:0,2:0:0:0:
303,274,18670,2,0,P|293:333|234:345,1,127.2,2|10,2:0|2:0,2:0:0:0:
223,265,19208,1,2,2:0:0:0:
356,194,19388,6,0,P|418:183|481:172,1,127.2,6|8,1:2|2:0,2:0:0:0:
326,119,19927,2,0,P|294:113|288:25,1,127.2,2|0,1:2|2:0,2:0:0:0:
387,69,20466,2,0,L|451:57,1,63.6,10|0,2:0|2:0,2:0:0:0:
449,57,20735,1,0,2:0:0:0:
449,57,20825,6,0,P|474:113|453:172,2,127.2,2|10|2,2:0|2:0|2:0,2:0:0:0:
356,81,21723,1,2,2:0:0:0:
268,113,21903,2,0,P|236:104|186:97,1,63.6,10|2,2:0|2:0,2:0:0:0:
96,31,22262,6,0,B|34:23|34:23|17:92,1,127.2,2|10,1:2|2:0,2:0:0:0:
61,214,22801,2,0,P|100:177|74:90,1,127.2,2|0,1:2|2:0,2:0:0:0:
177,25,23340,2,0,P|215:25|253:45,1,63.6,10|0,2:0|1:0,2:0:0:0:
284,123,23700,6,0,L|269:195,1,63.6,0|0,1:0|2:0,2:0:0:0:
373,71,24059,2,0,L|360:8,1,63.6,8|0,2:0|2:0,2:0:0:0:
464,105,24418,2,0,P|501:155|479:212,1,127.2,2|10,2:0|2:0,2:0:0:0:
411,332,25137,6,0,P|317:349|224:370,1,190.8,6|2,2:0|2:0,2:0:0:0:
140,298,26214,1,2,2:0:0:0:
224,370,26574,2,0,P|259:342|224:210,1,190.8,2|2,2:0|2:0,2:0:0:0:
316,137,27652,1,2,2:0:0:0:
433,209,28011,2,0,P|416:298|405:368,1,143.1,2|0,2:0|2:0,2:0:0:0:
335,286,28729,2,0,P|293:305|282:350,1,95.3999999999998,2|2,2:0|2:0,2:0:0:0:
350,198,29448,6,0,P|338:127|324:57,1,143.1,2|0,2:0|3:0,2:0:0:0:
314,47,30077,1,0,3:0:0:0:
314,47,30167,2,0,L|248:36,1,47.6999999999999,2|0,3:2|3:0,2:0:0:0:
202,94,30526,2,0,L|154:101,1,47.6999999999999,2|0,3:2|2:0,2:0:0:0:
36,45,30885,6,0,P|13:96|15:151,2,111.3,6|2|2,2:0|2:0|2:0,2:0:0:0:
163,8,31963,1,2,2:0:0:0:
233,182,32322,2,0,B|171:198|211:235|132:255,1,111.3,2|0,2:0|2:0,2:0:0:0:
149,249,33041,1,2,2:0:0:0:
87,367,33400,1,2,2:0:0:0:
16,253,33759,6,0,P|13:198|50:158,1,111.3,2|0,2:0|2:0,2:0:0:0:
163,198,34478,2,0,P|165:252|128:292,1,111.3,2|2,2:0|2:0,2:0:0:0:
321,347,35197,6,0,B|502:416|457:265|395:297,1,222.6,2|2,2:0|2:0,2:0:0:0:
398,295,36274,1,2,2:0:0:0:
503,189,36634,6,0,P|478:130|519:77,1,119.25,6|0,1:2|2:0,2:0:0:0:
503,86,36993,2,0,L|417:68,1,79.5,2|2,1:2|2:0,2:0:0:0:
402,190,37352,2,0,L|324:206,1,79.5,2|2,1:2|2:0,2:0:0:0:
222,136,37711,1,2,1:2:0:0:
204,264,37891,1,2,2:0:0:0:
204,264,37981,1,0,2:0:0:0:
204,264,38071,6,0,P|249:287|252:359,1,119.25,6|0,1:2|2:0,2:0:0:0:
256,350,38430,2,0,P|215:363|177:378,1,79.5,2|2,1:2|2:0,2:0:0:0:
334,249,38789,2,0,P|371:263|409:274,1,79.5,2|0,1:2|2:0,2:0:0:0:
210,167,39149,2,0,P|168:179|130:194,1,79.5,2|0,1:2|2:0,2:0:0:0:
314,65,39508,6,0,B|374:56|374:56|403:108,1,119.25,6|0,1:2|2:0,2:0:0:0:
411,103,39867,1,6,1:2:0:0:
322,162,40047,1,0,2:0:0:0:
381,251,40226,1,6,1:2:0:0:
322,162,40406,1,2,2:0:0:0:
234,221,40586,1,6,1:2:0:0:
322,162,40765,1,2,2:0:0:0:
233,32,40945,6,0,B|199:31|199:31|137:89|137:89|88:88,1,159,12|2,2:0|1:2,2:0:0:0:
40,46,41394,2,0,L|31:0,3,39.75,2|2|2|2,2:0|2:0|2:0|2:0,2:0:0:0:
103,167,41843,6,0,P|119:214|49:267,1,119.25,4|8,2:0|2:0,2:0:0:0:
0,342,42203,6,0,P|62:318|130:315,1,135.15,6|2,2:0|2:0,2:0:0:0:
195,344,42472,1,0,2:0:0:0:
203,347,42562,1,0,2:0:0:0:
204,355,42652,1,0,2:0:0:0:
187,384,42741,5,12,2:1:0:0:
283,247,42921,1,2,2:0:0:0:
411,341,43101,2,0,L|493:357,1,67.575,2|0,1:2|2:0,2:0:0:0:
406,333,43280,2,0,L|488:349,1,67.575,0|0,2:0|2:0,2:0:0:0:
307,372,43460,2,0,P|368:354|380:291,1,135.15,8|2,2:0|2:0,2:0:0:0:
433,243,43729,1,2,2:0:0:0:
441,246,43819,6,0,P|459:220|444:191,1,67.575,2|0,1:2|2:0,2:0:0:0:
387,141,43999,2,0,P|368:115|336:119,1,67.575,0|0,2:0|2:0,2:0:0:0:
263,149,44179,1,10,2:0:0:0:
283,247,44358,1,2,2:0:0:0:
164,56,44538,6,0,P|152:94|148:121,1,67.575,2|0,1:2|2:0,2:0:0:0:
175,55,44717,2,0,P|164:88|158:121,1,67.575,2|0,1:2|2:0,2:0:0:0:
80,167,44897,1,8,2:0:0:0:
241,5,45077,6,0,B|248:88|294:44|303:128,1,135.15,6|0,1:2|2:0,2:0:0:0:
360,169,45346,1,0,2:0:0:0:
367,174,45436,2,0,P|402:161|414:113,1,67.575,2|2,1:2|2:0,2:0:0:0:
472,12,45616,2,0,L|467:93,1,67.575,10|0,2:0|2:0,2:0:0:0:
512,142,45795,2,0,L|507:223,1,67.575,2|0,2:0|2:0,2:0:0:0:
442,270,45975,5,2,1:2:0:0:
410,129,46155,1,2,1:2:0:0:
404,121,46244,1,0,2:0:0:0:
400,112,46334,1,10,2:0:0:0:
286,197,46514,1,2,2:0:0:0:
402,346,46694,6,0,B|473:331|473:331|447:249,1,135.15,2|0,1:2|2:0,2:0:0:0:
382,272,46963,1,0,2:0:0:0:
376,274,47053,1,10,2:0:0:0:
322,380,47232,1,0,2:0:0:0:
213,252,47412,6,0,P|205:224|222:243,1,67.575,2|0,1:2|2:0,2:0:0:0:
205,255,47592,2,0,P|185:233|209:243,1,67.575,2|0,1:2|2:0,2:0:0:0:
296,295,47771,1,10,2:0:0:0:
109,384,47951,6,0,B|194:391|155:324|246:340,1,135.15,6|2,2:0|1:2,2:0:0:0:
304,335,48220,1,0,2:0:0:0:
312,332,48310,1,0,2:0:0:0:
313,324,48400,1,0,2:0:0:0:
296,295,48490,6,0,P|310:236|366:257,1,135.15,10|0,2:0|2:0,2:0:0:0:
506,334,48849,2,0,P|473:343|441:353,1,67.575,2|0,1:2|2:0,2:0:0:0:
512,323,49029,2,0,P|479:332|447:342,1,67.575,2|2,1:2|2:0,2:0:0:0:
389,290,49208,1,10,2:0:0:0:
501,199,49388,1,2,2:0:0:0:
363,141,49568,6,0,P|313:91|343:31,1,135.15,6|0,1:2|2:0,2:0:0:0:
401,9,49837,1,0,2:0:0:0:
412,14,49927,2,0,P|454:41|388:64,1,135.15,10|0,2:0|2:0,2:0:0:0:
225,0,50286,2,0,L|244:82,1,67.575,2|0,1:2|2:0,2:0:0:0:
217,5,50466,2,0,L|236:87,1,67.575,2|2,1:2|2:0,2:0:0:0:
182,129,50646,1,10,2:0:0:0:
317,190,50825,1,2,1:2:0:0:
323,197,50915,1,0,2:0:0:0:
326,206,51005,6,0,P|244:254|206:340,1,190.8,6|0,1:2|2:0,2:0:0:0:
19,209,51544,6,0,P|104:269|126:406,1,222.6,6|0,1:2|2:0,2:0:0:0:
255,150,52083,6,0,B|211:176|173:229|173:229|131:176|79:149,1,238.5,6|0,1:2|1:2,2:0:0:0:
179,27,52801,1,8,2:0:0:0:
169,117,52981,1,0,1:2:0:0:
182,11,53161,1,8,2:0:0:0:
254,150,53340,2,0,P|309:140|365:134,1,111.3,2|0,1:2|2:0,2:0:0:0:
463,289,53700,6,0,B|396:267|404:210|404:210|424:199|437:181,1,135.15,6|2,1:2|2:0,2:0:0:0:
440,122,53969,1,0,2:0:0:0:
448,119,54059,1,0,2:0:0:0:
449,111,54149,1,0,2:0:0:0:
432,82,54238,5,12,2:1:0:0:
316,1,54418,1,2,2:0:0:0:
254,150,54598,2,0,L|262:217,1,67.575,2|0,1:2|2:0,2:0:0:0:
262,158,54777,2,0,L|270:225,1,67.575,0|0,2:0|2:0,2:0:0:0:
320,78,54957,2,0,B|235:78|282:17|179:22,1,135.15,8|2,2:0|2:0,2:0:0:0:
131,49,55226,1,2,2:0:0:0:
121,53,55316,6,0,P|98:76|94:108,1,67.575,2|0,1:2|2:0,2:0:0:0:
21,147,55496,2,0,P|20:180|41:205,1,67.575,0|0,2:0|2:0,2:0:0:0:
66,276,55676,1,10,2:0:0:0:
188,221,55855,1,2,2:0:0:0:
32,348,56035,6,0,L|98:358,1,67.575,2|0,1:2|2:0,2:0:0:0:
22,354,56214,2,0,L|88:364,1,67.575,2|0,1:2|2:0,2:0:0:0:
163,316,56394,1,8,2:0:0:0:
285,194,56574,6,0,L|307:351,1,135.15,6|0,1:2|2:0,2:0:0:0:
364,373,56843,1,0,2:0:0:0:
371,376,56933,1,2,1:2:0:0:
378,371,57023,1,2,2:0:0:0:
386,339,57113,6,0,P|430:310|494:381,1,135.15,10|0,2:0|2:0,2:0:0:0:
388,241,57472,2,0,P|375:209|380:176,1,67.575,2|0,1:2|2:0,2:0:0:0:
332,105,57652,2,0,P|352:78|383:66,1,67.575,2|0,1:2|2:0,2:0:0:0:
511,145,57831,2,0,P|446:159|380:177,1,135.15,10|2,2:0|2:0,2:0:0:0:
323,97,58101,1,0,2:0:0:0:
312,89,58191,6,0,P|249:81|236:13,1,135.15,2|0,1:2|2:0,2:0:0:0:
159,61,58460,1,0,2:0:0:0:
147,57,58550,2,0,B|80:56|80:56|77:124,1,135.15,10|2,2:0|2:0,2:0:0:0:
21,171,58819,1,2,2:0:0:0:
14,181,58909,2,0,L|7:248,1,67.575,2|0,1:2|2:0,2:0:0:0:
53,316,59089,2,0,L|46:383,1,67.575,2|0,1:2|2:0,2:0:0:0:
173,251,59268,1,10,2:0:0:0:
287,354,59448,6,0,P|355:367|392:305,1,135.15,6|2,2:0|1:2,2:0:0:0:
358,255,59717,1,0,2:0:0:0:
351,249,59807,1,0,2:0:0:0:
344,251,59897,1,0,2:0:0:0:
325,279,59987,6,0,P|316:207|306:137,1,135.15,10|0,2:0|2:0,2:0:0:0:
419,23,60346,2,0,P|439:18|490:51,1,67.575,2|0,1:2|2:0,2:0:0:0:
464,112,60526,2,0,P|444:117|393:84,1,67.575,2|2,1:2|2:0,2:0:0:0:
314,35,60705,2,0,B|283:43|245:25|245:25|249:65|224:87,1,135.15,10|2,2:0|2:0,2:0:0:0:
170,33,60975,1,0,2:0:0:0:
159,27,61065,6,0,P|100:30|75:119,1,135.15,6|0,1:2|2:0,2:0:0:0:
24,152,61334,1,0,2:0:0:0:
32,160,61424,2,0,B|26:198|56:234|56:234|89:222|126:243,1,135.15,10|0,2:0|2:0,2:0:0:0:
260,346,61783,2,0,P|221:375|196:369,1,67.575,2|0,1:2|2:0,2:0:0:0:
133,342,61963,2,0,P|88:324|81:299,1,67.575,2|2,1:2|2:0,2:0:0:0:
109,235,62143,1,10,2:0:0:0:
241,161,62322,1,2,1:2:0:0:
331,291,62502,6,0,P|402:299|443:194,1,190.8,6|0,1:2|2:0,2:0:0:0:
260,346,63041,6,0,P|188:356|152:232,1,222.6,6|0,1:2|2:0,2:0:0:0:
333,27,63580,6,0,B|349:72|395:93|395:93|311:125|253:52|253:52|210:63|199:108,1,318,6|10,1:2|2:0,2:0:0:0:
257,155,64388,1,2,2:0:0:0:
257,155,64478,2,0,L|261:194,1,39.75,10|10,2:0|2:0,2:0:0:0:
279,273,64658,1,10,2:0:0:0:
54,84,64837,6,0,P|49:141|39:199,1,111.3,6|10,1:2|2:0,2:0:0:0:
64,370,65197,6,0,B|21:368|21:368|114:346,1,135.15,6|2,1:2|2:0,2:0:0:0:
180,375,65466,1,0,2:0:0:0:
186,359,65556,1,0,2:0:0:0:
199,348,65646,1,0,2:0:0:0:
239,347,65735,5,12,2:1:0:0:
104,245,65915,1,2,2:0:0:0:
257,155,66095,2,0,P|290:161|323:165,1,67.575,2|0,1:2|2:0,2:0:0:0:
252,147,66274,2,0,P|285:153|318:157,1,67.575,0|0,2:0|2:0,2:0:0:0:
403,167,66454,1,8,2:0:0:0:
257,29,66634,6,0,P|225:38|207:66,1,67.575,2|2,2:0|2:0,2:0:0:0:
135,80,66813,2,0,P|178:125|147:180,1,135.15,2|0,1:2|2:0,2:0:0:0:
104,245,67083,1,0,2:0:0:0:
94,250,67173,2,0,B|8:232|8:232|-4:179,1,135.15,10|2,2:0|2:0,2:0:0:0:
41,122,67442,1,2,2:0:0:0:
52,116,67532,2,0,L|61:33,1,67.575,2|0,1:2|2:0,2:0:0:0:
147,180,67711,2,0,B|229:192|171:241|261:257,1,135.15,2|10,1:2|2:0,2:0:0:0:
496,263,68071,6,0,P|431:259|416:334,1,135.15,6|0,1:2|2:0,2:0:0:0:
350,361,68340,1,0,2:0:0:0:
337,362,68430,2,0,P|309:345|304:304,1,67.575,2|2,1:2|2:0,2:0:0:0:
344,248,68610,1,10,2:0:0:0:
456,377,68789,1,2,2:0:0:0:
405,183,68969,6,0,P|418:152|420:118,1,67.575,2|0,1:2|2:0,2:0:0:0:
337,101,69149,2,0,P|323:131|321:165,1,67.575,2|0,1:2|2:0,2:0:0:0:
344,248,69328,1,10,2:0:0:0:
496,171,69508,1,2,2:0:0:0:
322,26,69688,6,0,B|283:35|283:35|255:88|255:88|206:101,1,135.15,2|0,1:2|2:0,2:0:0:0:
166,153,69957,1,0,2:0:0:0:
155,150,70047,2,0,B|133:128|136:88|136:88|110:123|59:119,1,135.15,10|2,2:0|2:0,2:0:0:0:
28,364,70406,6,0,P|57:344|65:299,1,67.575,2|0,1:2|2:0,2:0:0:0:
117,256,70586,2,0,P|114:221|79:191,1,67.575,2|0,1:2|2:0,2:0:0:0:
19,172,70765,1,10,2:0:0:0:
177,347,70945,6,0,P|243:355|287:301,1,135.15,6|2,2:0|1:2,2:0:0:0:
333,254,71214,1,0,2:0:0:0:
334,236,71304,1,0,2:0:0:0:
327,221,71394,1,0,2:0:0:0:
291,203,71484,6,0,P|228:196|144:184,1,135.15,10|0,2:0|2:0,2:0:0:0:
265,20,71843,2,0,P|293:13|323:51,1,67.575,2|0,1:2|2:0,2:0:0:0:
397,35,72023,2,0,P|417:55|399:100,1,67.575,2|2,1:2|2:0,2:0:0:0:
466,147,72203,1,10,2:0:0:0:
291,203,72382,1,2,2:0:0:0:
493,328,72562,6,0,P|426:314|360:303,1,135.15,6|0,1:2|2:0,2:0:0:0:
288,281,72831,1,0,2:0:0:0:
276,287,72921,2,0,P|248:344|185:336,1,135.15,10|0,2:0|2:0,2:0:0:0:
8,171,73280,2,0,P|50:178|69:205,1,67.575,2|0,1:2|2:0,2:0:0:0:
136,211,73460,2,0,P|150:251|136:281,1,67.575,2|2,1:2|2:0,2:0:0:0:
107,344,73640,1,10,2:0:0:0:
116,133,73819,1,2,1:2:0:0:
113,116,73909,1,0,2:0:0:0:
110,99,73999,6,0,B|216:66|216:66|246:157,1,206.7,6|0,1:2|2:0,2:0:0:0:
469,41,74538,6,0,B|351:9|351:9|314:119,1,238.5,6|0,1:2|2:0,2:0:0:0:
472,266,75077,6,0,B|410:257|381:193|381:193|367:262|316:286,1,238.5,6|0,1:2|1:2,2:0:0:0:
209,257,75795,1,8,2:0:0:0:
244,380,75975,1,0,1:2:0:0:
204,241,76155,1,8,2:0:0:0:
117,342,76334,6,0,L|0:367,1,119.25,2|0,1:2|2:0,2:0:0:0:
145,166,76694,6,0,B|234:177|188:116|282:123,1,135.15,6|2,1:2|2:0,2:0:0:0:
321,72,76963,1,0,2:0:0:0:
328,56,77053,1,0,2:0:0:0:
326,39,77143,1,0,2:0:0:0:
299,10,77232,5,12,2:1:0:0:
409,73,77412,1,2,2:0:0:0:
387,208,77592,2,0,P|340:221|325:249,1,67.575,2|0,1:2|2:0,2:0:0:0:
254,254,77771,2,0,P|241:301|258:328,1,67.575,0|0,2:0|2:0,2:0:0:0:
353,354,77951,2,0,P|285:360|219:373,1,135.15,8|2,2:0|2:0,2:0:0:0:
152,343,78220,1,2,2:0:0:0:
143,350,78310,6,0,P|93:309|112:248,1,135.15,2|0,1:2|2:0,2:0:0:0:
149,179,78580,1,0,2:0:0:0:
138,176,78670,2,0,B|102:171|79:141|79:141|73:185|40:213,1,135.15,10|2,2:0|2:0,2:0:0:0:
176,24,79029,2,0,P|217:30|234:60,1,67.575,2|0,1:2|2:0,2:0:0:0:
308,60,79208,2,0,P|323:98|305:128,1,67.575,2|0,1:2|2:0,2:0:0:0:
338,192,79388,1,8,2:0:0:0:
493,38,79568,6,0,B|499:97|499:97|501:102|501:102|508:174,1,135.15,6|0,1:2|2:0,2:0:0:0:
452,252,79837,1,0,2:0:0:0:
441,244,79927,2,0,P|424:206|438:175,1,67.575,0|0,1:2|2:0,2:0:0:0:
475,119,80107,1,10,2:0:0:0:
512,299,80286,1,2,2:0:0:0:
327,197,80466,6,0,P|294:200|261:207,1,67.575,2|0,1:2|2:0,2:0:0:0:
274,288,80646,2,0,P|307:284|340:277,1,67.575,2|0,1:2|2:0,2:0:0:0:
386,127,80825,6,0,B|389:58|389:58|311:52,1,135.15,10|2,2:0|2:0,2:0:0:0:
252,30,81095,1,0,2:0:0:0:
241,23,81185,2,0,P|182:42|186:111,1,135.15,2|0,1:2|2:0,2:0:0:0:
257,133,81454,1,0,2:0:0:0:
251,142,81544,2,0,B|229:170|234:208|234:208|198:181|155:185,1,135.15,10|2,2:0|2:0,2:0:0:0:
10,334,81903,2,0,P|36:354|69:358,1,67.575,2|0,1:2|2:0,2:0:0:0:
126,303,82083,2,0,P|156:290|176:263,1,67.575,2|0,1:2|2:0,2:0:0:0:
150,184,82262,1,10,2:0:0:0:
276,363,82442,6,0,P|290:299|322:238,1,135.15,2|6,2:0|1:2,2:0:0:0:
395,229,82711,1,0,2:0:0:0:
411,236,82801,1,0,2:0:0:0:
428,234,82891,1,0,2:0:0:0:
456,207,82981,6,0,P|495:155|467:98,1,135.15,10|0,2:0|2:0,2:0:0:0:
259,11,83340,2,0,P|275:50|310:64,1,67.575,2|0,1:2|2:0,2:0:0:0:
334,128,83520,2,0,P|376:122|399:92,1,67.575,2|2,1:2|2:0,2:0:0:0:
466,83,83700,1,10,2:0:0:0:
260,158,83879,1,2,2:0:0:0:
244,163,83969,1,0,2:0:0:0:
228,169,84059,6,0,B|193:173|161:154|161:154|168:192|151:227,1,135.15,6|0,1:2|2:0,2:0:0:0:
231,250,84328,1,0,2:0:0:0:
223,257,84418,2,0,P|156:271|93:295,1,135.15,10|0,2:0|2:0,2:0:0:0:
0,90,84777,2,0,P|30:77|63:85,1,67.575,2|0,1:2|2:0,2:0:0:0:
140,54,84957,2,0,P|167:72|179:103,1,67.575,2|2,1:2|2:0,2:0:0:0:
228,169,85137,1,10,2:0:0:0:
98,297,85316,1,2,1:2:0:0:
82,291,85406,1,0,2:0:0:0:
69,280,85496,6,0,P|152:269|199:391,1,206.7,6|0,1:2|2:0,2:0:0:0:
433,261,86035,6,0,P|321:265|290:372,1,238.5,6|0,1:2|2:0,2:0:0:0:
152,163,86574,6,0,B|203:172|223:204|223:204|287:193|285:120|285:120|264:140|238:144,1,238.5,6|0,1:2|2:0,2:0:0:0:
91,103,87292,1,8,2:0:0:0:
197,38,87472,1,0,1:0:0:0:
202,25,87562,1,8,2:0:0:0:
207,13,87652,1,8,2:0:0:0:
3,82,87831,2,0,L|207:49,1,190.8,6|0,1:2|2:0,2:0:0:0:
379,137,88370,5,6,1:2:0:0:
17,353,94119,6,0,P|86:329|142:335,1,127.2,6|8,1:2|2:0,2:0:0:0:
230,256,94658,2,0,P|221:325|218:382,1,127.2,2|0,1:2|2:0,2:0:0:0:
299,338,95197,1,10,2:0:0:0:
179,191,95556,6,0,P|167:161|169:129,1,63.6,2|0,2:0|2:0,2:0:0:0:
251,117,95915,2,0,P|262:146|260:178,1,63.6,10|0,2:0|2:0,2:0:0:0:
230,256,96274,1,2,2:0:0:0:
96,227,96454,2,0,L|59:219,1,31.8,0|0,2:0|2:0,2:0:0:0:
25,231,96634,2,0,P|0:191|0:144,1,95.4,10|0,2:0|2:0,2:0:0:0:
12,121,96993,6,0,L|136:96,1,127.2,2|10,1:2|2:0,2:0:0:0:
220,15,97532,2,0,L|344:39,1,127.2,2|0,1:2|2:0,2:0:0:0:
433,58,98071,1,8,2:0:0:0:
464,254,98430,6,0,P|471:222|479:192,1,63.6,2|2,2:0|2:0,2:0:0:0:
388,291,98789,1,10,2:0:0:0:
388,291,98969,2,0,P|396:321|403:352,1,63.6,2|0,2:0|2:0,2:0:0:0:
318,244,99328,1,2,2:0:0:0:
287,320,99508,1,10,2:0:0:0:
201,338,99688,2,0,P|183:333|170:330,1,31.8,2|0,2:0|2:0,2:0:0:0:
133,296,99867,6,0,P|93:307|78:389,1,127.2,6|8,1:2|2:0,2:0:0:0:
19,265,100406,2,0,P|12:201|1:139,1,127.2,2|2,1:2|2:0,2:0:0:0:
75,71,100945,1,10,2:0:0:0:
245,226,101304,6,0,L|257:155,1,63.6,2|0,2:0|2:0,2:0:0:0:
321,74,101664,2,0,L|331:136,1,63.6,10|0,2:0|2:0,2:0:0:0:
397,225,102023,2,0,L|409:154,1,63.6,2|0,2:0|2:0,2:0:0:0:
500,113,102382,2,0,P|483:72|452:62,1,63.6,10|0,2:0|2:0,2:0:0:0:
446,35,102652,1,0,2:0:0:0:
433,30,102741,6,0,P|375:27|314:84,1,127.2,2|10,1:2|2:0,2:0:0:0:
230,140,103280,2,0,P|241:202|249:265,1,127.2,2|0,1:2|2:0,2:0:0:0:
347,338,103819,1,8,2:0:0:0:
150,357,104179,6,0,L|86:373,1,63.6,2|2,2:0|2:0,2:0:0:0:
61,293,104538,2,0,L|0:277,1,63.6,10|2,2:0|2:0,2:0:0:0:
126,244,104897,1,2,2:0:0:0:
126,244,105077,1,2,2:0:0:0:
163,167,105256,1,10,2:0:0:0:
65,117,105436,1,2,2:0:0:0:
63,106,105526,1,0,2:0:0:0:
60,96,105616,6,0,P|94:45|155:47,1,127.2,6|8,1:2|2:0,2:0:0:0:
302,4,106155,2,0,P|294:71|289:130,1,127.2,2|0,1:2|2:0,2:0:0:0:
394,74,106694,1,10,2:0:0:0:
488,238,107053,6,0,P|489:273|480:312,1,63.6,2|0,2:0|2:0,2:0:0:0:
406,357,107412,2,0,P|400:325|401:294,1,63.6,10|0,2:0|2:0,2:0:0:0:
337,243,107771,2,0,P|342:211|341:180,1,63.6,2|0,2:0|2:0,2:0:0:0:
258,269,108131,2,0,P|217:274|198:332,1,95.4,10|0,2:0|2:0,2:0:0:0:
179,350,108490,6,0,P|116:360|54:376,1,127.2,2|10,1:2|2:0,2:0:0:0:
0,245,109029,2,0,P|61:260|124:271,1,127.2,2|0,1:2|2:0,2:0:0:0:
201,194,109568,1,8,2:0:0:0:
401,109,109927,6,0,P|433:100|462:93,1,63.6,2|2,2:0|2:0,2:0:0:0:
362,32,110286,2,0,P|331:23|300:16,1,63.6,10|2,2:0|2:0,2:0:0:0:
215,66,110646,2,0,P|182:104|211:168,1,127.2,2|10,2:0|2:0,2:0:0:0:
291,154,111185,1,2,2:0:0:0:
403,240,111364,6,0,P|387:301|376:364,1,127.2,6|8,1:2|2:0,2:0:0:0:
298,278,111903,2,0,P|237:272|203:322,1,127.2,2|2,1:2|2:0,2:0:0:0:
134,370,112442,2,0,P|104:375|71:381,1,63.6,10|2,2:0|2:0,2:0:0:0:
0,266,112801,6,0,P|60:273|97:224,1,127.2,2|10,2:0|2:0,2:0:0:0:
172,167,113340,1,2,2:0:0:0:
172,167,113520,2,0,L|186:13,1,127.2,2|10,2:0|2:0,2:0:0:0:
102,77,114059,1,2,2:0:0:0:
246,195,114232,6,0,P|305:170|357:204,1,127.2,2|10,1:2|2:0,2:0:0:0:
444,288,114770,2,0,P|434:225|428:161,1,127.2,2|0,1:2|2:0,2:0:0:0:
486,97,115309,1,8,2:0:0:0:
354,200,115489,5,6,1:2:0:0:
