osu file format v14

[General]
AudioFilename: audio.mp3
AudioLeadIn: 0
PreviewTime: 5154
Countdown: 1
SampleSet: None
StackLeniency: 0.7
Mode: 0
LetterboxInBreaks: 0
WidescreenStoryboard: 1

[Editor]
DistanceSpacing: 0.8
BeatDivisor: 8
GridSize: 4
TimelineZoom: 2

[Metadata]
Title:fortnite initial d battle royale real gamer hours
TitleUnicode:fortnite initial d battle royale real gamer hours
Artist:Odyssey
ArtistUnicode:Odyssey
Creator:Muukeh
Version:toeter Royale
Source:Fortnite
Tags:short meme
BeatmapID:1820078
BeatmapSetID:871017

[Difficulty]
HPDrainRate:0
CircleSize:10
OverallDifficulty:8
ApproachRate:8.8
SliderMultiplier:1.1
SliderTickRate:1

[Events]
//Background and Video events
0,0,"initial f aaaaaaaaaaaaaaaa.png",0,0
//Break Periods
//Storyboard Layer 0 (Background)
//Storyboard Layer 1 (Fail)
//Storyboard Layer 2 (Pass)
//Storyboard Layer 3 (Foreground)
//Storyboard Sound Samples

[TimingPoints]
63.9173379666849,363.636363636364,4,3,0,40,1,0
5882,-100,4,3,0,40,0,1
12245,-76.9230769230769,4,3,0,40,0,1
13154,-100,4,3,0,40,0,0

[HitObjects]
163,275,63,5,0,0:0:0:0:
194,263,245,1,0,0:0:0:0:
168,242,427,1,0,0:0:0:0:
199,231,609,1,0,0:0:0:0:
199,231,700,1,0,0:0:0:0:
199,231,791,1,0,0:0:0:0:
225,250,973,1,0,0:0:0:0:
230,217,1154,1,0,0:0:0:0:
257,235,1336,1,0,0:0:0:0:
273,232,1427,1,0,0:0:0:0:
289,235,1518,6,0,B|298:232|302:226|302:226|306:238|306:238|313:228|326:223,1,54.9999999999999
359,225,1882,1,0,0:0:0:0:
385,205,2063,1,0,0:0:0:0:
376,191,2154,1,0,0:0:0:0:
386,178,2245,1,0,0:0:0:0:
368,150,2427,1,0,0:0:0:0:
335,152,2609,1,0,0:0:0:0:
310,129,2791,2,0,B|305:117|305:117|309:98,1,27.5
315,76,2973,5,0,0:0:0:0:
263,93,3154,1,0,0:0:0:0:
261,148,3336,1,0,0:0:0:0:
249,160,3427,1,0,0:0:0:0:
232,162,3518,1,0,0:0:0:0:
217,154,3609,1,0,0:0:0:0:
208,139,3700,5,0,0:0:0:0:
200,153,3791,1,0,0:0:0:0:
184,158,3882,1,0,0:0:0:0:
167,154,3973,1,0,0:0:0:0:
156,141,4063,5,0,0:0:0:0:
159,162,4154,1,0,0:0:0:0:
162,183,4245,1,0,0:0:0:0:
166,204,4336,1,0,0:0:0:0:
170,225,4427,5,0,0:0:0:0:
340,269,5154,6,0,L|324:264,1,13.75
318,262,5245,2,0,L|301:257,1,13.75
296,256,5336,1,0,0:0:0:0:
300,272,5427,1,0,0:0:0:0:
304,287,5518,6,0,L|289:282,1,13.75
282,280,5609,2,0,L|268:276,1,13.75
260,273,5700,1,0,0:0:0:0:
264,288,5791,1,0,0:0:0:0:
269,303,5882,6,0,B|253:304|243:295|243:295|228:298|217:290,1,54.9999999999999
187,244,6245,1,0,0:0:0:0:
168,307,6427,1,0,0:0:0:0:
162,285,6518,1,0,0:0:0:0:
144,271,6609,6,0,P|131:268|112:272,1,27.5
78,271,6791,2,0,P|91:265|102:254,1,27.5
112,218,6973,1,0,0:0:0:0:
62,174,7154,5,0,0:0:0:0:
55,158,7245,1,0,0:0:0:0:
57,141,7336,1,0,0:0:0:0:
68,128,7427,1,0,0:0:0:0:
83,123,7518,1,0,0:0:0:0:
124,150,7700,5,0,0:0:0:0:
140,152,7791,1,0,0:0:0:0:
155,147,7882,1,0,0:0:0:0:
168,136,7973,1,0,0:0:0:0:
171,119,8063,1,0,0:0:0:0:
155,54,8245,5,0,0:0:0:0:
212,21,8427,1,0,0:0:0:0:
205,42,8518,1,0,0:0:0:0:
215,61,8609,1,0,0:0:0:0:
209,82,8700,1,0,0:0:0:0:
219,101,8791,6,0,B|238:97|238:97|250:99|250:99|272:94,1,54.9999999999999
325,78,9154,1,0,0:0:0:0:
384,105,9336,6,0,P|370:107|355:117,1,27.5
341,142,9518,2,0,P|355:151|361:164,1,27.5
358,193,9700,1,0,0:0:0:0:
308,237,9882,1,0,0:0:0:0:
371,252,10063,5,0,0:0:0:0:
392,245,10154,1,0,0:0:0:0:
413,238,10245,1,0,0:0:0:0:
434,231,10336,1,0,0:0:0:0:
455,225,10427,2,0,B|447:236|447:236|445:251,1,27.5
443,283,10609,1,0,0:0:0:0:
389,296,10791,2,0,P|378:304|371:319,1,27.5
367,343,10973,5,0,0:0:0:0:
347,352,11064,1,0,0:0:0:0:
325,347,11154,1,0,0:0:0:0:
314,327,11246,1,0,0:0:0:0:
318,305,11337,5,0,0:0:0:0:
291,311,11428,1,0,0:0:0:0:
264,317,11519,1,0,0:0:0:0:
237,323,11610,1,0,0:0:0:0:
210,329,11700,6,0,B|194:331|184:321|184:321|175:311|155:314,2,54.9999999999999
251,270,12245,2,0,B|235:262|235:262|215:265,1,35.749998363495
188,266,12427,5,0,0:0:0:0:
162,252,12518,1,0,0:0:0:0:
151,225,12609,5,0,0:0:0:0:
157,197,12700,1,0,0:0:0:0:
177,177,12791,5,0,0:0:0:0:
205,172,12882,1,0,0:0:0:0:
232,181,12973,5,0,0:0:0:0:
256,192,13154,12,0,14609,0:0:0:0:
