osu file format v14

[General]
AudioFilename: audio.mp3
AudioLeadIn: 0
PreviewTime: 5154
Countdown: 1
SampleSet: None
StackLeniency: 0.7
Mode: 0
LetterboxInBreaks: 0
WidescreenStoryboard: 0

[Editor]
DistanceSpacing: 3.4
BeatDivisor: 8
GridSize: 4
TimelineZoom: 2

[Metadata]
Title:fortnite initial d battle royale real gamer hours
TitleUnicode:fortnite initial d battle royale real gamer hours
Artist:Odyssey
ArtistUnicode:Odyssey
Creator:Muukeh
Version:Victory Royale!
Source:Fortnite
Tags:short meme
BeatmapID:1819999
BeatmapSetID:871017

[Difficulty]
HPDrainRate:5
CircleSize:4.7
OverallDifficulty:9
ApproachRate:9.5
SliderMultiplier:2.8
SliderTickRate:1

[Events]
//Background and Video events
0,0,"initial f aaaaaaaaaaaaaaaa.png",0,0
//Break Periods
//Storyboard Layer 0 (Background)
//Storyboard Layer 1 (Fail)
//Storyboard Layer 2 (Pass)
//Storyboard Layer 3 (Foreground)
//Storyboard Sound Samples

[TimingPoints]
63.9173379666849,363.636363636364,4,3,0,40,1,0
5882,-100,4,3,0,40,0,1
12245,-76.9230769230769,4,3,0,40,0,1
13154,-100,4,3,0,40,0,0

[HitObjects]
49,98,63,6,0,L|222:133,1,140
462,179,427,1,0,0:0:0:0:
193,257,609,2,0,L|261:273,1,70
398,306,791,1,0,0:0:0:0:
253,65,973,1,0,0:0:0:0:
155,326,1154,1,0,0:0:0:0:
108,49,1336,2,0,L|175:77,1,70
302,133,1518,5,0,0:0:0:0:
24,169,1700,1,0,0:0:0:0:
237,350,1882,1,0,0:0:0:0:
507,282,2063,2,0,P|474:263|439:260,1,70
203,287,2245,1,0,0:0:0:0:
164,32,2427,1,0,0:0:0:0:
116,308,2609,2,0,P|154:294|177:271,1,70
248,112,2791,1,0,0:0:0:0:
248,112,2882,1,0,0:0:0:0:
248,112,2973,6,0,P|186:140|153:202,1,140
381,363,3336,1,0,0:0:0:0:
426,310,3427,1,0,0:0:0:0:
427,239,3518,1,0,0:0:0:0:
382,185,3609,1,0,0:0:0:0:
317,161,3700,5,0,0:0:0:0:
235,181,3791,1,0,0:0:0:0:
153,201,3882,1,0,0:0:0:0:
71,221,3973,1,0,0:0:0:0:
34,295,4063,6,0,P|66:306|100:299,1,70
242,103,4245,2,0,P|203:105|167:141,1,70
284,363,4427,5,0,0:0:0:0:
256,192,4518,12,0,4973,0:0:0:0:
212,346,5154,6,0,L|221:309,3,35
258,252,5336,1,0,0:0:0:0:
325,233,5427,1,0,0:0:0:0:
391,256,5518,6,0,L|379:216,3,35
404,155,5700,1,0,0:0:0:0:
381,88,5791,1,0,0:0:0:0:
316,61,5882,6,0,B|274:49|274:49|222:72|222:72|172:57,1,140
30,295,6245,1,0,0:0:0:0:
302,360,6427,1,0,0:0:0:0:
358,317,6518,1,0,0:0:0:0:
376,249,6609,1,0,0:0:0:0:
86,192,6791,1,0,0:0:0:0:
302,360,6973,1,0,0:0:0:0:
505,228,7154,2,0,P|473:214|427:209,1,70
246,288,7336,6,0,P|303:286|380:245,1,140
277,12,7700,2,0,P|283:47|303:86,1,70
349,126,7882,1,0,0:0:0:0:
322,190,7973,1,0,0:0:0:0:
252,189,8063,2,0,B|218:178|218:178|114:225,1,140
373,350,8427,5,0,0:0:0:0:
402,285,8518,1,0,0:0:0:0:
364,226,8609,1,0,0:0:0:0:
392,161,8700,1,0,0:0:0:0:
351,103,8791,6,0,L|372:29,1,70
470,285,8973,1,0,0:0:0:0:
224,222,9154,2,0,P|191:218|136:225,1,70
16,186,9336,1,0,0:0:0:0:
85,181,9427,1,0,0:0:0:0:
143,141,9518,1,0,0:0:0:0:
164,74,9609,1,0,0:0:0:0:
94,90,9700,2,0,P|61:96|14:91,1,70
151,6,9882,1,0,0:0:0:0:
415,142,10063,2,0,L|397:215,1,70
287,329,10245,6,0,P|335:298|426:288,1,140
72,359,10609,2,0,P|42:334|27:298,1,70
169,319,10791,1,0,0:0:0:0:
180,249,10882,1,0,0:0:0:0:
231,201,10973,1,0,0:0:0:0:
300,195,11063,1,0,0:0:0:0:
262,135,11154,2,0,P|253:97|257:59,1,70
354,318,11336,1,0,0:0:0:0:
387,256,11427,1,0,0:0:0:0:
374,187,11518,2,0,P|358:152|331:132,1,70
125,201,11700,6,0,B|152:179|152:179|176:75,1,140
110,345,12063,1,0,0:0:0:0:
8,164,12245,6,0,B|49:139|49:139|101:134,1,90.9999958343508
260,324,12427,2,0,B|216:319|216:319|170:285,1,90.9999958343508
255,66,12609,6,0,B|292:93|292:93|309:135,1,90.9999958343508
388,369,12791,2,0,B|379:323|379:323|392:276,1,90.9999958343508
506,68,12973,5,0,0:0:0:0:
256,192,13154,12,0,14609,0:0:0:0:
