osu file format v14

[General]
AudioFilename: audio.mp3
AudioLeadIn: 0
PreviewTime: 5154
Countdown: 1
SampleSet: None
StackLeniency: 0.7
Mode: 0
LetterboxInBreaks: 0
WidescreenStoryboard: 1

[Editor]
DistanceSpacing: 1.8
BeatDivisor: 8
GridSize: 4
TimelineZoom: 2

[Metadata]
Title:fortnite initial d battle royale real gamer hours
TitleUnicode:fortnite initial d battle royale real gamer hours
Artist:Odyssey
ArtistUnicode:Odyssey
Creator:Muukeh
Version:Skinsane
Source:Fortnite
Tags:short meme
BeatmapID:1820033
BeatmapSetID:871017

[Difficulty]
HPDrainRate:5
CircleSize:4.3
OverallDifficulty:7.6
ApproachRate:9
SliderMultiplier:2.5
SliderTickRate:1

[Events]
//Background and Video events
0,0,"initial f aaaaaaaaaaaaaaaa.png",0,0
//Break Periods
//Storyboard Layer 0 (Background)
//Storyboard Layer 1 (Fail)
//Storyboard Layer 2 (Pass)
//Storyboard Layer 3 (Foreground)
//Storyboard Sound Samples

[TimingPoints]
63.9173379666849,363.636363636364,4,3,0,40,1,0
5882,-100,4,3,0,40,0,1
12245,-76.9230769230769,4,3,0,40,0,1
13154,-100,4,3,0,40,0,0

[HitObjects]
373,270,63,6,0,B|312:255|312:255|251:269,1,125
82,315,427,1,0,0:0:0:0:
97,140,609,2,0,B|129:135|129:135|164:147,1,62.5
239,178,791,2,0,B|256:116|256:116|239:52,1,125
170,218,1154,1,0,0:0:0:0:
296,338,1336,2,0,B|325:322|325:322|339:293,1,62.5
357,209,1518,6,0,B|411:187|411:187|485:191,1,125
398,347,1882,1,0,0:0:0:0:
248,256,2063,2,0,B|249:222|249:222|240:192,1,62.5
154,173,2245,2,0,B|136:236|136:236|170:292,1,125
342,281,2609,2,0,L|387:231,1,62.5
448,173,2791,1,0,0:0:0:0:
448,173,2882,1,0,0:0:0:0:
448,173,2973,6,0,B|479:220|479:220|462:287,1,125
314,151,3336,2,0,L|368:102,1,62.5
354,7,3518,2,0,L|307:48,1,62.5
210,79,3700,5,0,0:0:0:0:
149,93,3791,1,0,0:0:0:0:
96,127,3882,1,0,0:0:0:0:
63,180,3973,1,0,0:0:0:0:
61,241,4063,6,0,B|63:273|63:273|80:303,1,62.5
191,354,4245,2,0,B|187:322|187:322|197:288,1,62.5
302,225,4427,5,0,0:0:0:0:
256,192,4518,12,0,4973,0:0:0:0:
419,349,5154,6,0,L|407:307,4,31.25
319,329,5427,1,0,0:0:0:0:
319,329,5518,6,0,L|326:292,4,31.25
223,361,5791,1,0,0:0:0:0:
223,361,5882,6,0,B|217:309|217:309|205:291|205:291|199:239,1,125
177,44,6245,1,0,0:0:0:0:
32,164,6427,2,0,P|63:151|101:151,1,62.5
273,187,6609,2,0,P|212:201|133:189,1,125
306,89,6973,1,0,0:0:0:0:
379,269,7154,2,0,P|394:239|401:209,1,62.5
354,28,7336,6,0,P|343:85|368:150,1,125
488,280,7700,1,0,0:0:0:0:
282,347,7882,1,0,0:0:0:0:
282,347,7973,1,0,0:0:0:0:
282,347,8063,2,0,B|273:285|273:285|294:222,1,125
161,190,8427,1,0,0:0:0:0:
99,202,8518,1,0,0:0:0:0:
42,175,8609,1,0,0:0:0:0:
20,116,8700,1,0,0:0:0:0:
45,58,8791,6,0,B|71:46|71:46|172:79,1,125
334,156,9154,1,0,0:0:0:0:
221,285,9336,2,0,P|185:290|151:285,1,62.5
34,213,9518,1,0,0:0:0:0:
100,195,9609,1,0,0:0:0:0:
166,178,9700,1,0,0:0:0:0:
336,254,9882,1,0,0:0:0:0:
166,334,10063,2,0,P|161:308|139:278,1,62.5
59,139,10245,6,0,P|52:191|92:258,1,125
243,359,10609,1,0,0:0:0:0:
445,289,10791,1,0,0:0:0:0:
411,236,10882,1,0,0:0:0:0:
383,179,10973,6,0,P|381:143|394:112,1,62.5
461,94,11154,2,0,P|464:124|451:157,1,62.5
310,205,11336,1,0,0:0:0:0:
247,197,11427,1,0,0:0:0:0:
200,154,11518,2,0,L|185:70,1,62.5
68,142,11700,6,0,B|83:108|83:108|69:15,1,125
108,243,12063,1,0,0:0:0:0:
278,95,12245,6,0,B|318:90|318:90|368:103,1,81.2499962806703
459,179,12427,2,0,B|417:186|417:186|371:173,1,81.2499962806703
240,227,12609,6,0,B|282:221|282:221|332:236,1,81.2499962806703
449,311,12791,2,0,B|408:320|408:320|358:312,1,81.2499962806703
217,346,12973,5,0,0:0:0:0:
256,192,13154,12,0,14609,0:0:0:0:
