osu file format v14

[General]
AudioFilename: audio.mp3
AudioLeadIn: 0
PreviewTime: 5154
Countdown: 1
SampleSet: None
StackLeniency: 0.7
Mode: 0
LetterboxInBreaks: 0
WidescreenStoryboard: 1

[Editor]
DistanceSpacing: 1.5
BeatDivisor: 4
GridSize: 4
TimelineZoom: 1.3

[Metadata]
Title:fortnite initial d battle royale real gamer hours
TitleUnicode:fortnite initial d battle royale real gamer hours
Artist:Odyssey
ArtistUnicode:Odyssey
Creator:Muukeh
Version:Light Skinsane
Source:Fortnite
Tags:short meme
BeatmapID:1820618
BeatmapSetID:871017

[Difficulty]
HPDrainRate:5
CircleSize:4
OverallDifficulty:7
ApproachRate:8.5
SliderMultiplier:1.80000000596046
SliderTickRate:1

[Events]
//Background and Video events
0,0,"initial f aaaaaaaaaaaaaaaa.png",0,0
//Break Periods
//Storyboard Layer 0 (Background)
//Storyboard Layer 1 (Fail)
//Storyboard Layer 2 (Pass)
//Storyboard Layer 3 (Foreground)
//Storyboard Sound Samples

[TimingPoints]
63.9173379666849,363.636363636364,4,3,0,40,1,0
5882,-100,4,3,0,40,0,1
12245,-76.9230769230769,4,3,0,40,0,1
13154,-100,4,3,0,40,0,0

[HitObjects]
175,357,63,6,0,L|162:262,1,90.000000298023
206,139,427,1,0,0:0:0:0:
293,202,609,2,0,L|300:151,1,45.0000001490115
308,112,791,2,0,P|357:100|401:106,1,90.000000298023
503,185,1154,1,0,0:0:0:0:
480,290,1336,2,0,L|430:307,1,45.0000001490115
421,347,1518,6,0,L|336:375,1,90.000000298023
217,308,1882,1,0,0:0:0:0:
280,221,2063,2,0,L|332:233,1,45.0000001490115
368,238,2245,2,0,P|410:218|435:177,1,90.000000298023
392,53,2609,1,0,0:0:0:0:
297,106,2791,2,0,L|248:117,1,45.0000001490115
202,94,2973,6,0,L|105:82,1,90.000000298023
10,171,3336,1,0,0:0:0:0:
31,178,3427,1,0,0:0:0:0:
52,185,3518,1,0,0:0:0:0:
73,192,3609,1,0,0:0:0:0:
94,199,3700,6,0,L|142:187,3,45.0000001490115
177,257,4063,2,0,L|234:264,3,45.0000001490115
263,330,4427,1,0,0:0:0:0:
446,314,5154,6,0,L|458:268,1,45.0000001490115
421,202,5336,1,0,0:0:0:0:
421,202,5427,1,0,0:0:0:0:
421,202,5518,2,0,L|426:156,1,45.0000001490115
386,85,5700,1,0,0:0:0:0:
386,85,5791,1,0,0:0:0:0:
386,85,5882,6,0,B|342:78|342:78|295:90,1,90.000000298023
226,203,6245,1,0,0:0:0:0:
99,154,6427,1,0,0:0:0:0:
99,154,6518,1,0,0:0:0:0:
99,154,6609,1,0,0:0:0:0:
45,226,6791,1,0,0:0:0:0:
63,314,6973,1,0,0:0:0:0:
147,343,7154,6,0,B|201:321|201:321|265:329|265:329|323:307,1,180.000000596046
445,261,7700,1,0,0:0:0:0:
333,185,7882,1,0,0:0:0:0:
333,185,7973,1,0,0:0:0:0:
333,185,8063,1,0,0:0:0:0:
291,105,8245,1,0,0:0:0:0:
350,37,8427,2,0,L|394:33,3,45.0000001490115
437,49,8791,6,0,B|462:83|462:83|465:137,1,90.000000298023
419,258,9154,1,0,0:0:0:0:
312,240,9336,2,0,L|302:192,1,45.0000001490115
289,129,9518,1,0,0:0:0:0:
289,129,9609,1,0,0:0:0:0:
289,129,9700,1,0,0:0:0:0:
206,93,9882,1,0,0:0:0:0:
121,123,10063,6,0,B|76:127|76:127|34:110,1,90.000000298023
74,211,10427,1,0,0:0:0:0:
20,304,10609,2,0,B|69:292|69:292|121:305,1,90.000000298023
203,352,10973,1,0,0:0:0:0:
310,341,11154,1,0,0:0:0:0:
333,327,11245,1,0,0:0:0:0:
349,305,11336,1,0,0:0:0:0:
358,279,11427,1,0,0:0:0:0:
359,252,11518,1,0,0:0:0:0:
320,151,11700,6,0,P|306:110|316:63,1,90.000000298023
443,109,12063,2,0,P|457:149|451:196,1,90.000000298023
334,179,12427,5,0,0:0:0:0:
263,272,12609,1,0,0:0:0:0:
158,218,12791,1,0,0:0:0:0:
87,311,12973,1,0,0:0:0:0:
256,192,13154,12,0,14609,0:0:0:0:
