osu file format v14

[General]
AudioFilename: audio.mp3
AudioLeadIn: 0
PreviewTime: 59306
Countdown: 0
SampleSet: Soft
StackLeniency: 0.7
Mode: 0
LetterboxInBreaks: 0
WidescreenStoryboard: 1

[Editor]
DistanceSpacing: 1
BeatDivisor: 8
GridSize: 8
TimelineZoom: 2.4

[Metadata]
Title:Say My Name (Tatsuro Remix)
TitleUnicode:Say My Name (Tatsuro Remix)
Artist:Odesza
ArtistUnicode:Odesza
Creator:Senzzen
Version:Normal
Source:
Tags:Dance
BeatmapID:1042638
BeatmapSetID:489032

[Difficulty]
HPDrainRate:3
CircleSize:3
OverallDifficulty:4
ApproachRate:5
SliderMultiplier:1
SliderTickRate:2

[Events]
//Background and Video events
0,0,"Yuri-Wallpaper-angel-beats-31421587-500-281.jpg",0,0
//Break Periods
//Storyboard Layer 0 (Background)
//Storyboard Layer 1 (Fail)
//Storyboard Layer 2 (Pass)
//Storyboard Layer 3 (Foreground)
//Storyboard Sound Samples

[TimingPoints]
245,461.538461538462,4,2,1,20,1,0
43860,-100,4,2,1,20,0,0
64110,461.538461538462,4,2,1,20,1,0
65436,461.538461538462,4,2,1,20,1,0
65782,461.538461538462,4,2,1,20,1,0
66474,-66.6666666666667,4,2,1,20,0,0
66705,-100,4,2,1,20,0,0
74088,-100,4,2,1,20,0,1
75473,-100,4,2,1,20,0,1
85165,-166.666666666667,4,2,1,20,0,1
85857,-125,4,2,1,20,0,1
86550,-100,4,2,1,20,0,1
87242,-83.3333333333333,4,2,1,20,0,1
89088,-83.3333333333333,4,2,1,20,0,0

[Colours]
Combo1 : 255,255,255
Combo2 : 0,213,213
Combo3 : 55,255,55
Combo4 : 255,94,94
Combo5 : 255,255,72

[HitObjects]
88,192,245,6,0,P|144:264|168:272,1,100
311,263,937,2,0,P|335:167|328:108,1,150
258,55,1860,1,0,0:0:0:0:
184,120,2321,2,0,L|112:208,1,100
256,280,3014,2,0,P|275:241|280:216,2,50
104,216,3937,6,0,P|112:136|128:120,1,100
280,120,4860,2,0,P|344:176|344:184,1,100
272,328,5552,2,0,L|176:280,1,100
102,208,6475,1,0,0:0:0:0:
144,128,6706,2,0,L|192:152,2,50
104,280,7629,6,0,L|200:232,1,100
344,176,8321,2,0,P|296:136|209:100,1,150
126,103,9245,1,0,0:0:0:0:
112,184,9706,2,0,B|128:232|128:232|176:264,1,100
320,304,10398,2,0,P|344:280|352:264,2,50
176,232,11321,6,0,B|176:168|176:168|216:128,1,100
360,152,12245,2,0,P|368:88|336:56,1,100
259,33,12937,1,0,0:0:0:0:
192,96,13398,2,0,L|216:208,1,100
352,272,14091,2,0,P|368:240|368:216,2,50
192,272,15014,6,0,P|72:320|144:240,1,350
254,192,17783,1,0,0:0:0:0:
320,112,18706,6,0,P|440:64|368:144,1,350
160,216,21937,5,0,0:0:0:0:
304,280,22398,2,0,P|368:256|384:224,1,100
256,128,23321,2,0,L|200:224,1,100
56,152,24245,2,0,B|88:112|88:112|144:104,1,100
248,216,25168,2,0,P|216:264|168:272,1,100
113,160,26091,1,0,0:0:0:0:
239,79,26783,5,0,0:0:0:0:
398,180,27475,1,0,0:0:0:0:
256,192,28860,1,0,0:0:0:0:
400,224,29783,6,0,P|384:312|344:336,1,100
216,312,30706,1,0,0:0:0:0:
112,192,31168,2,0,L|64:152,1,50
224,56,32552,1,0,0:0:0:0:
344,160,33014,1,0,0:0:0:0:
192,216,33475,6,0,L|264:104,1,100
376,40,34398,1,0,0:0:0:0:
408,200,34860,2,0,L|472:200,1,50
152,272,36245,2,0,P|137:237|160:192,2,75
224,304,37168,1,0,0:0:0:0:
365,223,37860,5,0,0:0:0:0:
365,77,38552,1,0,0:0:0:0:
200,84,39245,1,0,0:0:0:0:
121,220,39937,5,0,0:0:0:0:
248,280,40398,1,0,0:0:0:0:
416,264,40860,6,0,P|448:232|464:184,1,75
344,160,41552,2,0,L|264:128,2,75
256,192,42360,12,0,43629,0:0:0:0:
256,192,44091,6,0,L|200:208,3,33.3333333333333
256,192,45475,5,0,0:0:0:0:
275,186,46398,5,0,0:0:0:0:
294,180,47321,5,0,0:0:0:0:
120,296,48245,5,0,0:0:0:0:
113,277,49168,5,0,0:0:0:0:
109,257,50091,5,0,0:0:0:0:
102,238,51014,5,0,0:0:0:0:
360,248,51475,2,0,L|316:228,2,33.3333333333333
416,256,51937,5,0,0:0:0:0:
413,236,52860,5,0,0:0:0:0:
410,216,53783,5,0,0:0:0:0:
411,196,54706,5,0,0:0:0:0:
384,144,55629,6,0,P|304:112|272:112,1,100
152,192,56552,2,0,L|208:280,1,100
368,288,57475,2,0,P|395:257|400:232,3,50
328,208,58398,2,0,L|360:176,3,25
360,152,58860,2,0,L|320:116,1,50
240,128,59321,6,0,L|149:169,2,100
152,264,60706,2,0,L|216:232,1,50
280,248,61168,2,0,P|328:232|384:192,2,100
320,96,62552,2,0,P|288:104|264:96,1,50
208,144,63014,6,0,B|184:184|184:184|184:208,3,50
248,312,64110,1,0,0:0:0:0:
368,208,64571,1,0,0:0:0:0:
248,184,65782,5,0,0:0:0:0:
112,96,66243,1,0,0:0:0:0:
120,256,66474,2,0,L|224:284,1,75.0000028610231
336,296,67050,5,0,0:0:0:0:
408,200,67396,1,0,0:0:0:0:
352,96,67742,2,0,L|272:64,1,75
208,96,68319,1,0,0:0:0:0:
160,160,68550,6,0,L|176:280,1,100
320,320,69473,1,0,0:0:0:0:
408,184,69934,2,0,P|424:144|416:120,1,50
344,112,70396,6,0,L|360:56,2,50
264,120,71088,2,0,P|232:120|216:136,2,50
288,200,71780,2,0,L|344:216,2,50
208,208,72473,2,0,B|176:192|168:176|168:176|168:168,2,50
240,280,73165,1,0,0:0:0:0:
267,161,73627,1,0,0:0:0:0:
360,192,74088,6,0,L|368:264,1,50
304,288,74550,2,0,L|240:312,2,50
168,200,75474,5,0,0:0:0:0:
281,86,75935,1,0,0:0:0:0:
394,200,76397,1,0,0:0:0:0:
281,313,76858,1,0,0:0:0:0:
144,232,77319,2,0,L|184:176,1,50
248,160,77780,6,0,P|280:160|304:144,1,50
368,176,78242,2,0,L|416:224,2,50
216,120,79165,2,0,L|160:128,1,50
128,192,79627,2,0,B|136:264|136:264|152:248|160:296,3,100
312,264,81474,6,0,L|300:189,1,50
292,109,81935,2,0,L|236:117,1,50
128,130,82397,2,0,L|139:196,1,50
153,289,82858,2,0,L|219:277,1,50
280,264,83319,1,0,0:0:0:0:
368,136,83780,1,0,0:0:0:0:
224,200,84242,5,0,0:0:0:0:
400,288,85165,2,0,L|392:328,2,29.9999990844727
336,272,85857,2,0,L|296:288,2,40
272,224,86550,2,0,L|232:176,2,50
336,152,87242,2,0,L|384:104,2,59.9999981689454
256,208,87934,1,0,0:0:0:0:
336,259,88397,6,0,P|391:218|396:200,2,59.9999981689454
