osu file format v14

[General]
AudioFilename: audio.mp3
AudioLeadIn: 0
PreviewTime: 59306
Countdown: 0
SampleSet: Soft
StackLeniency: 0.7
Mode: 0
LetterboxInBreaks: 0
WidescreenStoryboard: 1

[Editor]
DistanceSpacing: 2
BeatDivisor: 4
GridSize: 8
TimelineZoom: 2.4

[Metadata]
Title:Say My Name (Tatsuro Remix)
TitleUnicode:Say My Name (Tatsuro Remix)
Artist:Odesza
ArtistUnicode:Odesza
Creator:Senzzen
Version:Insane
Source:
Tags:Dance
BeatmapID:1042735
BeatmapSetID:489032

[Difficulty]
HPDrainRate:6
CircleSize:4
OverallDifficulty:7
ApproachRate:9
SliderMultiplier:1.3
SliderTickRate:2

[Events]
//Background and Video events
0,0,"Yuri-Wallpaper-angel-beats-31421587-500-281.jpg",0,0
//Break Periods
//Storyboard Layer 0 (Background)
//Storyboard Layer 1 (Fail)
//Storyboard Layer 2 (Pass)
//Storyboard Layer 3 (Foreground)
//Storyboard Sound Samples

[TimingPoints]
245,461.538461538462,4,2,1,20,1,0
18475,-166.666666666667,4,2,1,20,0,0
18937,-100,4,2,1,20,0,0
20091,-166.666666666667,4,2,1,20,0,0
21475,-100,4,2,1,20,0,0
31168,-55.5555555555556,4,2,1,20,0,0
31398,-100,4,2,1,20,0,0
34860,-55.5555555555556,4,2,1,20,0,0
35091,-100,4,2,1,20,0,0
36245,-66.6666666666667,4,2,1,20,0,0
37168,-100,4,2,1,20,0,0
40860,-100,4,2,1,20,0,0
42245,-61.7283950617284,4,2,1,20,0,0
43629,-100,4,2,1,20,0,0
44552,-100,4,2,1,20,0,0
45475,-119.047619047619,4,2,1,20,0,0
46398,-151.515151515152,4,2,1,20,0,0
47321,-200,4,2,1,20,0,0
48245,-100,4,2,1,20,0,0
49168,-119.047619047619,4,2,1,20,0,0
50091,-151.515151515152,4,2,1,20,0,0
51014,-200,4,2,1,20,0,0
51937,-100,4,2,1,20,0,0
52860,-119.047619047619,4,2,1,20,0,0
53783,-151.515151515152,4,2,1,20,0,0
54706,-200,4,2,1,20,0,0
55629,-100,4,2,1,20,0,0
57475,-66.6666666666667,4,2,1,20,0,0
58398,-50,4,2,1,20,0,0
58860,-50,4,2,1,20,0,0
59091,-133.333333333333,4,2,1,20,0,0
60706,-50,4,2,1,20,0,0
60937,-133.333333333333,4,2,1,20,0,0
62552,-50,4,2,1,20,0,0
62783,-100,4,2,1,20,0,0
63475,-50,4,2,1,20,0,0
63706,-133.333333333333,4,2,1,20,0,0
64168,-100,4,2,1,20,0,0
65437,-66.6666666666667,4,2,1,20,0,0
66474,-33.3333333333333,4,2,1,20,0,0
66647,-133.333333333333,4,2,1,20,0,0
68088,-50,4,2,1,20,0,0
68319,-133.333333333333,4,2,1,20,0,0
69934,-50,4,2,1,20,0,0
70165,-100,4,2,1,20,0,0
74088,-100,4,2,1,20,0,1
77319,-50,4,2,1,20,0,1
77550,-133.333333333333,4,2,1,20,0,1
79165,-117.647058823529,4,2,1,20,0,1
80088,-117.647058823529,4,2,1,20,0,1
81473,-55.5555555555556,4,2,1,20,0,1
83319,-100,4,2,1,20,0,1
84704,-50,4,2,1,20,0,1
84934,-100,4,2,1,20,0,1
88396,-50,4,2,1,20,0,1
89088,-83.3333333333333,4,2,1,20,0,0

[Colours]
Combo1 : 255,255,255
Combo2 : 0,213,213
Combo3 : 55,255,55
Combo4 : 255,94,94
Combo5 : 255,255,72

[HitObjects]
80,176,245,5,0,0:0:0:0:
240,324,706,1,0,0:0:0:0:
337,298,937,1,0,0:0:0:0:
411,233,1168,2,0,P|435:185|435:105,1,130
165,54,1860,2,0,P|141:102|141:182,1,130
184,288,2783,5,0,0:0:0:0:
300,212,3014,2,0,L|248:156,2,65
312,240,3937,5,0,0:0:0:0:
134,289,4398,1,0,0:0:0:0:
52,245,4629,1,0,0:0:0:0:
119,177,4860,2,0,L|151:49,1,130
408,128,5552,2,0,L|440:256,1,130
288,280,6475,5,0,0:0:0:0:
180,176,6706,2,0,P|148:176|120:208,2,65
144,152,7629,5,0,0:0:0:0:
302,280,8091,1,0,0:0:0:0:
404,258,8321,1,0,0:0:0:0:
466,187,8552,2,0,P|491:140|491:59,1,130
191,39,9245,2,0,P|166:86|166:167,1,130
248,262,10168,5,0,0:0:0:0:
412,324,10398,2,0,L|328:344,2,65
328,168,11321,5,0,0:0:0:0:
116,323,11783,1,0,0:0:0:0:
49,255,12014,1,0,0:0:0:0:
111,177,12245,2,0,L|193:73,1,130
370,26,12937,2,0,L|451:129,1,130
322,214,13860,5,0,0:0:0:0:
168,128,14091,2,0,P|120:136|96:160,2,65
296,144,14783,5,0,0:0:0:0:
296,144,15014,2,0,B|296:176|296:176|288:208,1,65
168,312,15475,2,0,B|160:280|160:280|160:248,1,65
160,247,15821,1,0,0:0:0:0:
160,247,15937,1,0,0:0:0:0:
311,157,16168,5,0,0:0:0:0:
320,268,16398,1,0,0:0:0:0:
229,335,16629,1,0,0:0:0:0:
160,215,16860,2,0,L|164:142,1,65
99,287,17321,2,0,L|95:360,1,65
29,210,17783,2,0,L|25:135,2,65
151,303,18475,6,0,P|186:319|224:312,1,77.999997619629
326,221,19168,1,0,0:0:0:0:
215,118,19398,2,0,B|224:120|184:112,2,32.5
326,221,19860,1,0,0:0:0:0:
427,149,20091,2,0,P|443:133|435:45,2,116.999996429443
256,192,21706,6,0,L|248:272,2,65
128,192,22398,5,0,0:0:0:0:
145,159,22629,1,0,0:0:0:0:
176,144,22860,1,0,0:0:0:0:
296,200,23091,5,0,0:0:0:0:
256,224,23321,1,0,0:0:0:0:
208,232,23552,1,0,0:0:0:0:
104,160,23783,5,0,0:0:0:0:
160,144,24014,1,0,0:0:0:0:
216,160,24245,1,0,0:0:0:0:
335,190,24475,5,0,0:0:0:0:
288,247,24706,1,0,0:0:0:0:
217,264,24937,1,0,0:0:0:0:
178,146,25168,6,0,L|162:98,2,48.75
338,146,25629,2,0,L|354:106,2,43.3333333333333
256,192,26091,5,0,0:0:0:0:
376,112,26783,1,0,0:0:0:0:
376,112,26898,1,0,0:0:0:0:
376,112,27014,2,0,P|400:152|400:192,1,65
313,241,27475,2,0,P|289:201|289:161,1,65
304,288,28629,5,0,0:0:0:0:
304,288,28745,1,0,0:0:0:0:
304,288,28860,1,0,0:0:0:0:
256,192,29783,5,0,0:0:0:0:
100,280,30475,1,0,0:0:0:0:
100,280,30591,1,0,0:0:0:0:
100,280,30706,1,0,0:0:0:0:
304,288,31168,2,0,P|296:236|252:188,1,116.999996429443
384,120,31860,5,0,0:0:0:0:
352,248,32091,1,0,0:0:0:0:
240,280,32321,2,0,L|184:272,1,43.3333333333333
144,248,32552,2,0,L|168:144,1,97.5
320,72,33014,5,0,0:0:0:0:
328,120,33168,1,0,0:0:0:0:
336,168,33321,1,0,0:0:0:0:
256,192,33475,5,0,0:0:0:0:
96,160,34168,1,0,0:0:0:0:
96,160,34283,1,0,0:0:0:0:
96,160,34398,1,0,0:0:0:0:
224,72,34860,2,0,L|256:192,1,116.999996429443
208,192,36014,5,0,0:0:0:0:
208,192,36129,1,0,0:0:0:0:
208,192,36245,2,0,P|288:192|352:152,2,146.250005578995
136,256,37168,5,0,0:0:0:0:
143,225,37398,1,0,0:0:0:0:
160,200,37629,1,0,0:0:0:0:
280,160,37860,5,0,0:0:0:0:
288,208,38091,1,0,0:0:0:0:
280,256,38321,1,0,0:0:0:0:
160,200,38552,5,0,0:0:0:0:
208,168,38783,1,0,0:0:0:0:
264,176,39014,1,0,0:0:0:0:
352,272,39245,5,0,0:0:0:0:
280,264,39475,1,0,0:0:0:0:
231,211,39706,1,0,0:0:0:0:
236,140,39937,5,0,0:0:0:0:
334,203,40398,5,0,0:0:0:0:
296,240,40552,1,0,0:0:0:0:
257,275,40706,1,0,0:0:0:0:
216,304,40860,2,0,P|176:272|184:208,2,97.5
276,130,41898,2,0,P|316:162|308:226,1,97.5
256,192,42321,12,0,43629,0:0:0:0:
172,182,44091,5,0,0:0:0:0:
132,145,44245,1,0,0:0:0:0:
93,107,44398,1,0,0:0:0:0:
56,64,44552,6,0,L|213:65,1,130
408,64,45245,1,0,0:0:0:0:
56,120,45475,6,0,L|183:120,1,109.199996667481
352,120,46168,1,0,0:0:0:0:
56,200,46398,6,0,L|151:200,1,85.7999997381592
288,200,47091,1,0,0:0:0:0:
56,312,47321,6,0,L|123:311,1,65
232,312,48014,1,0,0:0:0:0:
456,64,48245,6,0,L|296:64,1,130
104,64,48938,1,0,0:0:0:0:
456,120,49168,6,0,L|333:120,1,109.199996667481
160,120,49861,1,0,0:0:0:0:
456,200,50091,6,0,L|358:200,1,85.7999997381592
224,200,50784,1,0,0:0:0:0:
456,312,51014,5,0,0:0:0:0:
61,214,51475,5,0,0:0:0:0:
60,163,51629,1,0,0:0:0:0:
58,114,51783,1,0,0:0:0:0:
56,64,51937,6,0,L|210:65,1,130
408,64,52630,1,0,0:0:0:0:
56,120,52860,6,0,L|182:119,1,109.199996667481
352,120,53553,1,0,0:0:0:0:
56,200,53783,6,0,L|151:200,1,85.7999997381592
288,200,54476,1,0,0:0:0:0:
56,312,54706,6,0,L|126:312,1,65
232,312,55398,1,0,0:0:0:0:
352,312,55629,5,0,0:0:0:0:
352,312,56091,1,0,0:0:0:0:
160,256,56552,5,0,0:0:0:0:
160,256,57014,1,0,0:0:0:0:
352,200,57475,2,0,P|359:159|336:96,1,97.50000371933
164,135,57937,2,0,P|157:94|180:31,1,97.50000371933
392,64,58398,2,0,L|393:144,1,65
392,231,58629,2,0,L|391:299,1,65
278,350,58860,6,0,P|228:299|206:238,1,130
120,122,59321,6,0,P|152:82|213:82,1,97.50000371933
328,336,60245,1,0,0:0:0:0:
430,86,60706,6,0,P|374:131|312:147,1,130
152,200,61168,6,0,L|208:280,1,97.50000371933
328,48,62091,1,0,0:0:0:0:
428,322,62552,6,0,P|363:291|322:241,1,130
173,115,63014,5,0,0:0:0:0:
363,159,63245,1,0,0:0:0:0:
230,301,63475,2,0,P|246:229|174:213,1,130
256,40,64168,2,0,P|312:72|336:144,1,130
129,153,65437,6,0,L|162:101,1,48.750001859665
229,190,65666,2,0,L|208:234,1,48.750001859665
96,64,66243,5,0,0:0:0:0:
144,272,66474,2,0,L|283:232,1,97.50000371933
432,208,66704,1,0,0:0:0:0:
336,48,67051,1,0,0:0:0:0:
248,304,67397,1,0,0:0:0:0:
146,51,67743,1,0,0:0:0:0:
184,296,68088,6,0,P|234:245|256:184,1,130
312,72,68550,2,0,P|368:96|394:144,1,97.50000371933
256,192,69473,5,0,0:0:0:0:
140,137,69934,2,0,P|276:193|284:193,1,130
384,208,70396,5,0,0:0:0:0:
304,152,70627,1,0,0:0:0:0:
208,144,70857,1,0,0:0:0:0:
230,241,71088,5,0,0:0:0:0:
310,169,71319,1,0,0:0:0:0:
286,57,71550,1,0,0:0:0:0:
192,136,71780,5,0,0:0:0:0:
264,240,72011,1,0,0:0:0:0:
384,216,72242,1,0,0:0:0:0:
324,92,72473,5,0,0:0:0:0:
196,148,72704,1,0,0:0:0:0:
172,284,72934,1,0,0:0:0:0:
328,312,73165,5,0,0:0:0:0:
320,80,73396,1,0,0:0:0:0:
128,192,73627,1,0,0:0:0:0:
168,192,73743,1,0,0:0:0:0:
208,192,73857,1,0,0:0:0:0:
416,80,74088,5,0,0:0:0:0:
336,296,74319,1,0,0:0:0:0:
229,79,74550,1,0,0:0:0:0:
120,296,74780,1,0,0:0:0:0:
40,80,75011,1,0,0:0:0:0:
275,250,75475,6,0,L|316:300,2,43.3333333333333
303,125,75937,2,0,L|363:110,2,43.3333333333333
225,163,76398,1,0,0:0:0:0:
182,238,76552,1,0,0:0:0:0:
224,313,76706,1,0,0:0:0:0:
307,336,76860,1,0,0:0:0:0:
490,260,77319,6,0,L|386:180,1,130
128,80,77780,6,0,P|112:104|120:136,1,48.750001859665
168,320,78242,2,0,P|192:296|192:280,1,48.750001859665
256,192,78704,1,0,0:0:0:0:
360,320,79165,6,0,P|400:280|416:240,1,82.8750015807152
416,144,79627,2,0,P|384:96|352:88,1,82.8750015807152
272,192,80088,2,0,P|304:240|336:248,1,82.8750015807152
368,188,80550,2,0,P|336:140|304:132,1,82.8750015807152
224,236,81011,2,0,P|256:284|288:292,1,82.8750015807152
149,298,81473,5,0,0:0:0:0:
149,85,81704,1,0,0:0:0:0:
362,85,81934,1,0,0:0:0:0:
362,298,82165,1,0,0:0:0:0:
255,372,82398,5,0,0:0:0:0:
74,191,82629,1,0,0:0:0:0:
255,11,82859,1,0,0:0:0:0:
435,192,83090,1,0,0:0:0:0:
220,341,83319,6,0,L|89:359,1,130
412,187,84242,5,0,0:0:0:0:
256,192,84705,6,0,L|160:303,1,130
192,128,85165,5,0,0:0:0:0:
340,11,85396,1,0,0:0:0:0:
366,198,85627,1,0,0:0:0:0:
256,272,85857,5,0,0:0:0:0:
133,131,86088,1,0,0:0:0:0:
317,93,86319,1,0,0:0:0:0:
424,160,86550,5,0,0:0:0:0:
507,330,86780,1,0,0:0:0:0:
320,320,87011,1,0,0:0:0:0:
200,272,87242,5,0,0:0:0:0:
44,164,87473,1,0,0:0:0:0:
216,85,87704,1,0,0:0:0:0:
256,192,87934,5,0,0:0:0:0:
352,279,88397,6,0,L|241:179,1,130
256,192,88857,1,0,0:0:0:0:
