osu file format v14

[General]
AudioFilename: audio.mp3
AudioLeadIn: 0
PreviewTime: 59306
Countdown: 0
SampleSet: Soft
StackLeniency: 0.7
Mode: 0
LetterboxInBreaks: 0
WidescreenStoryboard: 1

[Editor]
DistanceSpacing: 0.6
BeatDivisor: 6
GridSize: 8
TimelineZoom: 2.4

[Metadata]
Title:Say My Name (Tatsuro Remix)
TitleUnicode:Say My Name (Tatsuro Remix)
Artist:Odesza
ArtistUnicode:Odesza
Creator:Senzzen
Version:Easy
Source:
Tags:Dance
BeatmapID:1093913
BeatmapSetID:489032

[Difficulty]
HPDrainRate:2
CircleSize:2
OverallDifficulty:2
ApproachRate:3
SliderMultiplier:0.8
SliderTickRate:2

[Events]
//Background and Video events
0,0,"Yuri-Wallpaper-angel-beats-31421587-500-281.jpg",0,0
//Break Periods
//Storyboard Layer 0 (Background)
//Storyboard Layer 1 (Fail)
//Storyboard Layer 2 (Pass)
//Storyboard Layer 3 (Foreground)
//Storyboard Sound Samples

[TimingPoints]
245,461.538461538462,4,2,1,20,1,0
43860,-100,4,2,1,20,0,0
64110,461.538461538462,4,2,1,20,1,0
65436,461.538461538462,4,2,1,20,1,0
65782,461.538461538462,4,2,1,20,1,0
66474,-50,4,2,1,20,0,0
66705,-100,4,2,1,20,0,0
74088,-100,4,2,1,20,0,1
75473,-100,4,2,1,20,0,1
85165,-166.666666666667,4,2,1,20,0,1
85857,-125,4,2,1,20,0,1
86550,-100,4,2,1,20,0,1
87242,-83.3333333333333,4,2,1,20,0,1
89088,-83.3333333333333,4,2,1,20,0,0

[Colours]
Combo1 : 255,255,255
Combo2 : 0,213,213
Combo3 : 55,255,55
Combo4 : 255,94,94
Combo5 : 255,255,72

[HitObjects]
112,184,245,6,0,P|144:232|360:184,1,320
420,108,3014,1,0,0:0:0:0:
329,75,3937,6,0,B|273:59|217:67|145:91|105:123|81:171|65:227,1,320
78,304,6706,1,0,0:0:0:0:
166,340,7629,6,0,B|214:332|254:316|286:292|302:252|310:196|302:164|302:124|262:92,1,320
199,35,10398,1,0,0:0:0:0:
103,47,11321,6,0,B|55:71|-33:103|95:159|207:183|63:287,1,320
208,368,14091,1,0,0:0:0:0:
288,312,15014,5,0,0:0:0:0:
376,168,16629,1,0,0:0:0:0:
176,88,18706,1,0,0:0:0:0:
152,256,20321,1,0,0:0:0:0:
368,288,22398,6,0,B|392:256|448:208|416:136|416:88|336:72,2,240
272,296,26091,1,0,0:0:0:0:
184,256,27014,2,0,P|136:200|192:152,1,160
256,88,28860,1,0,0:0:0:0:
176,144,29783,6,0,P|144:192|208:272,1,160
304,248,31398,2,0,P|352:208|280:120,1,200
184,120,33475,2,0,P|128:136|160:224,1,160
256,272,35091,2,0,B|288:264|304:232|296:192|320:152|352:112|368:104,1,200
272,80,37168,5,0,0:0:0:0:
168,136,37860,1,0,0:0:0:0:
168,256,38552,1,0,0:0:0:0:
280,296,39245,1,0,0:0:0:0:
376,216,39937,5,0,0:0:0:0:
344,144,40398,2,0,L|336:96,3,26.6666666666667
264,96,41552,1,0,0:0:0:0:
160,152,42245,2,0,P|152:200|296:280,1,240
360,240,44091,2,0,L|376:216,3,26.6666666666667
256,112,45475,6,0,L|96:112,2,160
256,272,48245,2,0,L|416:272,3,160
400,182,51475,2,0,L|377:100,1,80
272,112,52860,6,0,L|272:288,2,160
112,120,55629,2,0,P|160:96|200:104,3,80
264,120,57475,2,0,L|312:128,3,40
328,160,58398,2,0,L|368:240,2,80
256,128,59783,5,0,0:0:0:0:
176,120,60245,2,0,L|120:184,1,80
128,224,60937,2,0,L|176:248,1,40
240,248,61629,1,0,0:0:0:0:
312,224,62091,5,0,0:0:0:0:
360,160,62552,2,0,P|368:128|368:112,4,40
368,200,63706,2,0,L|359:281,2,80
226,258,65436,2,0,P|175:262|157:247,2,70
344,248,66474,2,0,L|368:168,1,80
320,104,67166,5,0,0:0:0:0:
240,112,67628,1,0,0:0:0:0:
184,160,68089,2,0,P|176:192|184:200,1,40
208,224,68551,6,0,L|280:272,1,80
344,304,69474,1,0,0:0:0:0:
424,280,69935,2,0,P|440:256|440:240,1,40
432,208,70397,2,0,P|416:144|368:120,4,120
376,264,73628,2,0,L|360:288,3,20
384,232,74089,6,0,L|392:184,4,40
280,304,75474,2,0,P|208:304|288:272,1,240
440,224,77782,2,0,L|448:184,4,40
400,152,79166,2,0,L|352:144,1,40
320,136,79628,2,0,P|272:112|248:104,3,80
184,152,81474,6,0,L|176:200,3,40
200,224,82397,2,0,L|240:248,4,40
280,240,83782,1,0,0:0:0:0:
352,216,84243,1,0,0:0:0:0:
440,176,85166,6,0,L|392:176,1,47.9999985351563
360,176,85858,2,0,L|296:176,1,64
256,176,86551,2,0,L|168:176,1,80
128,176,87243,2,0,L|32:176,1,95.9999970703126
36,90,87935,1,0,0:0:0:0:
135,73,88397,2,0,L|191:65,1,47.9999985351563
