osu file format v14

[General]
AudioFilename: audio.mp3
AudioLeadIn: 0
PreviewTime: 59306
Countdown: 0
SampleSet: Soft
StackLeniency: 0.7
Mode: 0
LetterboxInBreaks: 0
WidescreenStoryboard: 1

[Editor]
DistanceSpacing: 1.4
BeatDivisor: 8
GridSize: 4
TimelineZoom: 4.999998

[Metadata]
Title:Say My Name (Tatsuro Remix)
TitleUnicode:Say My Name (Tatsuro Remix)
Artist:Odesza
ArtistUnicode:Odesza
Creator:Senzzen
Version:Dance
Source:
Tags:Dance
BeatmapID:1042444
BeatmapSetID:489032

[Difficulty]
HPDrainRate:6
CircleSize:4.3
OverallDifficulty:8
ApproachRate:9
SliderMultiplier:1.4
SliderTickRate:2

[Events]
//Background and Video events
0,0,"Yuri-Wallpaper-angel-beats-31421587-500-281.jpg",0,0
//Break Periods
//Storyboard Layer 0 (Background)
//Storyboard Layer 1 (Fail)
//Storyboard Layer 2 (Pass)
//Storyboard Layer 3 (Foreground)
//Storyboard Sound Samples

[TimingPoints]
245,461.538461538462,4,2,1,5,1,0
3014,-66.6666666666667,4,2,1,5,0,0
3706,-100,4,2,1,20,0,0
6706,-66.6666666666667,4,2,1,20,0,0
7283,-100,4,2,1,20,0,0
10398,-66.6666666666667,4,2,1,20,0,0
10975,-100,4,2,1,20,0,0
14090,-66.6666666666667,4,2,1,20,0,0
14668,-100,4,2,1,20,0,0
18475,-200,4,2,1,20,0,0
18937,-100,4,2,1,20,0,0
20091,-200,4,2,1,20,0,0
21475,-100,4,2,1,20,0,0
32168,-55.5555555555556,4,2,1,20,0,0
32206,-66.6666666666667,4,2,1,20,0,0
32552,-66.6666666666667,4,2,1,20,0,0
36014,-100,4,2,1,20,0,0
37168,-100,4,2,1,20,0,0
39937,-66.6666666666667,4,2,1,20,0,0
40514,-57.1428571428571,4,2,1,20,0,0
40629,-50,4,2,1,20,0,0
40860,-100,4,2,1,20,0,0
42245,-61.7283950617284,4,2,1,20,0,0
43629,-100,4,2,1,20,0,0
44552,-100,4,2,1,20,0,0
45475,-119.047619047619,4,2,1,20,0,0
46398,-151.515151515152,4,2,1,20,0,0
47321,-200,4,2,1,20,0,0
48245,-100,4,2,1,20,0,0
49168,-119.047619047619,4,2,1,20,0,0
50091,-151.515151515152,4,2,1,20,0,0
51014,-200,4,2,1,20,0,0
51937,-100,4,2,1,20,0,0
52860,-119.047619047619,4,2,1,20,0,0
53783,-151.515151515152,4,2,1,20,0,0
54706,-200,4,2,1,20,0,0
55629,-100,4,2,1,20,0,0
58398,-50,4,2,1,20,0,0
64110,461.538461538462,4,2,1,20,1,0
64110,-50,4,2,1,20,0,0
64571,-100,4,2,1,20,0,0
65033,-66.6666666666667,4,2,1,20,0,0
65436,461.538461538462,4,2,1,20,1,0
65782,461.538461538462,4,2,1,20,1,0
66474,-25,4,2,1,20,0,0
66647,-133.333333333333,4,2,1,20,0,0
67011,-83.3333333333333,4,2,1,20,0,0
67319,-71.4285714285714,4,2,1,20,0,0
67627,-62.5,4,2,1,20,0,0
67780,-66.6666666666667,4,2,1,20,0,0
68551,-50,4,2,1,20,0,0
73166,-100,4,2,1,20,0,0
74088,-100,4,2,1,20,0,1
75473,-50,4,2,1,20,0,1
79165,-128.205128205128,4,2,1,20,0,1
81473,-66.6666666666667,4,2,1,20,0,1
83319,-50,4,2,1,20,0,1
85165,-166.666666666667,4,2,1,20,0,1
85857,-125,4,2,1,20,0,1
86550,-100,4,2,1,20,0,1
87242,-83.3333333333333,4,2,1,20,0,1
89088,-83.3333333333333,4,2,1,20,0,0

[Colours]
Combo1 : 255,255,255
Combo2 : 0,213,213
Combo3 : 55,255,55
Combo4 : 255,94,94
Combo5 : 255,255,72

[HitObjects]
76,192,246,5,0,0:0:0:0:
175,106,707,1,0,0:0:0:0:
246,234,937,1,0,0:0:0:0:
318,120,1168,2,0,P|270:65|252:64,1,70
318,263,1629,2,0,P|270:317|256:316,1,70
175,147,2321,6,0,L|136:60,1,70
103,192,2784,1,0,0:0:0:0:
273,138,3015,2,0,L|247:57,1,52.5000020027161
336,263,3246,2,0,L|336:335,1,52.5000020027161
390,138,3476,2,0,L|417:66,1,52.5000020027161
462,254,3938,5,0,0:0:0:0:
454,157,4399,1,0,0:0:0:0:
321,214,4629,1,0,0:0:0:0:
309,66,4860,2,0,L|403:50,1,70
216,176,5322,2,0,L|217:271,1,70
130,174,6015,6,0,P|179:134|204:144,1,70
76,102,6476,1,0,0:0:0:0:
256,120,6707,2,0,P|275:49|270:38,1,52.5000020027161
259,248,6938,2,0,P|222:309|211:315,1,52.5000020027161
354,161,7169,2,0,P|373:91|369:80,1,52.5000020027161
291,263,7630,5,0,0:0:0:0:
248,163,8091,1,0,0:0:0:0:
115,209,8321,1,0,0:0:0:0:
111,86,8552,2,0,P|178:59|200:64,1,70
44,213,9014,2,0,P|49:263|80:300,1,70
225,177,9707,6,0,L|300:115,1,70
267,250,10168,1,0,0:0:0:0:
142,122,10399,2,0,L|203:63,1,52.5000020027161
28,204,10630,2,0,L|-6:267,1,52.5000020027161
39,68,10860,2,0,L|48:-7,1,52.5000020027161
139,84,11322,5,0,0:0:0:0:
245,105,11783,1,0,0:0:0:0:
316,222,12014,1,0,0:0:0:0:
233,306,12245,2,0,L|138:295,1,70
353,226,12706,2,0,L|378:134,1,70
435,252,13399,6,0,P|376:276|356:256,1,70
467,336,13860,1,0,0:0:0:0:
300,272,14091,2,0,P|275:292|264:344,1,52.5000020027161
332,146,14322,2,0,P|383:96|396:94,1,52.5000020027161
216,203,14553,2,0,P|178:264|179:277,1,52.5000020027161
241,355,14784,1,0,0:0:0:0:
332,268,15015,6,0,B|355:236|355:236|359:174,1,70
234,100,15476,2,0,B|210:131|210:131|206:193,1,70
243,289,15822,1,0,0:0:0:0:
243,289,15938,1,0,0:0:0:0:
302,184,16169,2,0,L|327:110,1,70
393,283,16630,1,0,0:0:0:0:
251,250,16861,6,0,P|197:268|180:259,2,70
497,209,17553,2,0,L|417:192,1,70
229,147,18015,2,0,L|318:120,1,70
435,66,18476,2,0,B|454:96|454:96|435:138,1,70
289,228,19169,6,0,B|270:198|270:198|289:156,1,70
321,60,19515,1,0,0:0:0:0:
321,60,19630,2,0,P|281:40|246:44,1,70
136,134,20092,2,0,P|152:194|201:218,2,105
255,194,21707,6,0,P|214:201|181:234,2,70
434,294,22398,1,0,0:0:0:0:
415,170,22629,1,0,0:0:0:0:
309,88,22860,1,0,0:0:0:0:
176,233,23091,5,0,0:0:0:0:
312,272,23322,1,0,0:0:0:0:
415,170,23552,1,0,0:0:0:0:
217,89,23783,5,0,0:0:0:0:
312,272,24014,1,0,0:0:0:0:
106,198,24245,1,0,0:0:0:0:
391,93,24476,5,0,0:0:0:0:
183,82,24706,1,0,0:0:0:0:
326,286,24937,1,0,0:0:0:0:
136,272,25169,5,0,0:0:0:0:
96,192,25322,1,0,0:0:0:0:
184,192,25476,1,0,0:0:0:0:
256,248,25630,5,0,0:0:0:0:
328,192,25784,1,0,0:0:0:0:
248,152,25938,1,0,0:0:0:0:
170,135,26092,6,0,P|197:91|246:74,1,105
336,296,26784,1,0,0:0:0:0:
312,256,26899,1,0,0:0:0:0:
272,224,27015,2,0,P|232:200|200:192,1,70
311,114,27476,2,0,P|344:125|373:144,1,70
152,272,28630,5,0,0:0:0:0:
176,224,28746,1,0,0:0:0:0:
200,176,28861,1,0,0:0:0:0:
256,192,29784,5,0,0:0:0:0:
72,88,30476,1,0,0:0:0:0:
120,96,30591,1,0,0:0:0:0:
160,128,30706,1,0,0:0:0:0:
364,308,31169,1,0,0:0:0:0:
256,192,31399,5,0,0:0:0:0:
336,80,31783,2,0,B|411:158|400:148,1,93.3333333333333
424,192,32169,2,0,L|376:312,1,125.999996154785
336,336,32476,1,0,0:0:0:0:
296,352,32553,2,0,L|128:324,1,140.000005340576
16,301,33015,5,0,0:0:0:0:
68,217,33169,1,0,0:0:0:0:
118,134,33322,1,0,0:0:0:0:
256,192,33476,5,0,0:0:0:0:
384,248,34169,1,0,0:0:0:0:
400,200,34284,1,0,0:0:0:0:
416,152,34399,1,0,0:0:0:0:
256,192,34861,1,0,0:0:0:0:
256,192,35092,5,0,0:0:0:0:
96,96,36015,1,0,0:0:0:0:
112,144,36130,1,0,0:0:0:0:
128,192,36246,2,0,P|179:198|240:160,2,105
187,308,37169,5,0,0:0:0:0:
306,104,37399,1,0,0:0:0:0:
181,167,37630,1,0,0:0:0:0:
187,308,37861,5,0,0:0:0:0:
0,151,38092,1,0,0:0:0:0:
181,167,38322,1,0,0:0:0:0:
316,264,38553,5,0,0:0:0:0:
244,41,38784,1,0,0:0:0:0:
181,167,39015,1,0,0:0:0:0:
0,151,39246,5,0,0:0:0:0:
244,41,39476,1,0,0:0:0:0:
181,167,39707,1,0,0:0:0:0:
355,182,39938,5,0,0:0:0:0:
160,281,40399,2,0,L|160:244,1,35.0000013351441
96,196,40553,2,0,L|96:148,1,40.8333337227503
160,112,40707,2,0,L|160:64,1,46.6666666666667
252,45,40861,6,0,L|356:69,1,105
344,240,41553,2,0,L|240:264,1,105
128,72,42246,2,0,B|216:72|216:72|144:192|144:192|368:192|368:192|296:72|296:72|384:72,1,680.400016611329
274,113,44092,1,0,0:0:0:0:
274,229,44246,1,0,0:0:0:0:
172,171,44399,1,0,0:0:0:0:
56,64,44553,6,0,L|264:64,1,140
408,64,45246,1,0,0:0:0:0:
456,120,45476,6,0,L|328:120,1,117.599996411133
160,120,46169,1,0,0:0:0:0:
56,200,46399,6,0,L|156:200,1,92.3999997180176
288,200,47092,1,0,0:0:0:0:
456,312,47322,6,0,L|384:312,1,70
280,312,48015,1,0,0:0:0:0:
56,308,48246,6,0,L|264:308,1,140
408,308,48937,1,0,0:0:0:0:
456,252,49169,6,0,L|328:252,1,117.599996411133
160,252,49860,1,0,0:0:0:0:
56,172,50092,6,0,L|156:172,1,92.3999997180176
288,172,50783,1,0,0:0:0:0:
456,60,51015,5,0,0:0:0:0:
314,94,51476,5,0,0:0:0:0:
148,254,51630,1,0,0:0:0:0:
226,180,51783,5,0,0:0:0:0:
60,340,51938,6,0,L|268:340,1,140
412,340,52629,1,0,0:0:0:0:
452,284,52861,6,0,L|324:284,1,117.599996411133
156,284,53552,1,0,0:0:0:0:
60,204,53784,6,0,L|160:204,1,92.3999997180176
292,204,54475,1,0,0:0:0:0:
452,92,54707,6,0,L|380:92,1,70
276,92,55398,1,0,0:0:0:0:
128,48,55630,6,0,P|104:144|128:192,1,140
392,176,56553,2,0,P|416:272|392:320,1,140
160,320,57476,6,0,L|128:280,1,35
80,208,57707,2,0,L|112:184,1,35
352,240,57938,2,0,L|384:200,1,35
432,128,58169,2,0,L|400:104,1,35
196,74,58399,6,0,B|159:80|159:80|135:133,1,70
244,324,58630,2,0,B|280:317|280:317|304:264,1,70
328,52,58861,21,0,0:0:0:0:
240,306,59092,1,0,0:0:0:0:
440,168,59322,6,0,P|440:225|376:288,1,140
72,216,59784,2,0,P|71:158|136:96,1,140
400,48,60246,5,0,0:0:0:0:
249,300,60707,37,0,0:0:0:0:
80,46,60938,1,0,0:0:0:0:
336,40,61169,6,0,B|400:80|400:80|440:152,1,140
176,344,61630,2,0,B|112:304|112:304|72:232,1,140
391,58,62092,5,0,0:0:0:0:
87,203,62553,37,0,0:0:0:0:
446,118,62784,1,0,0:0:0:0:
152,56,63015,6,0,B|192:176|192:176|192:168,1,70
336,168,63246,2,0,B|296:288|296:288|296:280,1,70
200,272,63476,2,0,B|240:392|240:392|240:384,1,70
380,344,63707,2,0,B|428:288|452:264|452:264|392:248,1,140
309,62,64168,2,0,B|236:48|203:39|203:39|220:86,1,140
77,222,64572,2,0,B|101:291|110:324|110:324|142:291,1,140
193,58,65437,5,0,0:0:0:0:
247,101,65552,1,0,0:0:0:0:
269,166,65667,1,0,0:0:0:0:
253,234,65783,1,0,0:0:0:0:
80,328,66244,5,0,0:0:0:0:
392,256,66475,2,0,P|264:112|264:112,1,140
96,56,66705,2,0,L|106:92,1,35.0000013351441
192,276,67013,2,0,L|220:214,1,55.9999982910157
312,52,67321,2,0,L|350:115,1,65.3333313395183
432,316,67628,2,0,L|480:242,1,74.6666666666667
384,48,68089,21,0,0:0:0:0:
88,312,68320,1,0,0:0:0:0:
96,116,68552,6,0,P|145:65|238:65,1,140
392,291,69012,2,0,P|342:342|249:343,1,140
35,152,69475,5,0,0:0:0:0:
232,336,69935,5,0,0:0:0:0:
64,72,70166,1,0,0:0:0:0:
213,118,70397,5,0,0:0:0:0:
340,192,70627,1,0,0:0:0:0:
213,265,70858,1,0,0:0:0:0:
280,112,71089,5,0,0:0:0:0:
444,52,71320,1,0,0:0:0:0:
414,224,71551,1,0,0:0:0:0:
287,292,71783,21,0,0:0:0:0:
174,157,72013,1,0,0:0:0:0:
347,127,72244,1,0,0:0:0:0:
209,290,72475,5,0,0:0:0:0:
1,290,72706,1,0,0:0:0:0:
104,108,72935,1,0,0:0:0:0:
104,108,73167,6,0,L|132:141,1,35
298,340,73398,2,0,L|269:306,1,35
251,105,73629,1,0,0:0:0:0:
303,151,73743,1,0,0:0:0:0:
333,213,73858,1,0,0:0:0:0:
311,319,74089,5,0,0:0:0:0:
144,93,74319,1,0,0:0:0:0:
311,319,74550,1,0,0:0:0:0:
144,93,74781,1,0,0:0:0:0:
252,188,75012,1,0,0:0:0:0:
143,276,75475,6,0,L|31:248,1,93.3333333333333
348,329,75783,1,0,0:0:0:0:
146,122,75936,6,0,L|65:39,1,93.3333333333333
307,337,76244,1,0,0:0:0:0:
271,94,76398,6,0,L|268:-22,1,93.3333333333333
273,343,76706,1,0,0:0:0:0:
454,110,76858,5,0,0:0:0:0:
256,192,77320,5,0,0:0:0:0:
256,192,77551,1,0,0:0:0:0:
88,72,77781,37,0,0:0:0:0:
144,336,78012,1,0,0:0:0:0:
224,64,78243,1,0,0:0:0:0:
280,328,78474,1,0,0:0:0:0:
352,192,78705,1,0,0:0:0:0:
96,72,79166,5,0,0:0:0:0:
136,336,79397,1,0,0:0:0:0:
201,40,79628,2,0,P|191:76|219:121,1,81.9000027493287
310,343,80089,2,0,P|319:306|291:261,1,81.9000027493287
390,91,80551,2,0,P|352:91|314:129,1,81.9000027493287
121,267,81012,2,0,P|157:265|194:227,1,81.9000027493287
382,149,81474,5,0,0:0:0:0:
120,318,81705,1,0,0:0:0:0:
117,176,81935,21,0,0:0:0:0:
403,270,82166,1,0,0:0:0:0:
407,61,82397,5,0,0:0:0:0:
124,254,82628,1,0,0:0:0:0:
139,90,82858,5,0,0:0:0:0:
438,216,83089,1,0,0:0:0:0:
81,284,83320,6,0,B|134:333|134:333|212:347,1,140
461,122,83782,2,0,B|407:72|407:72|329:58,1,140
67,116,84244,37,0,0:0:0:0:
204,331,84706,5,0,0:0:0:0:
379,89,84935,1,0,0:0:0:0:
63,108,85166,6,0,P|63:105|64:64,1,41.9999987182618
63,259,85628,1,0,0:0:0:0:
183,75,85858,54,0,P|203:38|215:18,1,56
74,265,86320,1,0,0:0:0:0:
306,143,86551,6,0,P|351:117|378:101,1,70
77,276,87013,1,0,0:0:0:0:
392,290,87243,54,0,P|458:290|494:287,1,83.9999974365235
77,290,87705,1,0,0:0:0:0:
256,192,87935,5,0,0:0:0:0:
214,216,88398,5,0,0:0:0:0:
256,143,88629,1,0,0:0:0:0:
298,216,88858,1,0,0:0:0:0:
