osu file format v14

[General]
AudioFilename: Jul I Svingen 1-10.mp3
AudioLeadIn: 0
PreviewTime: 10435
Countdown: 0
SampleSet: Soft
StackLeniency: 0.7
Mode: 2
LetterboxInBreaks: 0
WidescreenStoryboard: 0

[Editor]
DistanceSpacing: 0.6
BeatDivisor: 4
GridSize: 16
TimelineZoom: 2

[Metadata]
Title:Jul i Svingen
TitleUnicode:Jul i Svingen
Artist:Odd Nordstoga
ArtistUnicode:Odd Nordstoga
Creator:Benny-
Version:Salad
Source:Jul i Svingen
Tags:Advent Calendar TV Show nrk Norsk Rikskringkasting christmas xmas snow norwegian winter bennybananas benny
BeatmapID:833805
BeatmapSetID:381074

[Difficulty]
HPDrainRate:4
CircleSize:3.5
OverallDifficulty:7
ApproachRate:7
SliderMultiplier:1.5
SliderTickRate:1

[Events]
//Background and Video events
0,0,"Snow-brown-eyes-Christmas-anime-girls-HD-Wallpapers_cropped.jpg",0,0
//Break Periods
//Storyboard Layer 0 (Background)
//Storyboard Layer 1 (Fail)
//Storyboard Layer 2 (Pass)
//Storyboard Layer 3 (Foreground)
//Storyboard Sound Samples

[TimingPoints]
5730,427.807486631016,6,2,1,40,1,0
10863,427.350427350427,4,2,1,40,1,1
11076,-100,4,2,1,50,0,0
24538,430.10752688172,4,2,1,50,1,1
24753,-100,4,2,1,50,0,0
37441,-100,4,2,1,5,0,0

[Colours]
Combo1 : 183,230,224
Combo2 : 168,200,208
Combo3 : 186,214,237
Combo4 : 176,239,255

[HitObjects]
256,192,4660,12,2,5729,0:0:0:0:
148,272,6157,6,0,L|222:272,1,75,2|0,0:0|0:0,0:0:0:0:
124,232,6585,1,2,0:0:0:0:
333,161,7013,1,2,0:0:0:0:
156,158,7441,2,0,P|112:221|165:282,1,150,2|2,0:0|0:0,0:0:0:0:
468,233,8296,6,0,L|200:92,2,300,2|2|2,0:0|0:0|0:0,0:0:0:0:
220,272,10435,2,0,L|142:233,1,75,2|0,0:0|0:0,0:0:0:0:
342,202,10863,6,0,L|496:194,1,150,6|2,0:0|0:0,0:0:0:0:
338,134,11717,1,2,0:0:0:0:
344,64,11931,1,0,0:0:0:0:
435,41,12145,1,10,0:0:0:0:
134,150,12572,6,0,P|83:156|33:251,1,150,6|2,0:0|0:0,0:0:0:0:
122,273,13213,1,0,0:0:0:0:
212,284,13427,2,0,L|364:284,1,150,2|10,0:0|0:0,0:0:0:0:
61,214,14281,6,0,L|209:172,1,150,6|2,0:0|0:0,0:0:0:0:
30,133,15136,1,2,0:0:0:0:
56,61,15350,1,0,0:0:0:0:
140,64,15563,1,10,0:0:0:0:
454,175,15991,6,0,P|444:125|345:79,1,150,6|2,0:0|0:0,0:0:0:0:
275,85,16632,1,0,0:0:0:0:
185,94,16845,2,0,L|336:77,1,150,2|10,0:0|0:0,0:0:0:0:
421,89,17486,1,0,0:0:0:0:
225,157,17700,6,0,P|181:222|231:271,1,150,6|2,0:0|0:0,0:0:0:0:
434,221,18555,2,0,P|488:265|474:346,1,150,2|10,0:0|0:0,0:0:0:0:
388,350,19196,1,0,0:0:0:0:
193,342,19410,6,0,P|114:304|85:233,1,150,6|2,0:0|0:0,0:0:0:0:
302,253,20264,2,0,L|409:137,1,150,2|10,0:0|0:0,0:0:0:0:
329,119,20905,1,0,0:0:0:0:
134,131,21119,6,0,L|293:102,1,150,6|2,0:0|0:0,0:0:0:0:
124,162,21974,2,0,L|24:157,2,75,2|0|2,0:0|0:0|0:0,0:0:0:0:
341,273,22828,6,0,P|396:255|429:165,1,150,2|2,0:0|0:0,0:0:0:0:
245,165,23683,2,0,P|210:181|198:287,1,150,2|2,0:0|0:0,0:0:0:0:
489,275,24538,6,0,P|484:222|406:164,1,150,6|2,0:0|0:0,0:0:0:0:
258,132,25398,1,2,0:0:0:0:
259,61,25613,1,0,0:0:0:0:
349,51,25828,1,10,0:0:0:0:
48,149,26258,6,0,P|13:192|61:265,1,150,6|2,0:0|0:0,0:0:0:0:
147,267,26903,1,0,0:0:0:0:
240,272,27118,2,0,L|103:163,1,150,2|10,0:0|0:0,0:0:0:0:
320,256,27978,6,0,L|432:152,1,150,6|2,0:0|0:0,0:0:0:0:
339,104,28624,1,0,0:0:0:0:
144,129,28839,2,0,P|106:161|127:252,1,150,2|10,0:0|0:0,0:0:0:0:
340,246,29699,6,0,L|417:257,2,75,6|0|10,0:0|0:0|0:0,0:0:0:0:
144,245,30559,2,0,P|106:217|153:139,1,150,2|10,0:0|0:0,0:0:0:0:
447,264,31419,6,0,P|457:203|388:113,1,150,6|2,0:0|0:0,0:0:0:0:
323,116,32064,1,0,0:0:0:0:
233,123,32279,2,0,P|197:193|254:247,1,150,2|2,0:0|0:0,0:0:0:0:
406,231,33140,6,0,L|344:157,2,75,6|0|6,0:0|0:0|0:0,0:0:0:0:
116,150,34000,1,6,0:0:0:0:
256,192,34430,12,0,37441,0:0:0:0:
