osu file format v14

[General]
AudioFilename: Jul I Svingen 1-10.mp3
AudioLeadIn: 0
PreviewTime: 10435
Countdown: 0
SampleSet: Soft
StackLeniency: 0.7
Mode: 2
LetterboxInBreaks: 0
WidescreenStoryboard: 0

[Editor]
DistanceSpacing: 0.6
BeatDivisor: 4
GridSize: 16
TimelineZoom: 1.8

[Metadata]
Title:Jul i Svingen
TitleUnicode:Jul i Svingen
Artist:Odd Nordstoga
ArtistUnicode:Odd Nordstoga
Creator:Benny-
Version:Platter
Source:Jul i Svingen
Tags:Advent Calendar TV Show nrk Norsk Rikskringkasting christmas xmas snow norwegian winter bennybananas benny
BeatmapID:833804
BeatmapSetID:381074

[Difficulty]
HPDrainRate:5
CircleSize:4
OverallDifficulty:8
ApproachRate:8
SliderMultiplier:1.8
SliderTickRate:1

[Events]
//Background and Video events
0,0,"Snow-brown-eyes-Christmas-anime-girls-HD-Wallpapers_cropped.jpg",0,0
//Break Periods
//Storyboard Layer 0 (Background)
//Storyboard Layer 1 (Fail)
//Storyboard Layer 2 (Pass)
//Storyboard Layer 3 (Foreground)
//Storyboard Sound Samples

[TimingPoints]
5730,427.807486631016,6,2,1,40,1,0
10863,427.350427350427,4,2,1,40,1,1
11076,-100,4,2,1,50,0,0
24538,430.10752688172,4,2,1,50,1,1
24753,-100,4,2,1,50,0,0
37441,-100,4,2,1,5,0,0

[Colours]
Combo1 : 183,230,224
Combo2 : 168,200,208
Combo3 : 186,214,237
Combo4 : 176,239,255

[HitObjects]
256,192,4660,12,2,5729,0:0:0:0:
132,290,6157,6,0,L|33:290,1,90,2|0,0:0|0:0,0:0:0:0:
228,290,6585,1,2,0:0:0:0:
19,319,7013,1,2,0:0:0:0:
195,319,7441,6,0,L|291:319,2,90,2|0|2,0:0|0:0|0:0,0:0:0:0:
490,327,8296,6,0,L|152:191,2,360,2|2|2,0:0|0:0|0:0,0:0:0:0:
252,338,10435,2,0,L|148:338,1,90,2|0,0:0|0:0,0:0:0:0:
442,336,10863,6,0,L|467:236,1,90,6|0,0:0|0:0,0:0:0:0:
310,226,11290,2,0,L|296:114,1,90,2|0,0:0|0:0,0:0:0:0:
454,117,11717,1,2,0:0:0:0:
352,53,11931,1,0,0:0:0:0:
74,61,12145,2,0,L|12:141,1,90,10|0,0:0|0:0,0:0:0:0:
317,236,12572,6,0,L|506:248,1,180,6|2,0:0|0:0,0:0:0:0:
410,173,13213,1,0,0:0:0:0:
208,160,13427,2,0,P|137:196|120:297,1,180,2|10,0:0|0:0,0:0:0:0:
442,298,14281,6,0,L|232:295,1,180,6|2,0:0|0:0,0:0:0:0:
166,242,14922,1,0,0:0:0:0:
336,224,15136,2,0,L|386:131,1,90,2|0,0:0|0:0,0:0:0:0:
64,170,15563,2,0,L|29:75,1,90,10|0,0:0|0:0,0:0:0:0:
323,140,15991,6,0,L|507:59,1,180,6|2,0:0|0:0,0:0:0:0:
396,43,16632,1,0,0:0:0:0:
192,192,16845,2,0,L|392:188,1,180,2|10,0:0|0:0,0:0:0:0:
482,189,17486,1,0,0:0:0:0:
208,264,17700,6,0,P|164:240|222:138,1,180,6|2,0:0|0:0,0:0:0:0:
318,117,18341,1,0,0:0:0:0:
47,142,18555,2,0,L|23:244,1,90,2|0,0:0|0:0,0:0:0:0:
322,262,18982,1,10,0:0:0:0:
454,223,19196,1,0,0:0:0:0:
175,214,19410,6,0,L|0:145,1,180,6|2,0:0|0:0,0:0:0:0:
128,112,20051,1,0,0:0:0:0:
336,224,20264,2,0,L|144:219,1,180,2|10,0:0|0:0,0:0:0:0:
26,205,20905,1,0,0:0:0:0:
337,252,21119,6,0,P|374:211|322:98,1,180,6|2,0:0|0:0,0:0:0:0:
74,235,21974,2,0,L|185:232,2,90,2|0|2,0:0|0:0|0:0,0:0:0:0:
389,310,22828,5,2,0:0:0:0:
472,268,23042,1,0,0:0:0:0:
471,170,23256,1,2,0:0:0:0:
378,120,23469,1,0,0:0:0:0:
180,244,23683,1,2,0:0:0:0:
88,217,23897,1,0,0:0:0:0:
53,145,24110,1,2,0:0:0:0:
110,57,24324,1,0,0:0:0:0:
390,178,24538,6,0,L|442:276,1,90,6|0,0:0|0:0,0:0:0:0:
125,298,24968,2,0,L|66:211,1,90,2|0,0:0|0:0,0:0:0:0:
206,189,25398,1,2,0:0:0:0:
82,94,25613,1,0,0:0:0:0:
374,130,25828,2,0,L|426:215,1,90,10|0,0:0|0:0,0:0:0:0:
82,283,26258,6,0,P|29:218|82:144,1,180,6|2,0:0|0:0,0:0:0:0:
174,137,26903,1,0,0:0:0:0:
384,208,27118,2,0,L|201:226,1,180,2|10,0:0|0:0,0:0:0:0:
477,293,27978,6,0,P|493:236|413:142,1,180,6|2,0:0|0:0,0:0:0:0:
318,135,28624,1,0,0:0:0:0:
41,212,28839,2,0,L|15:118,1,90,2|0,0:0|0:0,0:0:0:0:
182,122,29269,1,10,0:0:0:0:
448,215,29699,6,0,L|338:210,1,90,6|0,0:0|0:0,0:0:0:0:
180,224,30129,2,0,L|161:115,1,90,10|0,0:0|0:0,0:0:0:0:
358,173,30559,2,0,L|467:175,2,90,2|0|10,0:0|0:0|0:0,0:0:0:0:
41,242,31419,6,0,P|59:191|186:135,1,180,6|2,0:0|0:0,0:0:0:0:
293,144,32064,1,0,0:0:0:0:
107,262,32279,2,0,P|57:246|95:145,1,180,2|2,0:0|0:0,0:0:0:0:
281,154,33140,6,0,L|163:143,1,90,6|0,0:0|0:0,0:0:0:0:
471,110,33570,1,6,0:0:0:0:
280,279,34000,1,6,0:0:0:0:
256,192,34215,12,0,37441,0:0:0:0:
